На всех торрентах на трекере установлена скидка на скачивание в размере 100 процентов(а).
 Возможность скачивания торрента НЕ зависит от ограничений при низком ратио, низком аплоаде, требуемом ратио или требуемом аплоаде.


Начать новую тему Ответить на тему
Статистика раздачи
Размер: 4.71 ГБ | Добавлен: 23 окт 2016, 10:59 | Скачали: 0
Сидеров: 2  [0 байт/сек]    Личеров: 0  [0 байт/сек]
Пред. тема | След. тема 

Автор
Сообщение

СообщениеДобавлено: 23 окт 2016, 10:59 

Ответить с цитатой 

LiSA 「LiVE is Smile Always~ 今日もいい日だっ~/ ~LiSAMMERLAND~」 (05.10.2014)

Жанр: J-Rock, J-Pop, Alternative
Продолжительность: 01:31:23
Год выпуска: 2014

Описание: LIVE at Conifer Forest on July 20, 2014

Сетлист:
01. crossing field
02. Cosmic Roller Coaster (コズミックジェットコースター)
03. Mirai Kaze (ミライカゼ)
04. say my name no Kataomoi (say my nameの片想い)
05. Kakuseiya (覚醒屋)
06. Boku no Kotoba de (僕の言葉で)
07. träumerei
08. DOCTOR
09. Shiroi Toiki (シロイトイキ)
10. Itsuka no Tegami (いつかの手紙)
11. Ashiato Compass (アシアトコンパス)
12. EGOiSTiC SHOOTER
13. ROCK-mode
14. WiLD CANDY
15. Rising Hope
16. Gyakkou Orchestra (逆光オーケストラ)
17. BRiGHT FLiGHT
18. best day, best way

Доп. информация: Нет песен Yuukei Yesterday (夕景イエスタデイ), DayGame, Crow Song.
Да, хотелось бы добавить, у меня серый IP, если вам повезло скачать, раздайте хотя бы еще кому-нибудь одному, ко мне очень трудно пробиться в канал.

Качество: BDRip 1080p
Контейнер: MP4
Видео кодек: HVC1
Аудио кодек: AAC
Видео: HVC1 1920x1080 23.976 fps 7070kbps
Аудио: AAC 48000Hz stereo 305kbps
Код:
General
Complete name                  : E:\+ Концерты\[DHR-Raws][Live]「LiVE is Smile Always~LiSAMMERLAND~」2014.07.20 SUN@富士急ハイランド・コニファーフォレスト(BDRip 1080P HEVC YUV420P8 AAC Chapter).mp4
Format                         : MPEG-4
Codec ID                       : M4V
File size                      : 4.71 GiB
Duration                       : 1h 31mn
Overall bit rate mode          : Variable
Overall bit rate               : 7 379 Kbps
Encoded date                   : UTC 2015-03-19 01:20:15
Tagged date                    : UTC 2015-03-19 01:20:15

Video
ID                             : 1
Format                         : HEVC
Format/Info                    : High Efficiency Video Coding
Codec ID                       : hvc1
Codec ID/Info                  : High Efficiency Video Coding
Duration                       : 1h 31mn
Bit rate                       : 7 069 Kbps
Width                          : 1 920 pixels
Height                         : 1 080 pixels
Display aspect ratio           : 16:9
Frame rate mode                : Variable
Frame rate                     : 23.976 fps
Minimum frame rate             : 17.126 fps
Maximum frame rate             : 29.970 fps
Bits/(Pixel*Frame)             : 0.142
Stream size                    : 4.51 GiB (96%)
Encoded date                   : UTC 2015-03-19 01:20:15
Tagged date                    : UTC 2015-03-19 01:20:15
Matrix coefficients            : BT.709

Audio
ID                             : 2
Format                         : AAC
Format/Info                    : Advanced Audio Codec
Format profile                 : LC
Codec ID                       : 40
Duration                       : 1h 31mn
Bit rate mode                  : Variable
Bit rate                       : 305 Kbps
Channel(s)                     : 2 channels
Channel positions              : Front: L R
Sampling rate                  : 48.0 KHz
Compression mode               : Lossy
Stream size                    : 200 MiB (4%)
Encoded date                   : UTC 2015-03-19 01:20:15
Tagged date                    : UTC 2015-03-19 01:20:15

Menu #1
ID                             : 3
Codec ID                       : tx3g
Duration                       : 1h 29mn
Encoded date                   : UTC 2015-03-19 01:20:15
Tagged date                    : UTC 2015-03-19 01:20:15
Bit rate mode                  : VBR

Menu #2
00:00:00.000                   : Opening
00:00:47.046                   : 1 crossing field
00:04:55.328                   : 2 コズミックジェットコースター
00:09:35.641                   : 3 ミライカゼ
00:13:49.428                   : 4 say my nameの片想い
00:18:00.012                   : 5 覚醒屋
00:22:08.827                   : 6 僕の言葉で
00:26:33.591                   : 7 traumerei
00:30:44.042                   : 8 DOCTOR
00:34:08.513                   : 9 シロイトイキ
00:40:59.089                   : 10 いつかの手紙
00:49:33.136                   : 11 アシアトコンパス
00:57:35.185                   : 12 EGOiSTiC SHOOTER
01:01:01.658                   : 13 ROCK-mode
01:05:49.512                   : 14 WiLD CANDY
01:11:07.896                   : 15 Rising Hope
01:15:17.446                   : 16 逆光オーケストラ
01:19:42.878                   : 17 BRiGHT FLiGHT
01:24:25.794                   : 18 best day, best way






См. также:
2010 (720p)
(720p+sub)
(1080p)

2011
2012
2014 (Road to Budokan TV)
(Road to Budokan BD)
(LiSAMMERLAND TV)
(LiSAMMERLAND BD) (этот концерт)
2015 (EX THEATER)
(Pink & Black)
Правила, инструкции, FAQ!!!
Торрент  Добавлен [23 окт 2016, 10:59] Скачать торрент Магнет ссылка
Скачать торрент
[ Размер 24.14 КБ / Просмотров 12 ]

Статус
Проверен 
 
Размер  4.71 ГБ
Приватный: Нет (DHT включён)
.torrent скачан  0
Как залить торрент? | Как скачать Torrent? | Ошибка в торренте? Качайте магнет  
загрузка...


     Отправить личное сообщение
   
Страница 1 из 1
Показать сообщения за:  Поле сортировки  
Начать новую тему Ответить на тему

   Похожие торренты   Автор   Ответы   Просмотры   Последнее сообщение 
В этой теме нет новых непрочитанных сообщений. Скачать торрент Проверен LiSA 「LiVE is Smile Always / ~LiSAMMERLAND~」 M-ON! TV (05.10.2014) [2014, J-Rock, J-Pop, Alternative, HDTVRip 720p]

в форуме Концерты (HD-Video), Размер: 3.6 ГБ, Здоровье: 100%

Anonymous

0
2|0

27
0

23 окт 2016, 10:57

Anonymous Перейти к последнему сообщению

В этой теме нет новых непрочитанных сообщений. Скачать торрент Проверен LiSA 「LiVE is Smile Always / ~Kyou mo ii Hi Da~」 in Nippon Budokan / 「Road to Budokan」 (Official Live BD) [2014, J-Rock, J-Pop, Alternative, BDRip 1080p]

в форуме Концерты (HD-Video), Размер: 10.1 ГБ, Здоровье: 100%

Anonymous

0
2|1

23
0

23 окт 2016, 12:20

Anonymous Перейти к последнему сообщению

В этой теме нет новых непрочитанных сообщений. Скачать торрент Проверен LiSA - 「LiVE is Smile Always ~PiNK & BLACK~」 (Day 1+2) (M-ON! TV LIVE & Documentary) [2015, J-Rock, J-Pop, Alternative, HDTVRip 720p]

в форуме Концерты (HD-Video), Размер: 2.98 ГБ, Здоровье: 100%

Anonymous

0
2|0

25
0

23 окт 2016, 10:47

Anonymous Перейти к последнему сообщению

В этой теме нет новых непрочитанных сообщений. Скачать торрент Проверен LiSA 「LiVE is Smile Always~今日もいい日だっ~」/ ~Kyou mo ii Hi Da~ in Nippon Budokan / Road to Budokan (M-ON! TV) [2014, J-Rock, J-Pop, Alternative, HDTV 720p]

в форуме Концерты (HD-Video), Размер: 3.59 ГБ, Здоровье: 100%

Anonymous

0
2|0

27
0

23 окт 2016, 13:07

Anonymous Перейти к последнему сообщению

В этой теме нет новых непрочитанных сообщений. Скачать торрент Проверен LiSA - LiVE is Smile Always ~LOVER“S”MiLE~ [2012, JRock, JPop, BDRip 720p]

в форуме Концерты (HD-Video), Размер: 6.83 ГБ, Здоровье: 100%

Anonymous

0
3|0

59
0

23 окт 2016, 19:13

Anonymous Перейти к последнему сообщению



Сейчас этот форум просматривают: нет зарегистрированных пользователей и гости: 1


Вы не можете начинать темы
Вы не можете отвечать на сообщения
Вы не можете редактировать свои сообщения
Вы не можете удалять свои сообщения
Вы не можете добавлять вложения

Перейти:  
Ресурс не предоставляет электронные версии произведений, а занимается лишь коллекционированием и каталогизацией ссылок, присылаемых и публикуемых на форуме нашими читателями. Если вы являетесь правообладателем какого-либо представленного материала и не желаете чтобы ссылка на него находилась в нашем каталоге, свяжитесь с нами и мы незамедлительно удалим её. Файлы для обмена на трекере предоставлены пользователями сайта, и администрация не несёт ответственности за их содержание. Просьба не заливать файлы, защищенные авторскими правами, а также файлы нелегального содержания!
cron