На всех торрентах на трекере установлена скидка на скачивание в размере 100 процентов(а).
 Возможность скачивания торрента НЕ зависит от ограничений при низком ратио, низком аплоаде, требуемом ратио или требуемом аплоаде.


Начать новую тему Ответить на тему
Статистика раздачи
Размер: 4.56 ГБ | Добавлен: 21 окт 2014, 20:54 | Скачали: 4
Сидеров: 54  [0 байт/сек]    Личеров: 8  [0 байт/сек]
Пред. тема | След. тема 

Автор
Сообщение

СообщениеДобавлено: 21 окт 2014, 20:54 

Ответить с цитатой 

Линия жизни (3 серии)

Жанр: экранизация
Год выпуска: 1980
Продолжительность: 01:04:59 + 01:04:49 + 01:04:12

Режиссёр: Владимир Назаров

В ролях: Юрий Григорьев (II), Татьяна Лаврентьева, Игорь Васильев, Ирина Нечаева, Анатолий Соловьёв, Геннадий Юхтин, Евгений Буренков, Николай Дупак, Владимир Кузнецов (V), Кирилл Столяров, Борис Юрченко, Валерий Золотухин, Юрий Катин-Ярцев, Михаил Ремизов, Александр Январёв

Описание: По мотивам дилогии А. Чаковского "Год жизни" и "Дороги, которые мы выбираем".
Действие фильма происходит на строительстве тоннеля в Заполярье. Молодого инженера Андрея Арефьева назначают начальником участка. Между ним и Николаем Крумовым, начальником соседнего участка, возникает серьезный конфликт. И дело тут не только в разных профессиональных подходах к методам строительства в тяжелых условиях: любимая девушка Арефьева Светлана, нисколько не мучаясь, предпочла ему Крумова.


Качество видео: DVB
Формат видео: MPEG-PS

Видео: MPEG Video, 720(768)x576 (4:3), 25,000 кадров/сек, 3192 Кбит/сек
Аудио: MPEG Audio, 48,0 КГц, 192 Кбит/сек, 2 канала
Общее
Полное имя : D:\Torrent\Линия жизни\Линия жизни 1 (Дом Кино).mpg
Формат : MPEG-PS
Размер файла : 1,57 Гбайт
Продолжительность : 1 ч. 5 м.
Режим общего битрейта : Переменный
Общий поток : 3453 Кбит/сек

Видео
Идентификатор : 224 (0xE0)
Формат : MPEG Video
Версия формата : Version 2
Профиль формата : Main@Main
Параметр BVOP формата : Да
Параметр матрицы формата : Выборочная
Параметр GOP формата : M=3, N=12
Продолжительность : 1 ч. 5 м.
Вид битрейта : Переменный
Битрейт : 3192 Кбит/сек
Максимальный битрейт : 5000 Кбит/сек
Ширина : 720 пикселей
Высота : 576 пикселей
Соотношение сторон : 4:3
Частота кадров : 25,000 кадров/сек
Стандарт вещания : PAL
Цветовое пространство : YUV
Субдискретизация насыщенности : 4:2:0
Битовая глубина : 8 бит
Тип развёртки : Чересстрочная
Порядок развёртки : Верхнее поле первое
Метод сжатия : С потерями
Бит/(Пиксели*Кадры) : 0.308
Временной код первого кадра : 00:00:00:00
Оригинал временного кода : Group of pictures header
Размер потока : 1,45 Гбайт (92%)

Аудио
Идентификатор : 192 (0xC0)
Формат : MPEG Audio
Версия формата : Version 1
Профиль формата : Layer 2
Продолжительность : 1 ч. 5 м.
Вид битрейта : Постоянный
Битрейт : 192 Кбит/сек
Каналы : 2 канала
Частота : 48,0 КГц
Метод сжатия : С потерями
Задержка видео : 3 мс.
Размер потока : 89,3 Мбайт (6%)

Общее
Полное имя : D:\Torrent\Линия жизни\Линия жизни 2 (Дом Кино).mpg
Формат : MPEG-PS
Размер файла : 1,51 Гбайт
Продолжительность : 1 ч. 4 м.
Режим общего битрейта : Переменный
Общий поток : 3339 Кбит/сек

Видео
Идентификатор : 224 (0xE0)
Формат : MPEG Video
Версия формата : Version 2
Профиль формата : Main@Main
Параметр BVOP формата : Да
Параметр матрицы формата : Выборочная
Параметр GOP формата : M=3, N=12
Продолжительность : 1 ч. 4 м.
Вид битрейта : Переменный
Битрейт : 3081 Кбит/сек
Максимальный битрейт : 5000 Кбит/сек
Ширина : 720 пикселей
Высота : 576 пикселей
Соотношение сторон : 4:3
Частота кадров : 25,000 кадров/сек
Стандарт вещания : PAL
Цветовое пространство : YUV
Субдискретизация насыщенности : 4:2:0
Битовая глубина : 8 бит
Тип развёртки : Чересстрочная
Порядок развёртки : Верхнее поле первое
Метод сжатия : С потерями
Бит/(Пиксели*Кадры) : 0.297
Временной код первого кадра : 00:00:00:00
Оригинал временного кода : Group of pictures header
Размер потока : 1,40 Гбайт (92%)

Аудио
Идентификатор : 192 (0xC0)
Формат : MPEG Audio
Версия формата : Version 1
Профиль формата : Layer 2
Продолжительность : 1 ч. 4 м.
Вид битрейта : Постоянный
Битрейт : 192 Кбит/сек
Каналы : 2 канала
Частота : 48,0 КГц
Метод сжатия : С потерями
Задержка видео : 19 мс.
Размер потока : 89,0 Мбайт (6%)

Общее
Полное имя : D:\Torrent\Линия жизни\Линия жизни 3 (Дом Кино).mpg
Формат : MPEG-PS
Размер файла : 1,48 Гбайт
Продолжительность : 1 ч. 4 м.
Режим общего битрейта : Переменный
Общий поток : 3299 Кбит/сек

Видео
Идентификатор : 224 (0xE0)
Формат : MPEG Video
Версия формата : Version 2
Профиль формата : Main@Main
Параметр BVOP формата : Да
Параметр матрицы формата : Выборочная
Параметр GOP формата : M=3, N=12
Продолжительность : 1 ч. 4 м.
Вид битрейта : Переменный
Битрейт : 3041 Кбит/сек
Максимальный битрейт : 5000 Кбит/сек
Ширина : 720 пикселей
Высота : 576 пикселей
Соотношение сторон : 4:3
Частота кадров : 25,000 кадров/сек
Стандарт вещания : PAL
Цветовое пространство : YUV
Субдискретизация насыщенности : 4:2:0
Битовая глубина : 8 бит
Тип развёртки : Чересстрочная
Порядок развёртки : Верхнее поле первое
Метод сжатия : С потерями
Бит/(Пиксели*Кадры) : 0.293
Временной код первого кадра : 00:00:00:00
Оригинал временного кода : Group of pictures header
Размер потока : 1,36 Гбайт (92%)

Аудио
Идентификатор : 192 (0xC0)
Формат : MPEG Audio
Версия формата : Version 1
Профиль формата : Layer 2
Продолжительность : 1 ч. 4 м.
Вид битрейта : Постоянный
Битрейт : 192 Кбит/сек
Каналы : 2 канала
Частота : 48,0 КГц
Метод сжатия : С потерями
Задержка видео : 2 мс.
Размер потока : 88,2 Мбайт (6%)
загрузка...
Правила, инструкции, FAQ!!!
Торрент  Добавлен [21 окт 2014, 20:54] Скачать торрент Магнет ссылка
Скачать торрент
[ Размер 12.1 КБ / Просмотров 19 ]

Статус
Проверен 
 
Размер  4.56 ГБ
Приватный: Нет (DHT включён)
.torrent скачан  4
Как залить торрент? | Как скачать Torrent? | Ошибка в торренте? Качайте магнет  


     Отправить личное сообщение
   
Страница 1 из 1
Показать сообщения за:  Поле сортировки  
Начать новую тему Ответить на тему

   Похожие торренты   Автор   Ответы   Просмотры   Последнее сообщение 
В этой теме нет новых непрочитанных сообщений. Скачать торрент Проверен Хайнлайн Роберт - Линия жизни [Ксеноморф (ЛИ), 2014 г., 128 kbps, MP3]

в форуме Зарубежная фантастика, фэнтези, мистика, ужасы, Размер: 53.58 МБ, Здоровье: 100%

Anonymous

0
12|2

42
2

11 сен 2016, 11:15

Anonymous Перейти к последнему сообщению

В этой теме нет новых непрочитанных сообщений. Скачать торрент Проверен (Pop) [LP] [32/192] Игорь Николаев - Линия жизни - 2014, WavPack (image+.cue)

в форуме Отечественная поп-музыка (оцифровки), Размер: 1.67 ГБ, Здоровье: 100%

Anonymous

0
3|1

15
1

15 апр 2018, 20:23

Anonymous Перейти к последнему сообщению

В этой теме нет новых непрочитанных сообщений. Скачать торрент Проверен Мио, мой Мио (Владимир Грамматиков) [1987, сказка, экранизация, DVDRip] Dub (Rus) + Orig (Eng) + Sub (Rus)

в форуме Детское, Семейное кино, Размер: 1.46 ГБ, Здоровье: 100%

Гость

0
58|18

110
0

10 апр 2016, 20:25

Гость Перейти к последнему сообщению

В этой теме нет новых непрочитанных сообщений. Скачать торрент Проверен Без семьи (Владимир Бортко) [1984, драма, экранизация, музыкальный, DVDScr]

в форуме Детское, Семейное кино, Размер: 1.54 ГБ, Здоровье: 100%

Anonymous

0
29|9

135
1

10 апр 2016, 20:25

Anonymous Перейти к последнему сообщению

В этой теме нет новых непрочитанных сообщений. Скачать торрент Проверен Высоцкий Сергей - Пунктирная линия [Сушков Владимир, 2014 г., 96 kbps, MP3]

в форуме Детектив и Боевики, Размер: 242.6 МБ, Здоровье: 100%

Anonymous

0
7|1

32
1

20 ноя 2016, 16:27

Anonymous Перейти к последнему сообщению



Сейчас этот форум просматривают: нет зарегистрированных пользователей и гости: 0


Вы не можете начинать темы
Вы не можете отвечать на сообщения
Вы не можете редактировать свои сообщения
Вы не можете удалять свои сообщения
Вы не можете добавлять вложения

Перейти:  
Ресурс не предоставляет электронные версии произведений, а занимается лишь коллекционированием и каталогизацией ссылок, присылаемых и публикуемых на форуме нашими читателями. Если вы являетесь правообладателем какого-либо представленного материала и не желаете чтобы ссылка на него находилась в нашем каталоге, свяжитесь с нами и мы незамедлительно удалим её. Файлы для обмена на трекере предоставлены пользователями сайта, и администрация не несёт ответственности за их содержание. Просьба не заливать файлы, защищенные авторскими правами, а также файлы нелегального содержания!
cron