На всех торрентах на трекере установлена скидка на скачивание в размере 100 процентов(а).
 Возможность скачивания торрента НЕ зависит от ограничений при низком ратио, низком аплоаде, требуемом ратио или требуемом аплоаде.


Начать новую тему Ответить на тему
Статистика раздачи
Размер: 52.04 ГБ | Добавлен: 12 дек 2014, 16:53 | Скачали: 4
Сидеров: 3  [0 байт/сек]    Личеров: 4  [0 байт/сек]
Пред. тема | След. тема 

Автор
Сообщение

СообщениеДобавлено: 12 дек 2014, 16:53 

Ответить с цитатой 









Год выпуска: 1993
Страна: США
Жанр: Ужасы, комедия
Продолжительность: 01:31:27




Перевод: Профессиональный (многоголосый закадровый) - CP Digital
Перевод: Профессиональный (многоголосый закадровый) - РЕН-ТВ
Перевод: Профессиональный (многоголосый закадровый) - Украинский
Перевод: Авторский (одноголосый закадровый) - Алексей Михалев
Оригинальная аудиодорожка: Английский
Cубтитры: Русские, английские

Режиссер: Марк Джонс / Mark Jones

В ролях: Уорвик Дэвис, Дженнифер Энистон, Кен Оландт, Марк Холтон, Роберт Хай Гормен, Шэй Даффин, Джон Сандерфорд, Джон Волдстад, Памела Мэнт, Уильям Ньюман




Описание: Мистер О'Грейди неожиданно приезжает из Ирландии богатым человеком. Жена О'Грейди думает, что он просто пьян и не в своём уме, когда О»Грейди заявляет, что он украл золото у Лепрекона и сейчас они заживут по-новому.
Правда, он не учёл маленькой детали: сам Лепрекон каким-то образом приехал вместе с ним в одном из чемоданов и одержим местью к тому, кто позарился на его богатства…








Качество: BDRip 1080p
Формат: MKV
Видео кодек: H264
Аудио кодек: AC3
Видео: MPEG4 Video (H264), 1920x1080, 23.976fps, 12.5 Mbps
Аудио 1: Русский, Dolby AC3, 48000 Hz, 6ch, 448 kbps - Многоголосый, CP Digital
Аудио 2: Русский, Dolby AC3, 48000 Hz, 2ch, 192 kbps - Многоголосый, РЕН-ТВ
Аудио 3: Русский, Dolby AC3, 48000 Hz, 2ch, 640 kbps - Одноголосый, Алексей Михалёв
Аудио 4: Русский, Dolby AC3, 48000 Hz, 2ch, 192 kbps - Многоголосый, Украинский
Аудио 5: Английский, Dolby AC3, 48000 Hz, 6ch, 640 kbps
Формат субтитров: softsub (SRT)
Сэмпл

General
Unique ID : 242385944791567176361055973371439193394 (0xB659D5BD2354E2859907AC52A2879D32)
Complete name : F:DVDRipЛепрекон 1-61993 Лепрекон.mkv
Format : Matroska
Format version : Version 4 / Version 2
File size : 9.33 GiB
Duration : 1h 31mn
Overall bit rate : 14.6 Mbps
Encoded date : UTC 2014-11-12 14:31:26
Writing application : mkvmerge v7.1.0 ('Good Love') 32bit built on Jul 27 2014 12:59:18
Writing library : libebml v1.3.0 + libmatroska v1.4.1
DURATION : 01:27:59.691000000
NUMBER_OF_FRAMES : 1248
NUMBER_OF_BYTES : 38248
_STATISTICS_WRITING_APP : mkvmerge v7.1.0 ('Good Love') 32bit built on Jul 27 2014 12:59:18
_STATISTICS_WRITING_DATE_UTC : 2014-11-12 14:31:26
_STATISTICS_TAGS : BPS DURATION NUMBER_OF_FRAMES NUMBER_OF_BYTES

Video
ID : 1
Format : AVC
Format/Info : Advanced Video Codec
Format profile : High@L4.1
Format settings, CABAC : Yes
Format settings, ReFrames : 3 frames
Codec ID : V_MPEG4/ISO/AVC
Duration : 1h 31mn
Bit rate : 12.5 Mbps
Width : 1 920 pixels
Height : 1 080 pixels
Display aspect ratio : 16:9
Frame rate mode : Constant
Frame rate : 23.976 fps
Color space : YUV
Chroma subsampling : 4:2:0
Bit depth : 8 bits
Scan type : Progressive
Bits/(Pixel*Frame) : 0.251
Stream size : 7.80 GiB (84%)
Title : Лепрекон / Leprechaun (1993) / renta23
Writing library : x264 core 125 r2208 d9d2288
Encoding settings : cabac=1 / ref=4 / deblock=1:-1:-1 / analyse=0x3:0x133 / me=umh / subme=11 / psy=1 / psy_rd=1.15:0.25 / mixed_ref=1 / me_range=24 / chroma_me=1 / trellis=2 / 8x8dct=1 / cqm=0 / deadzone=21,11 / fast_pskip=0 / chroma_qp_offset=-4 / threads=12 / lookahead_threads=2 / sliced_threads=0 / nr=0 / decimate=1 / interlaced=0 / bluray_compat=0 / constrained_intra=0 / bframes=6 / b_pyramid=1 / b_adapt=2 / b_bias=0 / direct=3 / weightb=1 / open_gop=0 / weightp=2 / keyint=250 / keyint_min=23 / scenecut=40 / intra_refresh=0 / rc_lookahead=50 / rc=2pass / mbtree=1 / bitrate=12500 / ratetol=1.0 / qcomp=0.60 / qpmin=0 / qpmax=69 / qpstep=4 / cplxblur=20.0 / qblur=0.5 / ip_ratio=1.40 / aq=1:1.00
Language : English
Default : Yes
Forced : No

Audio #1
ID : 2
Format : AC-3
Format/Info : Audio Coding 3
Mode extension : CM (complete main)
Format settings, Endianness : Big
Codec ID : A_AC3
Duration : 1h 31mn
Bit rate mode : Constant
Bit rate : 448 Kbps
Channel(s) : 6 channels
Channel positions : Front: L C R, Side: L R, LFE
Sampling rate : 48.0 KHz
Bit depth : 16 bits
Compression mode : Lossy
Stream size : 293 MiB (3%)
Title : Многоголосый CP Digital
Language : Russian
Default : Yes
Forced : No

Audio #2
ID : 3
Format : AC-3
Format/Info : Audio Coding 3
Mode extension : CM (complete main)
Format settings, Endianness : Big
Codec ID : A_AC3
Duration : 1h 31mn
Bit rate mode : Constant
Bit rate : 192 Kbps
Channel(s) : 2 channels
Channel positions : Front: L R
Sampling rate : 48.0 KHz
Bit depth : 16 bits
Compression mode : Lossy
Stream size : 126 MiB (1%)
Title : Многоголосый РЕН-ТВ
Language : Russian
Default : No
Forced : No

Audio #3
ID : 4
Format : AC-3
Format/Info : Audio Coding 3
Mode extension : CM (complete main)
Format settings, Endianness : Big
Codec ID : A_AC3
Duration : 1h 31mn
Bit rate mode : Constant
Bit rate : 640 Kbps
Channel(s) : 2 channels
Channel positions : Front: L R
Sampling rate : 48.0 KHz
Bit depth : 16 bits
Compression mode : Lossy
Stream size : 419 MiB (4%)
Title : Одноголосый Алексей Михалёв
Language : Russian
Default : No
Forced : No

Audio #4
ID : 5
Format : AC-3
Format/Info : Audio Coding 3
Mode extension : CM (complete main)
Format settings, Endianness : Big
Codec ID : A_AC3
Duration : 1h 31mn
Bit rate mode : Constant
Bit rate : 192 Kbps
Channel(s) : 2 channels
Channel positions : Front: L R
Sampling rate : 48.0 KHz
Bit depth : 16 bits
Compression mode : Lossy
Stream size : 126 MiB (1%)
Title : Многоголосый Украинский
Language : Ukrainian
Default : No
Forced : No

Audio #5
ID : 6
Format : AC-3
Format/Info : Audio Coding 3
Mode extension : CM (complete main)
Format settings, Endianness : Big
Codec ID : A_AC3
Duration : 1h 31mn
Bit rate mode : Constant
Bit rate : 640 Kbps
Channel(s) : 2 channels
Channel positions : Front: L R
Sampling rate : 48.0 KHz
Bit depth : 16 bits
Compression mode : Lossy
Stream size : 419 MiB (4%)
Title : Английский
Language : English
Default : No
Forced : No

Text #1
ID : 7
Format : UTF-8
Codec ID : S_TEXT/UTF8
Codec ID/Info : UTF-8 Plain Text
Language : Russian
Default : Yes
Forced : No

Text #2
ID : 8
Format : UTF-8
Codec ID : S_TEXT/UTF8
Codec ID/Info : UTF-8 Plain Text
Language : English
Default : No
Forced : No

Menu
00:00:00.000 : en:Chapter 01
00:10:29.962 : en:Chapter 02
00:18:04.041 : en:Chapter 03
00:26:27.002 : en:Chapter 04
00:30:29.035 : en:Chapter 05
00:38:28.681 : en:Chapter 06
00:47:41.275 : en:Chapter 07
00:55:56.311 : en:Chapter 08
01:03:26.427 : en:Chapter 09
01:12:22.379 : en:Chapter 10
01:22:13.178 : en:Chapter 11
01:28:21.838 : en:Chapter 12






Год выпуска: 1994
Страна: США
Жанр: Ужасы, комедия
Продолжительность: 01:25:23




Перевод: Профессиональный (многоголосый закадровый) - Многоголосый R5
Перевод: Профессиональный (многоголосый закадровый) - Украинский
Перевод: Авторский (одноголосый закадровый) - Алексей Михалев
Оригинальная аудиодорожка: Английский
Cубтитры: Английские

Режиссер: Родмен Флендер / Rodman Flender

В ролях: Уорвик Дэвис, Чарли Хит, Шивонн Деркин, Сэнди Бэрон, Эдам Биск, Джеймс Ланкастер, Линда Хопкинс, Артуро Джил, Кимми Робертсон, Клинт Ховард




Описание: Время лечит раны, но не стирает обиды. Злой и кровожадный гном Лепрекон, хранитель подземных запасов золота, которого не берут ни пуля, ни огонь, ни яд, вновь выходит из подземелья и в поисках наследника своего заклятого врага продолжает смертельную жатву, уничтожая всех, кто покушается на принадлежащие ему, Лепрекону, сокровища. Пусть и прошла тысяча лет после нанесенной Лепрекону обиды - он ничего и никогда не прощает!.. К тому же он теперь одержим еще одной мечтой: Лепрекон хочет жениться, и в поисках невесты карлик-убийца не останавливается ни перед чем...








Качество: BDRip 1080p
Формат: MKV
Видео кодек: H264
Аудио кодек: AC3
Видео: MPEG4 Video (H264), 1920x1080, 23.976fps, 12.0 Mbps
Аудио 1: Русский, Dolby AC3, 48000 Hz, 2ch, 192 kbps - Многоголосый, R5
Аудио 2: Русский, Dolby AC3, 48000 Hz, 2ch, 640 kbps - Одноголосый, Алексей Михалёв
Аудио 3: Русский, Dolby AC3, 48000 Hz, 2ch, 192 kbps - Многоголосый, Украинский
Аудио 4: Английский, Dolby AC3, 48000 Hz, 2ch, 640 kbps
Формат субтитров: softsub (SRT)
Сэмпл

General
Unique ID : 201336773093210790179912637174680890286 (0x97780D5139B40ABD9EC4CCF97457ABAE)
Complete name : F:DVDRipЛепрекон 1-61994 Лепрекон 2.mkv
Format : Matroska
Format version : Version 4 / Version 2
File size : 8.15 GiB
Duration : 1h 25mn
Overall bit rate : 13.7 Mbps
Encoded date : UTC 2014-11-17 12:32:08
Writing application : mkvmerge v7.1.0 ('Good Love') 32bit built on Jul 27 2014 12:59:18
Writing library : libebml v1.3.0 + libmatroska v1.4.1
DURATION : 01:25:23.872000000
NUMBER_OF_FRAMES : 160121
NUMBER_OF_BYTES : 409909760
_STATISTICS_WRITING_APP : mkvmerge v7.1.0 ('Good Love') 32bit built on Jul 27 2014 12:59:18
_STATISTICS_WRITING_DATE_UTC : 2014-11-17 12:32:08
_STATISTICS_TAGS : BPS DURATION NUMBER_OF_FRAMES NUMBER_OF_BYTES

Video
ID : 1
Format : AVC
Format/Info : Advanced Video Codec
Format profile : High@L4.1
Format settings, CABAC : Yes
Format settings, ReFrames : 3 frames
Codec ID : V_MPEG4/ISO/AVC
Duration : 1h 25mn
Bit rate : 12.0 Mbps
Width : 1 920 pixels
Height : 1 080 pixels
Display aspect ratio : 16:9
Frame rate mode : Constant
Frame rate : 23.976 fps
Color space : YUV
Chroma subsampling : 4:2:0
Bit depth : 8 bits
Scan type : Progressive
Bits/(Pixel*Frame) : 0.241
Stream size : 6.99 GiB (86%)
Title : Лепрекон 2 / Leprechaun 2 (1994) / renta23
Writing library : x264 core 125 r2208 d9d2288
Encoding settings : cabac=1 / ref=4 / deblock=1:-1:-1 / analyse=0x3:0x133 / me=umh / subme=11 / psy=1 / psy_rd=1.15:0.25 / mixed_ref=1 / me_range=24 / chroma_me=1 / trellis=2 / 8x8dct=1 / cqm=0 / deadzone=21,11 / fast_pskip=0 / chroma_qp_offset=-4 / threads=12 / lookahead_threads=2 / sliced_threads=0 / nr=0 / decimate=1 / interlaced=0 / bluray_compat=0 / constrained_intra=0 / bframes=6 / b_pyramid=1 / b_adapt=2 / b_bias=0 / direct=3 / weightb=1 / open_gop=0 / weightp=2 / keyint=250 / keyint_min=23 / scenecut=40 / intra_refresh=0 / rc_lookahead=50 / rc=2pass / mbtree=1 / bitrate=12000 / ratetol=1.0 / qcomp=0.60 / qpmin=0 / qpmax=69 / qpstep=4 / cplxblur=20.0 / qblur=0.5 / ip_ratio=1.40 / aq=1:1.00
Language : English
Default : Yes
Forced : No

Audio #1
ID : 2
Format : AC-3
Format/Info : Audio Coding 3
Mode extension : CM (complete main)
Format settings, Endianness : Big
Codec ID : A_AC3
Duration : 1h 25mn
Bit rate mode : Constant
Bit rate : 192 Kbps
Channel(s) : 2 channels
Channel positions : Front: L R
Sampling rate : 48.0 KHz
Bit depth : 16 bits
Compression mode : Lossy
Stream size : 117 MiB (1%)
Title : Многоголосый R5
Language : Russian
Default : Yes
Forced : No

Audio #2
ID : 3
Format : AC-3
Format/Info : Audio Coding 3
Mode extension : CM (complete main)
Format settings, Endianness : Big
Codec ID : A_AC3
Duration : 1h 25mn
Bit rate mode : Constant
Bit rate : 640 Kbps
Channel(s) : 2 channels
Channel positions : Front: L R
Sampling rate : 48.0 KHz
Bit depth : 16 bits
Compression mode : Lossy
Stream size : 391 MiB (5%)
Title : Одноголосый - Алексей Михалёв
Language : Russian
Default : No
Forced : No

Audio #3
ID : 4
Format : AC-3
Format/Info : Audio Coding 3
Mode extension : CM (complete main)
Format settings, Endianness : Big
Codec ID : A_AC3
Duration : 1h 25mn
Bit rate mode : Constant
Bit rate : 192 Kbps
Channel(s) : 2 channels
Channel positions : Front: L R
Sampling rate : 48.0 KHz
Bit depth : 16 bits
Compression mode : Lossy
Stream size : 117 MiB (1%)
Title : Многоголосый - Украинский
Language : Ukrainian
Default : No
Forced : No

Audio #4
ID : 5
Format : AC-3
Format/Info : Audio Coding 3
Mode extension : CM (complete main)
Format settings, Endianness : Big
Codec ID : A_AC3
Duration : 1h 25mn
Bit rate mode : Constant
Bit rate : 640 Kbps
Channel(s) : 2 channels
Channel positions : Front: L R
Sampling rate : 48.0 KHz
Bit depth : 16 bits
Compression mode : Lossy
Stream size : 391 MiB (5%)
Language : English
Default : No
Forced : No

Text
ID : 6
Format : UTF-8
Codec ID : S_TEXT/UTF8
Codec ID/Info : UTF-8 Plain Text
Language : English
Default : Yes
Forced : No

Menu
00:00:00.000 : en:Chapter 01
00:08:28.090 : en:Chapter 02
00:16:13.222 : en:Chapter 03
00:24:00.689 : en:Chapter 04
00:30:09.933 : en:Chapter 05
00:37:19.278 : en:Chapter 06
00:44:15.402 : en:Chapter 07
00:53:12.856 : en:Chapter 08
00:59:07.794 : en:Chapter 09
01:11:34.665 : en:Chapter 10
01:17:21.970 : en:Chapter 11
01:22:23.188 : en:Chapter 12







Год выпуска: 1995
Страна: США
Жанр: Ужасы, комедия
Продолжительность: 01:33:16




Перевод: Профессиональный (многоголосый закадровый) -
Перевод: Авторский (одноголосый закадровый) - Алексей Михалев
Оригинальная аудиодорожка: Английский
Cубтитры: Английские

Режиссер: Брайан Тренчард-Смит / Brian Trenchard-Smith

В ролях: Уорвик Дэвис, Джон Гэйтинс, Ли Армстронг, МарселоТуберт, Джон Демита, Майкл Каллэн, Кэролин Уильямс, Марсело Тьюберт, Том Дуган, Ли-Эллин Бейкер, Ричард Рейчег




Описание: МГород, который поклоняется золоту, может поставить памятник злому гному Лепрекону, вечному хранителю желтого металла. В лас-вегасском ломбарде карлик опять оживает, сеет на своем пути смерть и ужас, а однажды, в поисках оброненного золотого шиллинга, попадает в казино, где чувствует себя, как дома. Шиллинг между тем начинает переходить из рук в руки, и каждому новому его владельцу достаточно произнести слово «хочу»…








Качество: BDRip 1080p
Формат: MKV
Видео кодек: H264
Аудио кодек: AC3
Видео: MPEG4 Video (H264), 1920x1080, 23.976fps, 12.0 Mbps
Аудио 1: Русский, Dolby AC3, 48000 Hz, 2ch, 256 kbps - Многоголосый, Рен-ТВ
Аудио 2: Русский, Dolby AC3, 48000 Hz, 2ch, 256 kbps - Одноголосый, Алексей Михалёв
Аудио 3: Русский, Dolby AC3, 48000 Hz, 2ch, 640 kbps - Одноголосый
Аудио 4: Английский, Dolby AC3, 48000 Hz, 2ch, 640 kbps
Формат субтитров: softsub (SRT)
Сэмпл

General
Unique ID : 230516008275614948244711780486331492768 (0xAD6BC4AF4CBDF83A81337FC417A7E9A0)
Complete name : F:DVDRipЛепрекон 1-61995 Лепрекон 3 Приключения в Лас-Вегас.mkv
Format : Matroska
Format version : Version 4 / Version 2
File size : 8.98 GiB
Duration : 1h 33mn
Overall bit rate : 13.8 Mbps
Encoded date : UTC 2014-11-18 13:04:57
Writing application : mkvmerge v7.1.0 ('Good Love') 32bit built on Jul 27 2014 12:59:18
Writing library : libebml v1.3.0 + libmatroska v1.4.1
DURATION : 01:33:16.576000000
NUMBER_OF_FRAMES : 174893
NUMBER_OF_BYTES : 447726080
_STATISTICS_WRITING_APP : mkvmerge v7.1.0 ('Good Love') 32bit built on Jul 27 2014 12:59:18
_STATISTICS_WRITING_DATE_UTC : 2014-11-18 13:04:57
_STATISTICS_TAGS : BPS DURATION NUMBER_OF_FRAMES NUMBER_OF_BYTES

Video
ID : 1
Format : AVC
Format/Info : Advanced Video Codec
Format profile : High@L4.1
Format settings, CABAC : Yes
Format settings, ReFrames : 3 frames
Codec ID : V_MPEG4/ISO/AVC
Duration : 1h 33mn
Bit rate : 12.0 Mbps
Width : 1 920 pixels
Height : 1 080 pixels
Display aspect ratio : 16:9
Frame rate mode : Constant
Frame rate : 23.976 fps
Color space : YUV
Chroma subsampling : 4:2:0
Bit depth : 8 bits
Scan type : Progressive
Bits/(Pixel*Frame) : 0.241
Stream size : 7.64 GiB (85%)
Title : Лепрекон 3: Приключения в Лас-Вегасе / Leprechaun 3 (1995) / renta23
Writing library : x264 core 125 r2208 d9d2288
Encoding settings : cabac=1 / ref=4 / deblock=1:-1:-1 / analyse=0x3:0x133 / me=umh / subme=11 / psy=1 / psy_rd=1.15:0.25 / mixed_ref=1 / me_range=24 / chroma_me=1 / trellis=2 / 8x8dct=1 / cqm=0 / deadzone=21,11 / fast_pskip=0 / chroma_qp_offset=-4 / threads=12 / lookahead_threads=2 / sliced_threads=0 / nr=0 / decimate=1 / interlaced=0 / bluray_compat=0 / constrained_intra=0 / bframes=6 / b_pyramid=1 / b_adapt=2 / b_bias=0 / direct=3 / weightb=1 / open_gop=0 / weightp=2 / keyint=250 / keyint_min=23 / scenecut=40 / intra_refresh=0 / rc_lookahead=50 / rc=2pass / mbtree=1 / bitrate=12000 / ratetol=1.0 / qcomp=0.60 / qpmin=0 / qpmax=69 / qpstep=4 / cplxblur=20.0 / qblur=0.5 / ip_ratio=1.40 / aq=1:1.00
Language : English
Default : Yes
Forced : No

Audio #1
ID : 2
Format : AC-3
Format/Info : Audio Coding 3
Mode extension : CM (complete main)
Format settings, Endianness : Big
Codec ID : A_AC3
Duration : 1h 33mn
Bit rate mode : Constant
Bit rate : 256 Kbps
Channel(s) : 2 channels
Channel positions : Front: L R
Sampling rate : 48.0 KHz
Bit depth : 16 bits
Compression mode : Lossy
Stream size : 171 MiB (2%)
Title : Многоголосый, Рен-ТВ
Language : Russian
Default : Yes
Forced : No

Audio #2
ID : 3
Format : AC-3
Format/Info : Audio Coding 3
Mode extension : CM (complete main)
Format settings, Endianness : Big
Codec ID : A_AC3
Duration : 1h 33mn
Bit rate mode : Constant
Bit rate : 256 Kbps
Channel(s) : 2 channels
Channel positions : Front: L R
Sampling rate : 48.0 KHz
Bit depth : 16 bits
Compression mode : Lossy
Stream size : 171 MiB (2%)
Title : Одноголосый, Гаврилов
Language : Russian
Default : No
Forced : No

Audio #3
ID : 4
Format : AC-3
Format/Info : Audio Coding 3
Mode extension : CM (complete main)
Format settings, Endianness : Big
Codec ID : A_AC3
Duration : 1h 33mn
Bit rate mode : Constant
Bit rate : 640 Kbps
Channel(s) : 2 channels
Channel positions : Front: L R
Sampling rate : 48.0 KHz
Bit depth : 16 bits
Compression mode : Lossy
Stream size : 427 MiB (5%)
Title : Одноголосый
Language : Russian
Default : No
Forced : No

Audio #4
ID : 5
Format : AC-3
Format/Info : Audio Coding 3
Mode extension : CM (complete main)
Format settings, Endianness : Big
Codec ID : A_AC3
Duration : 1h 33mn
Bit rate mode : Constant
Bit rate : 640 Kbps
Channel(s) : 2 channels
Channel positions : Front: L R
Sampling rate : 48.0 KHz
Bit depth : 16 bits
Compression mode : Lossy
Stream size : 427 MiB (5%)
Language : English
Default : No
Forced : No

Text
ID : 6
Format : UTF-8
Codec ID : S_TEXT/UTF8
Codec ID/Info : UTF-8 Plain Text
Language : English
Default : Yes
Forced : No

Menu
00:00:00.000 : en:Chapter 01
00:06:11.579 : en:Chapter 02
00:16:10.594 : en:Chapter 03
00:23:37.541 : en:Chapter 04
00:31:34.851 : en:Chapter 05
00:37:32.250 : en:Chapter 06
00:45:08.914 : en:Chapter 07
00:56:15.413 : en:Chapter 08
01:07:17.658 : en:Chapter 09
01:13:20.938 : en:Chapter 10
01:21:45.400 : en:Chapter 11
01:30:02.939 : en:Chapter 12







Год выпуска: 1996
Страна: США
Жанр: Ужасы, комедия
Продолжительность: 01:31:27




Перевод: Профессиональный (многоголосый закадровый) - РЕН-ТВ
Перевод: Авторский (одноголосый закадровый) - Гаврилов
Оригинальная аудиодорожка: Английский
Cубтитры: Английские

Режиссер: Брайан Тренчард-Смит / Brian Trenchard-Smith

В ролях: Уорвик Дэвис, Брент Джэсмер, Джессика Коллинз, Гай Сайнер, Гари Гроссман, Ребекка Кросс, Тим Колсери, Мигель А. Нуньес мл. Дебби Даннинг, Майк Каннидзо, Рик Питерс, Джеймс Куинн, Лэдд Йорк, Джофф Мид





Описание: В межпланетных глубинах 21-го века злой гном Лепрекон задумал жениться на прекрасной принцессе Зарине. Ей на помощь приходит отряд космических рейнджеров, но и кровожадный карлик проникает на звездолет. Здесь, где возможны самые невероятные фантастические перевоплощения, начинается очередной раунд битвы с Лепреконом…








Качество: BDRip 1080p
Формат: MKV
Видео кодек: H264
Аудио кодек: AC3
Видео: MPEG4 Video (H264), 1920x1080, 23.976fps, 12.0 Mbps
Аудио 1: Русский, Dolby AC3, 48000 Hz, 2ch, 192 kbps - Многоголосый, РЕН-ТВ
Аудио 2: Русский, Dolby AC3, 48000 Hz, 2ch, 640 kbps - Одноголосый, Гаврилов
Аудио 3: Английский, Dolby AC3, 48000 Hz, 6ch, 640 kbps
Формат субтитров: softsub (SRT)
Сэмпл
General
Unique ID : 203151167977850077433440364036443395271 (0x98D57DE4488D0C2D8983A4FBDC54D4C7)
Complete name : F:DVDRipЛепрекон 1-61996 Лепрекон 4 В космосе.mkv
Format : Matroska
Format version : Version 4 / Version 2
File size : 8.96 GiB
Duration : 1h 35mn
Overall bit rate : 13.5 Mbps
Encoded date : UTC 2014-11-18 16:45:23
Writing application : mkvmerge v7.1.0 ('Good Love') 32bit built on Jul 27 2014 12:59:18
Writing library : libebml v1.3.0 + libmatroska v1.4.1
DURATION : 01:35:16.128000000
NUMBER_OF_FRAMES : 178629
NUMBER_OF_BYTES : 457290240
_STATISTICS_WRITING_APP : mkvmerge v7.1.0 ('Good Love') 32bit built on Jul 27 2014 12:59:18
_STATISTICS_WRITING_DATE_UTC : 2014-11-18 16:45:23
_STATISTICS_TAGS : BPS DURATION NUMBER_OF_FRAMES NUMBER_OF_BYTES

Video
ID : 1
Format : AVC
Format/Info : Advanced Video Codec
Format profile : High@L4.1
Format settings, CABAC : Yes
Format settings, ReFrames : 3 frames
Codec ID : V_MPEG4/ISO/AVC
Duration : 1h 35mn
Bit rate : 12.0 Mbps
Width : 1 920 pixels
Height : 1 080 pixels
Display aspect ratio : 16:9
Frame rate mode : Constant
Frame rate : 23.976 fps
Color space : YUV
Chroma subsampling : 4:2:0
Bit depth : 8 bits
Scan type : Progressive
Bits/(Pixel*Frame) : 0.241
Stream size : 7.80 GiB (87%)
Title : Лепрекон 4: В космосе / Leprechaun 4: In Space (1996) / renta23
Writing library : x264 core 125 r2208 d9d2288
Encoding settings : cabac=1 / ref=4 / deblock=1:-1:-1 / analyse=0x3:0x133 / me=umh / subme=11 / psy=1 / psy_rd=1.15:0.25 / mixed_ref=1 / me_range=24 / chroma_me=1 / trellis=2 / 8x8dct=1 / cqm=0 / deadzone=21,11 / fast_pskip=0 / chroma_qp_offset=-4 / threads=12 / lookahead_threads=2 / sliced_threads=0 / nr=0 / decimate=1 / interlaced=0 / bluray_compat=0 / constrained_intra=0 / bframes=6 / b_pyramid=1 / b_adapt=2 / b_bias=0 / direct=3 / weightb=1 / open_gop=0 / weightp=2 / keyint=250 / keyint_min=23 / scenecut=40 / intra_refresh=0 / rc_lookahead=50 / rc=2pass / mbtree=1 / bitrate=12000 / ratetol=1.0 / qcomp=0.60 / qpmin=0 / qpmax=69 / qpstep=4 / cplxblur=20.0 / qblur=0.5 / ip_ratio=1.40 / aq=1:1.00
Language : English
Default : Yes
Forced : No

Audio #1
ID : 2
Format : AC-3
Format/Info : Audio Coding 3
Mode extension : CM (complete main)
Format settings, Endianness : Big
Codec ID : A_AC3
Duration : 1h 35mn
Bit rate mode : Constant
Bit rate : 192 Kbps
Channel(s) : 2 channels
Channel positions : Front: L R
Sampling rate : 48.0 KHz
Bit depth : 16 bits
Compression mode : Lossy
Stream size : 131 MiB (1%)
Title : Многоголосый, Рен ТВ
Language : Russian
Default : Yes
Forced : No

Audio #2
ID : 3
Format : AC-3
Format/Info : Audio Coding 3
Mode extension : CM (complete main)
Format settings, Endianness : Big
Codec ID : A_AC3
Duration : 1h 35mn
Bit rate mode : Constant
Bit rate : 640 Kbps
Channel(s) : 2 channels
Channel positions : Front: L R
Sampling rate : 48.0 KHz
Bit depth : 16 bits
Compression mode : Lossy
Stream size : 436 MiB (5%)
Title : Одноголосый, Гаврилов
Language : Russian
Default : No
Forced : No

Audio #3
ID : 4
Format : AC-3
Format/Info : Audio Coding 3
Mode extension : CM (complete main)
Format settings, Endianness : Big
Codec ID : A_AC3
Duration : 1h 35mn
Bit rate mode : Constant
Bit rate : 640 Kbps
Channel(s) : 2 channels
Channel positions : Front: L R
Sampling rate : 48.0 KHz
Bit depth : 16 bits
Compression mode : Lossy
Stream size : 436 MiB (5%)
Language : English
Default : No
Forced : No

Text
ID : 5
Format : UTF-8
Codec ID : S_TEXT/UTF8
Codec ID/Info : UTF-8 Plain Text
Language : English
Default : Yes
Forced : No

Menu
00:00:00.000 : en:Chapter 01
00:06:55.498 : en:Chapter 02
00:15:53.202 : en:Chapter 03
00:23:27.531 : en:Chapter 04
00:30:50.265 : en:Chapter 05
00:39:14.310 : en:Chapter 06
00:50:57.095 : en:Chapter 07
00:58:09.819 : en:Chapter 08
01:07:25.458 : en:Chapter 09
01:14:03.522 : en:Chapter 10
01:22:39.162 : en:Chapter 11
01:31:29.192 : en:Chapter 12







Год выпуска: 2000
Страна: США
Жанр: Ужасы, комедия
Продолжительность: 01:31:27




Перевод: Профессиональный (двухголосый закадровый) - Студия "Ульбанэй Элером"
Перевод: Авторский (одноголосый закадровый) - Гаврилов
Оригинальная аудиодорожка: Английский
Cубтитры: Английские

Режиссер: Роб Спера / Rob Spera

В ролях: Уорвик Дэвис, Айс-Ти, Кулио, Энтони Монтгомери, Рашаан Нэлл, Ред Грант, Лобо Себастьян, Айвори Оушен, Джек Онг, Бебе Дрэйк




Описание: Четверо рэпперов решают отомстить влиятельному импресарио Маку Дэдди, который отказался взять их в мир гангстерской музыки, и грабят его офис. В результате в их руках оказывается магическая золотая флейта, принадлежащая когда-то Лепрекону. Но страшное было в другом: они случайно снимают чары с Лепрекона, этого маленького чудовища, пребывавшего в оцепенении последние 25 лет. И теперь только чудо может спасти парней от возмездия коварного монстра…








Качество: BDRip 1080p
Формат: MKV
Видео кодек: H264
Аудио кодек: AC3
Видео: MPEG4 Video (H264), 1920x1080, 23.976fps, 12.0 Mbps
Аудио 1: Русский, Dolby AC3, 48000 Hz, 2ch, 224 kbps - Студия "Ульбанэй Элером"
Аудио 2: Русский, Dolby AC3, 48000 Hz, 2ch, 640 kbps - Одноголосый, Гаврилов
Аудио 3: Английский, Dolby AC3, 48000 Hz, 2ch, 640 kbps
Формат субтитров: softsub (SRT)
Сэмпл
General
Unique ID : 187687572619424739481435241510001524720 (0x8D334FC6F6F69EF88E7FC85CB5E93FF0)
Complete name : F:DVDRipЛепрекон 1-62000 Лепрекон 5 Сосед.mkv
Format : Matroska
Format version : Version 4 / Version 2
File size : 8.56 GiB
Duration : 1h 30mn
Overall bit rate : 13.5 Mbps
Encoded date : UTC 2014-11-19 07:18:46
Writing application : mkvmerge v7.1.0 ('Good Love') 32bit built on Jul 27 2014 12:59:18
Writing library : libebml v1.3.0 + libmatroska v1.4.1
DURATION : 01:27:52.392000000
NUMBER_OF_FRAMES : 1111
NUMBER_OF_BYTES : 37608
_STATISTICS_WRITING_APP : mkvmerge v7.1.0 ('Good Love') 32bit built on Jul 27 2014 12:59:18
_STATISTICS_WRITING_DATE_UTC : 2014-11-19 07:18:46
_STATISTICS_TAGS : BPS DURATION NUMBER_OF_FRAMES NUMBER_OF_BYTES

Video
ID : 1
Format : AVC
Format/Info : Advanced Video Codec
Format profile : High@L4.1
Format settings, CABAC : Yes
Format settings, ReFrames : 3 frames
Codec ID : V_MPEG4/ISO/AVC
Duration : 1h 30mn
Bit rate : 12.0 Mbps
Width : 1 920 pixels
Height : 1 080 pixels
Display aspect ratio : 16:9
Frame rate mode : Constant
Frame rate : 23.976 fps
Color space : YUV
Chroma subsampling : 4:2:0
Bit depth : 8 bits
Scan type : Progressive
Bits/(Pixel*Frame) : 0.241
Stream size : 7.44 GiB (87%)
Title : Лепрекон 5: Сосед / Leprechaun in the Hood (2000) / renta23
Writing library : x264 core 125 r2208 d9d2288
Encoding settings : cabac=1 / ref=4 / deblock=1:-1:-1 / analyse=0x3:0x133 / me=umh / subme=11 / psy=1 / psy_rd=1.15:0.25 / mixed_ref=1 / me_range=24 / chroma_me=1 / trellis=2 / 8x8dct=1 / cqm=0 / deadzone=21,11 / fast_pskip=0 / chroma_qp_offset=-4 / threads=12 / lookahead_threads=2 / sliced_threads=0 / nr=0 / decimate=1 / interlaced=0 / bluray_compat=0 / constrained_intra=0 / bframes=6 / b_pyramid=1 / b_adapt=2 / b_bias=0 / direct=3 / weightb=1 / open_gop=0 / weightp=2 / keyint=250 / keyint_min=23 / scenecut=40 / intra_refresh=0 / rc_lookahead=50 / rc=2pass / mbtree=1 / bitrate=12000 / ratetol=1.0 / qcomp=0.60 / qpmin=0 / qpmax=69 / qpstep=4 / cplxblur=20.0 / qblur=0.5 / ip_ratio=1.40 / aq=1:1.00
Language : English
Default : Yes
Forced : No

Audio #1
ID : 2
Format : AC-3
Format/Info : Audio Coding 3
Mode extension : CM (complete main)
Format settings, Endianness : Big
Codec ID : A_AC3
Duration : 1h 30mn
Bit rate mode : Constant
Bit rate : 224 Kbps
Channel(s) : 2 channels
Channel positions : Front: L R
Sampling rate : 48.0 KHz
Bit depth : 16 bits
Compression mode : Lossy
Stream size : 145 MiB (2%)
Title : Двухголосый "Студия - Ульбанэй Элером"
Language : Russian
Default : Yes
Forced : No

Audio #2
ID : 3
Format : AC-3
Format/Info : Audio Coding 3
Mode extension : CM (complete main)
Format settings, Endianness : Big
Codec ID : A_AC3
Duration : 1h 30mn
Bit rate mode : Constant
Bit rate : 640 Kbps
Channel(s) : 2 channels
Channel positions : Front: L R
Sampling rate : 48.0 KHz
Bit depth : 16 bits
Compression mode : Lossy
Stream size : 416 MiB (5%)
Title : Одноголосый, Гаврилов
Language : Russian
Default : No
Forced : No

Audio #3
ID : 4
Format : AC-3
Format/Info : Audio Coding 3
Mode extension : CM (complete main)
Format settings, Endianness : Big
Codec ID : A_AC3
Duration : 1h 30mn
Bit rate mode : Constant
Bit rate : 640 Kbps
Channel(s) : 2 channels
Channel positions : Front: L R
Sampling rate : 48.0 KHz
Bit depth : 16 bits
Compression mode : Lossy
Stream size : 416 MiB (5%)
Language : English
Default : No
Forced : No

Text
ID : 5
Format : UTF-8
Codec ID : S_TEXT/UTF8
Codec ID/Info : UTF-8 Plain Text
Language : English
Default : No
Forced : No

Menu
00:00:00.000 : en:Chapter 01
00:08:07.737 : en:Chapter 02
00:14:04.468 : en:Chapter 03
00:19:34.631 : en:Chapter 04
00:26:07.399 : en:Chapter 05
00:31:25.466 : en:Chapter 06
00:41:10.801 : en:Chapter 07
00:49:00.896 : en:Chapter 08
01:01:05.328 : en:Chapter 09
01:08:42.535 : en:Chapter 10
01:16:18.699 : en:Chapter 11
01:27:47.512 : en:Chapter 12







Год выпуска: 2003
Страна: США
Жанр: Ужасы, комедия
Продолжительность: 01:31:27




Перевод: Профессиональный (двухголосый закадровый)
Оригинальная аудиодорожка: Английский
Cубтитры: Английские

Режиссер: Стивен Эромлуй / Steven Ayromlooi

В ролях: Уорвик Дэвис, Танги Миллер, Лас Алонсо, Пейдж Кеннеди, Шерри Джексон, Донзали Абернати, Шик Махмуд-Бей, Стикки Фингаз, Киша Шарп, Соня Эдди




Описание: Негритянский квартал… Банда молодых ниггеров без гроша в кармане промышляют мелкими кражами. Случай сводит их с небольшим сундучком золота. Сундучок оказался странным — Золото не убывало, несмотря на траты банды. Началась веселая беззаботная жизнь… пока не нашелся Хозяин этого золота…







Качество: BDRip 1080p
Формат: MKV
Видео кодек: H264
Аудио кодек: AC3
Видео: MPEG4 Video (H264), 1920x1080, 23.976fps, 12.0 Mbps
Аудио 1: Русский, Dolby AC3, 48000 Hz, 2ch, 192 kbps
Аудио 2: Английский, Dolby AC3, 48000 Hz, 2ch, 640 kbps
Формат субтитров: softsub (SRT)
Сэмпл

General
Unique ID : 213764408132757866666150492586086259005 (0xA0D187080EEA10208C482084F768593D)
Complete name : F:DVDRipЛепрекон 1-62003 Лепрекон 6 Домой.mkv
Format : Matroska
Format version : Version 4 / Version 2
File size : 8.06 GiB
Duration : 1h 29mn
Overall bit rate : 12.8 Mbps
Encoded date : UTC 2014-11-19 19:41:33
Writing application : mkvmerge v7.1.0 ('Good Love') 32bit built on Jul 27 2014 12:59:18
Writing library : libebml v1.3.0 + libmatroska v1.4.1
DURATION : 01:29:53.984000000
NUMBER_OF_FRAMES : 168562
NUMBER_OF_BYTES : 431518720
_STATISTICS_WRITING_APP : mkvmerge v7.1.0 ('Good Love') 32bit built on Jul 27 2014 12:59:18
_STATISTICS_WRITING_DATE_UTC : 2014-11-19 19:41:33
_STATISTICS_TAGS : BPS DURATION NUMBER_OF_FRAMES NUMBER_OF_BYTES

Video
ID : 1
Format : AVC
Format/Info : Advanced Video Codec
Format profile : High@L4.1
Format settings, CABAC : Yes
Format settings, ReFrames : 3 frames
Codec ID : V_MPEG4/ISO/AVC
Bit rate : 12.0 Mbps
Width : 1 920 pixels
Height : 1 080 pixels
Display aspect ratio : 16:9
Frame rate mode : Variable
Original frame rate : 23.976 fps
Color space : YUV
Chroma subsampling : 4:2:0
Bit depth : 8 bits
Scan type : Progressive
Bits/(Pixel*Frame) : 0.241
Title : Лепрекон 6: Домой [полная версия] (2003) / renta23
Writing library : x264 core 125 r2208 d9d2288
Encoding settings : cabac=1 / ref=4 / deblock=1:-1:-1 / analyse=0x3:0x133 / me=umh / subme=11 / psy=1 / psy_rd=1.15:0.25 / mixed_ref=1 / me_range=24 / chroma_me=1 / trellis=2 / 8x8dct=1 / cqm=0 / deadzone=21,11 / fast_pskip=0 / chroma_qp_offset=-4 / threads=12 / lookahead_threads=2 / sliced_threads=0 / nr=0 / decimate=1 / interlaced=0 / bluray_compat=0 / constrained_intra=0 / bframes=6 / b_pyramid=1 / b_adapt=2 / b_bias=0 / direct=3 / weightb=1 / open_gop=0 / weightp=2 / keyint=250 / keyint_min=23 / scenecut=40 / intra_refresh=0 / rc_lookahead=50 / rc=2pass / mbtree=1 / bitrate=12000 / ratetol=1.0 / qcomp=0.60 / qpmin=0 / qpmax=69 / qpstep=4 / cplxblur=20.0 / qblur=0.5 / ip_ratio=1.40 / aq=1:1.00
Language : English
Default : Yes
Forced : No

Audio #1
ID : 2
Format : AC-3
Format/Info : Audio Coding 3
Mode extension : CM (complete main)
Format settings, Endianness : Big
Codec ID : A_AC3
Duration : 1h 29mn
Bit rate mode : Constant
Bit rate : 192 Kbps
Channel(s) : 2 channels
Channel positions : Front: L R
Sampling rate : 48.0 KHz
Bit depth : 16 bits
Compression mode : Lossy
Stream size : 123 MiB (1%)
Title : Двухголосый
Language : Russian
Default : Yes
Forced : No

Audio #2
ID : 3
Format : AC-3
Format/Info : Audio Coding 3
Mode extension : CM (complete main)
Format settings, Endianness : Big
Codec ID : A_AC3
Duration : 1h 29mn
Bit rate mode : Constant
Bit rate : 640 Kbps
Channel(s) : 2 channels
Channel positions : Front: L R
Sampling rate : 48.0 KHz
Bit depth : 16 bits
Compression mode : Lossy
Stream size : 412 MiB (5%)
Language : English
Default : No
Forced : No

Text
ID : 4
Format : UTF-8
Codec ID : S_TEXT/UTF8
Codec ID/Info : UTF-8 Plain Text
Language : English
Default : No
Forced : No

Menu
00:00:00.000 : en:Chapter 01
00:05:09.642 : en:Chapter 02
00:10:52.568 : en:Chapter 03
00:18:36.615 : en:Chapter 04
00:26:00.642 : en:Chapter 05
00:36:41.157 : en:Chapter 06
00:45:37.067 : en:Chapter 07
00:51:40.222 : en:Chapter 08
00:57:39.080 : en:Chapter 09
01:05:42.021 : en:Chapter 10
01:14:34.386 : en:Chapter 11
01:24:40.033 : en:Chapter 12



Правила, инструкции, FAQ!!!
Торрент  Добавлен [12 дек 2014, 16:53] Скачать торрент Магнет ссылка
Скачать торрент
[ Размер 261.28 КБ / Просмотров 77 ]

Статус
Проверен 
 
Размер  52.04 ГБ
Приватный: Нет (DHT включён)
.torrent скачан  4
Как залить торрент? | Как скачать Torrent? | Ошибка в торренте? Качайте магнет  


     Отправить личное сообщение
   
Страница 1 из 1
Показать сообщения за:  Поле сортировки  
Начать новую тему Ответить на тему

   Похожие торренты   Автор   Ответы   Просмотры   Последнее сообщение 
В этой теме нет новых непрочитанных сообщений. Скачать торрент Проверен (Jazz Rock/Fusion) Leprechaun - Leprechaun - 2008, FLAC (tracks+.cue), lossless

в форуме Progressive & Art-Rock, Размер: 323.18 МБ, Здоровье: 100%

Anonymous

0
1|0

32
0

31 авг 2016, 23:17

Anonymous Перейти к последнему сообщению

В этой теме нет новых непрочитанных сообщений. Скачать торрент Проверен Форсаж 1-6. Коллекция / The Fast And The Furious 1-6. Collection (2001-2013) BDRip 1080p | 60 fps | D

в форуме 720p | 1080p, Размер: 75.66 ГБ, Здоровье: 93%

Anonymous

0
68|73

330
90

25 авг 2014, 20:32

Anonymous Перейти к последнему сообщению

В этой теме нет новых непрочитанных сообщений. Скачать торрент Ганнибал Лектер: Коллекция / Hannibal Lecter Collection (1986-2007) BDRip 1080p

в форуме Пенталогии, Размер: 57.76 ГБ, Здоровье: 83%

Anonymous

0
20|24

1340
70

20 фев 2014, 21:36

Anonymous Перейти к последнему сообщению

В этой теме нет новых непрочитанных сообщений. Скачать торрент Проверен (Hard Rock) Deep Purple - Bootleg Collection - 1993 (79 релизов), MP3 (tracks), 320 kbps (Полная коллекция 1993 года!)

в форуме Classic Rock & Hard Rock, Размер: 21.54 ГБ, Здоровье: 100%

Anonymous

0
7|3

41
0

13 ноя 2016, 20:16

Anonymous Перейти к последнему сообщению

В этой теме нет новых непрочитанных сообщений. Скачать торрент Проверен (jazz) Chick Corea "The Leprechaun" 1993(1976) - 1976, APE (image + .cue), lossless

в форуме Jazz Fusion, Размер: 201.69 МБ, Здоровье: 100%

Anonymous

0
3|1

16
0

14 сен 2017, 19:52

Anonymous Перейти к последнему сообщению



Сейчас этот форум просматривают: нет зарегистрированных пользователей и гости: 0


Вы не можете начинать темы
Вы не можете отвечать на сообщения
Вы не можете редактировать свои сообщения
Вы не можете удалять свои сообщения
Вы не можете добавлять вложения

Перейти:  
Ресурс не предоставляет электронные версии произведений, а занимается лишь коллекционированием и каталогизацией ссылок, присылаемых и публикуемых на форуме нашими читателями. Если вы являетесь правообладателем какого-либо представленного материала и не желаете чтобы ссылка на него находилась в нашем каталоге, свяжитесь с нами и мы незамедлительно удалим её. Файлы для обмена на трекере предоставлены пользователями сайта, и администрация не несёт ответственности за их содержание. Просьба не заливать файлы, защищенные авторскими правами, а также файлы нелегального содержания!
cron