На всех торрентах на трекере установлена скидка на скачивание в размере 100 процентов(а).
 Возможность скачивания торрента НЕ зависит от ограничений при низком ратио, низком аплоаде, требуемом ратио или требуемом аплоаде.


Начать новую тему Ответить на тему
Статистика раздачи
Размер: 2.18 ГБ | Добавлен: 16 мар 2013, 23:45 | Скачали: 518
Сидеров: 51  [0 байт/сек]    Личеров: 7  [0 байт/сек]
Пред. тема | След. тема 

Автор
Сообщение

СообщениеДобавлено: 16 мар 2013, 23:45 

Ответить с цитатой 

Название: Ласковый май - Белые розы белой зимой
Год выхода: 1991
Страна: СССР, Россия
Выпущено: Студия "Триада", Компания "Монолит"
Жанр: Музыкальный концерт, видеоклипы
Продолжительность: 01:28:42
Перевод: Оригинал
Режиссер: Саида Медведева

В ролях: Юра Шатунов, Андрей Разин, Олег Крестовский, Андрей Гуров


Сюжет фильма

Группа "Ласковый май", просуществовав немногим более пяти лет, стала одним из самых значимых феноменов в истории российской поп-музыки. Невероятная популярность, огромное число проданных носителей и более полутора тысяч концертных выступлений. Данный видеофильм представляет собой архивную съемку шоу-ревю "Белые розы белой зимой" - масштабной концертной программы группы "Ласковый май", которая в 1989-91 годах показывалась в канун Нового года в СК "Олимпийский". Тогда это была одна из первых попыток постановки профессионального шоу с привлечением танцевальных коллективов, фигуристов, лошадей. Зал был всегда полон, хотя иногда серия концертов насчитывала более 10 дней подряд! В концерте принимают участие все ведущие вокалисты золотого состава группы "Ласковый май", включая Андрея Разина, Юрия Шатунова, Олега Крестовского и Андрея Гурова (архивная запись 1991 года).


Файл
Кодек:
Формат: Matroska
Качество: DVDRip 576p
Видео: AVC 720x540 (4:3), 25.000 fps, 3300 kbps, 0.340 Bit/Pixel
Аудио: MP2 (2.0) 16 bit, 48 kHz, 224 kbps
Размер: 1/2 DVD
Меню: Сохранены оригинальные чаптеры DVD
Скриншоты

General
Unique ID : 229869426631428632630958488662030886457 (0xACEF3DBF9A0663A9B071C8712CAF2639)
Format : Matroska
Format version : Version 2
File size : 2.18 GiB
Duration : 1h 28mn
Overall bit rate : 3 525 Kbps
Movie name : Белые розы белой зимой (1991) DVDRip (576p)
Encoded date : UTC 2013-02-27 10:37:59
Writing application : mkvmerge v5.8.0 ('No Sleep / Pillow') built on Sep 2 2012 15:37:04
Writing library : libebml v1.2.3 + libmatroska v1.3.0
Video
ID : 1
Format : AVC
Format/Info : Advanced Video Codec
Format profile : High@L4.1
Format settings, CABAC : Yes
Format settings, ReFrames : 5 frames
Codec ID : V_MPEG4/ISO/AVC
Duration : 1h 28mn
Bit rate : 3 300 Kbps
Width : 720 pixels
Height : 540 pixels
Display aspect ratio : 4:3
Frame rate mode : Constant
Frame rate : 25.000 fps
Color space : YUV
Chroma subsampling : 4:2:0
Bit depth : 8 bits
Scan type : Progressive
Bits/(Pixel*Frame) : 0.340
Stream size : 2.00 GiB (92%)
Title : Release by Alex260680
Writing library : x264 core 129 r2245 bc13772
Encoding settings : cabac=1 / ref=5 / deblock=1:-3:-3 / analyse=0x3:0x133 / me=tesa / subme=11 / psy=1 / psy_rd=1.00:0.10 / mixed_ref=1 / me_range=32 / chroma_me=1 / trellis=2 / 8x8dct=1 / cqm=0 / deadzone=21,11 / fast_pskip=0 / chroma_qp_offset=-3 / threads=12 / lookahead_threads=2 / sliced_threads=0 / nr=0 / decimate=0 / interlaced=0 / bluray_compat=0 / constrained_intra=0 / bframes=6 / b_pyramid=2 / b_adapt=2 / b_bias=0 / direct=3 / weightb=1 / open_gop=0 / weightp=2 / keyint=250 / keyint_min=25 / scenecut=40 / intra_refresh=0 / rc=2pass / mbtree=0 / bitrate=3300 / ratetol=1.0 / qcomp=0.60 / qpmin=0 / qpmax=69 / qpstep=4 / cplxblur=20.0 / qblur=0.5 / ip_ratio=1.40 / pb_ratio=1.30 / aq=1:1.00
Language : Russian
Default : Yes
Forced : No
Audio
ID : 2
Format : MPEG Audio
Format version : Version 1
Format profile : Layer 2
Codec ID : A_MPEG/L2
Codec ID/Hint : MP2
Duration : 1h 28mn
Bit rate mode : Constant
Bit rate : 224 Kbps
Channel(s) : 2 channels
Sampling rate : 48.0 KHz
Compression mode : Lossy
Stream size : 142 MiB (6%)
Title : Original
Language : Russian
Default : Yes
Forced : No
Menu
00:00:00.000 : en:Глупые снежинки - Юра Шатунов
00:05:49.240 : en:Калейдоскоп - Андрей Разин
00:09:42.960 : en:Пишут, пишут - Андрей Разин
00:14:16.680 : en:Бездомный пес - Юра Шатунов
00:18:48.800 : en:На крыше - Юра Шатунов
00:23:07.920 : en:Атаман - Андрей Разин
00:25:54.800 : en:Телефонный роман - Андрей Гуров
00:29:22.960 : en:Розовый вечер - Юра Шатунов
00:33:16.880 : en:Ты просто был - Юра Шатунов
00:38:42.200 : en:Ах, Кристина - Андрей Разин
00:42:10.760 : en:Автомобиль - Андрей Разин
00:46:10.000 : en:Дядя Миша - Андрей Разин
00:50:26.840 : en:Я не хочу - Олег Крестовский
00:55:27.640 : en:Все напрасно - Юра Шатунов
00:59:47.320 : en:Белые розы - Юра Шатунов
01:04:12.400 : en:Белые розы белой зимой - все солисты
01:06:52.240 : en:Белые розы - Юра Шатунов (клип)
01:12:38.400 : en:Cтарый лес - Андрей Разин (клип)
01:18:37.800 : en:Тающий снег - Юра Шатунов (клип)
01:24:23.960 : en:Простая история - Андрей Кучеров (клип)

x264 [info]: frame I:673 Avg QP:17.11 size: 37170
x264 [info]: frame P:28991 Avg QP:19.54 size: 24819
x264 [info]: frame B:103398 Avg QP:21.65 size: 14026

Правила, инструкции, FAQ!!!
Торрент  Добавлен [16 мар 2013, 23:45] Скачать торрент Магнет ссылка
Скачать торрент
[ Размер 11.55 КБ / Просмотров 64 ]

Статус  
 
Размер  2.18 ГБ
Приватный: Нет (DHT включён)
.torrent скачан  518
Как залить торрент? | Как скачать Torrent? | Ошибка в торренте? Качайте магнет  
загрузка...


     Отправить личное сообщение
   
Страница 1 из 1
Показать сообщения за:  Поле сортировки  
Начать новую тему Ответить на тему

   Похожие торренты   Автор   Ответы   Просмотры   Последнее сообщение 
В этой теме нет новых непрочитанных сообщений. Скачать торрент Проверен (Pop) [MB] [16/44.1] Ласковый Май - Белые Розы - 1988, FLAC (tracks)

в форуме Отечественная поп-музыка (оцифровки), Размер: 279.93 МБ, Здоровье: 100%

Anonymous

0
2|0

8
1

15 апр 2018, 19:46

Anonymous Перейти к последнему сообщению

В этой теме нет новых непрочитанных сообщений. Скачать торрент Проверен (Pop) [RM] [16/44.1] Ласковый Май - Белые розы (Оренбург) - 1988, FLAC (tracks)

в форуме Отечественная поп-музыка (оцифровки), Размер: 210.83 МБ, Здоровье: 100%

Anonymous

0
2|0

4
0

16 апр 2018, 22:10

Anonymous Перейти к последнему сообщению

В этой теме нет новых непрочитанных сообщений. Скачать торрент Проверен (Pop) [MB] [16/44.1] Ласковый Май - Белые розы (Оренбург) © 1988, FLAC (image+.cue)

в форуме Отечественная поп-музыка (оцифровки), Размер: 238.11 МБ, Здоровье: 0%

Anonymous

0
0|0

3
0

15 апр 2018, 19:47

Anonymous Перейти к последнему сообщению

В этой теме нет новых непрочитанных сообщений. Скачать торрент Проверен (Pop) [MB][16/44.1] Ласковый май - Белые розы - магнитоальбом - 1988, FLAC (image+.cue), lossless

в форуме Отечественная поп-музыка (оцифровки), Размер: 180.69 МБ, Здоровье: 100%

Anonymous

0
3|0

12
0

15 апр 2018, 20:06

Anonymous Перейти к последнему сообщению

В этой теме нет новых непрочитанных сообщений. Скачать торрент Проверен (Pop)[MB][24/96] Белые розы - Белые розы - 1989, FLAC (tracks+.cue)

в форуме Отечественная поп-музыка (оцифровки), Размер: 919.65 МБ, Здоровье: 100%

Anonymous

0
1|0

3
0

15 апр 2018, 20:01

Anonymous Перейти к последнему сообщению



Сейчас этот форум просматривают: нет зарегистрированных пользователей и гости: 0


Вы не можете начинать темы
Вы не можете отвечать на сообщения
Вы не можете редактировать свои сообщения
Вы не можете удалять свои сообщения
Вы не можете добавлять вложения

Перейти:  
Ресурс не предоставляет электронные версии произведений, а занимается лишь коллекционированием и каталогизацией ссылок, присылаемых и публикуемых на форуме нашими читателями. Если вы являетесь правообладателем какого-либо представленного материала и не желаете чтобы ссылка на него находилась в нашем каталоге, свяжитесь с нами и мы незамедлительно удалим её. Файлы для обмена на трекере предоставлены пользователями сайта, и администрация не несёт ответственности за их содержание. Просьба не заливать файлы, защищенные авторскими правами, а также файлы нелегального содержания!
cron