На всех торрентах на трекере установлена скидка на скачивание в размере 100 процентов(а).
 Возможность скачивания торрента НЕ зависит от ограничений при низком ратио, низком аплоаде, требуемом ратио или требуемом аплоаде.


Начать новую тему Ответить на тему
Статистика раздачи
Размер: 6.12 ГБ | Добавлен: 23 окт 2016, 12:38 | Скачали: 0
Сидеров: 2  [0 байт/сек]    Личеров: 0  [0 байт/сек]
Пред. тема | След. тема 

Автор
Сообщение

СообщениеДобавлено: 23 окт 2016, 12:38 

Ответить с цитатой 

Kvelertak & Heaven Shall Burn - Rock am Ring 2014

Жанр: Hardcore punk/Black metal/Hard rock/Heavy metal/Death metal/Metalcore/Deathcore/Melodic death metal
Продолжительность: 00:58:16
Год выпуска: 2014

Описание: Выступления норвежского metal бэнда Kvelertak и немецкого extreme metal бэнда Heaven Shall Burn на рок фестивале Rock am Ring 2014, который проходил 5-8 июня в Нюрбурге, рядом с известным автодромом Nürburgring

Доп. информация: Прямая трансляция фестиваля со спутникового канала EinsPlus 2014 jun07
Offernatt
Månelyst
Fossegrim
Evig Vandrar
Blodtørst
Kvelertak
Die Stürme rufen Dich
Land of the Upright Ones
The Omen
Combat
Voice of the Voiceless
Hunters Will Be Hunted
Counterweight
Качество: HDTV 720p
Контейнер: TS
Видео кодек: H.264
Аудио кодек: AC3
Видео: Mpeg4 AVC, 1280x720, 13400 kbps, 50 fps Progressive
Аудио: AC3, 448 kbps, 48 kHz, stereo
Аудио 2: MP2, 192 kbps, 48 kHz, stereo
Аудио 3: MP2, 192 kbps, 48 kHz, stereo
Код:
General
ID                                       : 0 (0x0)
Complete name                            : D:\Downloads\Kvelertak & Heaven Shall Burn - Rock am Ring 2014.ts
Format                                   : MPEG-TS
File size                                : 6.12 GiB
Duration                                 : 58mn 16s
Overall bit rate mode                    : Variable
Overall bit rate                         : 15.0 Mbps

Video
ID                                       : 301 (0x12D)
Menu ID                                  : 1 (0x1)
Format                                   : AVC
Format/Info                              : Advanced Video Codec
Format profile                           : High@L4.0
Format settings, CABAC                   : Yes
Format settings, ReFrames                : 4 frames
Format settings, GOP                     : M=6, N=32
Codec ID                                 : 27
Duration                                 : 58mn 16s
Bit rate                                 : 13.4 Mbps
Width                                    : 1 280 pixels
Height                                   : 720 pixels
Display aspect ratio                     : 16:9
Frame rate                               : 50.000 fps
Color space                              : YUV
Chroma subsampling                       : 4:2:0
Bit depth                                : 8 bits
Scan type                                : Progressive
Bits/(Pixel*Frame)                       : 0.292
Stream size                              : 5.47 GiB (89%)

Audio #1
ID                                       : 302 (0x12E)
Menu ID                                  : 1 (0x1)
Format                                   : AC-3
Format/Info                              : Audio Coding 3
Mode extension                           : CM (complete main)
Format settings, Endianness              : Big
Codec ID                                 : 129
Duration                                 : 58mn 16s
Bit rate mode                            : Constant
Bit rate                                 : 448 Kbps
Channel(s)                               : 2 channels
Channel positions                        : Front: L R
Sampling rate                            : 48.0 KHz
Bit depth                                : 16 bits
Compression mode                         : Lossy
Stream size                              : 187 MiB (3%)

Audio #2
ID                                       : 303 (0x12F)
Menu ID                                  : 1 (0x1)
Format                                   : MPEG Audio
Format version                           : Version 1
Format profile                           : Layer 2
Codec ID                                 : 3
Duration                                 : 58mn 16s
Bit rate mode                            : Constant
Bit rate                                 : 192 Kbps
Channel(s)                               : 2 channels
Sampling rate                            : 48.0 KHz
Compression mode                         : Lossy
Stream size                              : 80.0 MiB (1%)

Audio #3
ID                                       : 304 (0x130)
Menu ID                                  : 1 (0x1)
Format                                   : MPEG Audio
Format version                           : Version 1
Format profile                           : Layer 2
Codec ID                                 : 3
Duration                                 : 58mn 16s
Bit rate mode                            : Constant
Bit rate                                 : 192 Kbps
Channel(s)                               : 2 channels
Sampling rate                            : 48.0 KHz
Compression mode                         : Lossy
Stream size                              : 80.0 MiB (1%)
загрузка...
Правила, инструкции, FAQ!!!
Торрент  Добавлен [23 окт 2016, 12:38] Скачать торрент Магнет ссылка
Скачать торрент
[ Размер 15.76 КБ / Просмотров 27 ]

Статус
Проверен 
 
Размер  6.12 ГБ
Приватный: Нет (DHT включён)
.torrent скачан  0
Как залить торрент? | Как скачать Torrent? | Ошибка в торренте? Качайте магнет  


     Отправить личное сообщение
   
Страница 1 из 1
Показать сообщения за:  Поле сортировки  
Начать новую тему Ответить на тему

   Похожие торренты   Автор   Ответы   Просмотры   Последнее сообщение 
В этой теме нет новых непрочитанных сообщений. Скачать торрент Проверен Heaven Shall Burn. Rock am Ring 2014 [2014, Metalcore/Deathcore/Melodic death metal, HDTV 720p]

в форуме Концерты (HD-Video), Размер: 4.54 ГБ, Здоровье: 100%

Anonymous

0
2|0

66
0

23 окт 2016, 15:46

Anonymous Перейти к последнему сообщению

В этой теме нет новых непрочитанных сообщений. Скачать торрент Проверен Heaven Shall Burn. Wacken Open Air 2014 [2014, Death metal/Metalcore/Deathcore/Melodic death metal, HDTV 720p]

в форуме Концерты (HD-Video), Размер: 5.19 ГБ, Здоровье: 20%

Anonymous

0
3|15

75
0

23 окт 2016, 15:46

Anonymous Перейти к последнему сообщению

В этой теме нет новых непрочитанных сообщений. Скачать торрент Проверен Heaven Shall Burn - Rock'n'Heim 2013 [2013, Death metal/Metalcore/Deathcore/Melodic death meta, HDTV 720p]

в форуме Концерты (HD-Video), Размер: 6.06 ГБ, Здоровье: 100%

Anonymous

0
1|1

52
1

23 окт 2016, 10:26

Anonymous Перейти к последнему сообщению

В этой теме нет новых непрочитанных сообщений. Скачать торрент Проверен Insomnium & Screamer. Rock Hard Festival 2014 [2014, Melodic death metal/Doom metal/Progressive metal/Heavy-metal, HDTV 720p]

в форуме Концерты (HD-Video), Размер: 2.37 ГБ, Здоровье: 100%

Anonymous

0
7|2

82
3

23 окт 2016, 14:54

Anonymous Перейти к последнему сообщению

В этой теме нет новых непрочитанных сообщений. Скачать торрент Проверен Children of Bodom. Wacken Open Air 2014 [2014, Melodic death metal/Power metal/Neoclassical metal/Trash metal, HDTV 720p]

в форуме Концерты (HD-Video), Размер: 5.25 ГБ, Здоровье: 100%

Anonymous

0
9|2

92
3

23 окт 2016, 16:18

Anonymous Перейти к последнему сообщению



Сейчас этот форум просматривают: нет зарегистрированных пользователей и гости: 3


Вы не можете начинать темы
Вы не можете отвечать на сообщения
Вы не можете редактировать свои сообщения
Вы не можете удалять свои сообщения
Вы не можете добавлять вложения

Перейти:  
Ресурс не предоставляет электронные версии произведений, а занимается лишь коллекционированием и каталогизацией ссылок, присылаемых и публикуемых на форуме нашими читателями. Если вы являетесь правообладателем какого-либо представленного материала и не желаете чтобы ссылка на него находилась в нашем каталоге, свяжитесь с нами и мы незамедлительно удалим её. Файлы для обмена на трекере предоставлены пользователями сайта, и администрация не несёт ответственности за их содержание. Просьба не заливать файлы, защищенные авторскими правами, а также файлы нелегального содержания!
cron