На всех торрентах на трекере установлена скидка на скачивание в размере 100 процентов(а).
 Возможность скачивания торрента НЕ зависит от ограничений при низком ратио, низком аплоаде, требуемом ратио или требуемом аплоаде.


Начать новую тему Ответить на тему
Статистика раздачи
Размер: 7.3 ГБ | Добавлен: 12 май 2018, 22:24 | Скачали: 0
Сидеров: 1  [0 байт/сек]    Личеров: 0  [0 байт/сек]
Пред. тема | След. тема 

Автор
Сообщение

СообщениеДобавлено: 12 май 2018, 22:24 

Ответить с цитатой 

Название: Крутые мужики
Оригинальное название: Tough Guys
Год выхода: 1986
Жанр: комедия
Режиссер: Джеф Кэнью
В ролях: Берт Ланкастер, Кирк Дуглас, Чарльз Дёрнинг, Алексис Смит, Дэна Карви, Дарлэнн Флюгел, Илай Уоллак, Монти Эш, Билли Барти, Симми Боу

О фильме:
Два грабителя, только что вышедших из тюрьмы после 30 лет заключения, Гарри и Арчи попадают в новый Лос-Анджелес, совершенно им не знакомый. Попробовав несколько честных способов зарабатывания денег, они все-таки решают заняться тем, что получается у них лучше всего - воровством в поездах. И надо же такому случиться - они выходят на дело в том самом поезде, за ограбление которого их посадили 30 лет назад.



Страна: США
Студия: Bryna Productions, Silver Screen Partners II, Touchstone Pictures
Продолжительность: 01:44:06
Перевод: Профессиональный (дублированный) РТР + Профессиональный (многоголосый, закадровый) Петербург - Пятый канал + Профессиональный (многоголосый, закадровый) ОРТ/iTunes Russia + Авторский (одноголосый, закадровый) А.Михалёв + Любительский (одноголосый, закадровый) А.Чуев

Релиз:

Файл
Качество: BDRip 720p
Формат: Matroska
Видео: 1280x546 at 23.976 fps, x264@L4.1, ~8444 kbps avg
Аудио#1: Russian: 48 kHz, AC3, 2/0 (L,R) ch, ~192 kbps avg |Дубляж, РТР|
Аудио#2: Russian: 48 kHz, AC3, 2/0 (L,R) ch, ~192 kbps avg |Многоголосый закадровый, Петербург - Пятый канал|
Аудио#3: Russian: 48 kHz, AC3, 2/0 (L,R) ch, ~192 kbps avg |Многоголосый закадровый, ОРТ/iTunes Russia|
Аудио#4: Russian: 48 kHz, AC3, 2/0 (L,R) ch, ~192 kbps avg |Авторский, А.Михалёв|
Аудио#5: Russian: 48 kHz, AC3, 2/0 (L,R) ch, ~192 kbps avg |Любительский, А.Чуев (по переводу Марины Полек)|
Аудио#6: English: 48 kHz, FLAC, 2/0 (L,R) ch, ~556 kbps avg
Аудио#7: English: 48 kHz, AAC, 2/0 (L,R) ch, ~68 kbps avg |Commentary|
Субтитры: English

***Сохранены оригинальные главы как на Blu-ray.
***Видеоряд - SbR!
***За русские дороги спасибо: Spiellberg.

Общее
Уникальный идентификатор : 251209878715148314211913954509339987391 (0xBCFD43452DD82BDDAB31A44D41BF8DBF)
Полное имя : Tough.Guys.1986.720p.BluRay.5xRus.Eng.HDCLUB-SbR.mkv
Формат : Matroska
Версия формата : Version 4 / Version 2
Размер файла : 7,30 Гбайт
Продолжительность : 1 ч. 44 м.
Режим общего битрейта : Переменный
Общий поток : 10,0 Мбит/сек
Дата кодирования : UTC 2017-07-17 14:14:42
Программа кодирования : mkvmerge v13.0.0 ('The Juggler') 64bit
Библиотека кодирования : libebml v1.3.4 + libmatroska v1.4.5
Attachment : Yes

Видео
Идентификатор : 1
Формат : AVC
Формат/Информация : Advanced Video Codec
Профиль формата : High@L4.1
Параметр CABAC формата : Да
Параметр ReFrames формата : 11 кадров
Идентификатор кодека : V_MPEG4/ISO/AVC
Продолжительность : 1 ч. 44 м.
Ширина : 1280 пикселей
Высота : 546 пикселей
Соотношение сторон : 2,35:1
Режим частоты кадров : Постоянный
Частота кадров : 23,976 кадра/сек
Цветовое пространство : YUV
Субдискретизация насыщенности : 4:2:0
Битовая глубина : 8 бит
Тип развёртки : Прогрессивная
Библиотека кодирования : x264 core 152 r2851kMod ba24899
Настройки программы : cabac=1 / ref=11 / deblock=1:-3:-3 / analyse=0x3:0x133 / me=umh / subme=10 / psy=1 / fade_compensate=0.00 / psy_rd=1.00:0.05 / mixed_ref=1 / me_range=32 / chroma_me=1 / trellis=2 / 8x8dct=1 / cqm=0 / deadzone=21,11 / fast_pskip=0 / chroma_qp_offset=-3 / threads=6 / lookahead_threads=1 / sliced_threads=0 / nr=0 / decimate=1 / interlaced=0 / bluray_compat=0 / constrained_intra=0 / bframes=10 / b_pyramid=2 / b_adapt=2 / b_bias=0 / direct=3 / weightb=1 / open_gop=0 / weightp=2 / keyint=250 / keyint_min=23 / scenecut=40 / intra_refresh=0 / rc_lookahead=60 / rc=crf / mbtree=0 / crf=17.0000 / qcomp=0.60 / qpmin=0 / qpmax=69 / qpstep=4 / vbv_maxrate=62500 / vbv_bufsize=78125 / crf_max=0.0 / nal_hrd=none / filler=0 / ip_ratio=1.40 / pb_ratio=1.30 / aq=1:0.65
Язык : English
Default : Да
Forced : Нет
Основные цвета : BT.709
Характеристики трансфера : BT.709
Коэффициенты матрицы : BT.709

Аудио #1
Идентификатор : 2
Формат : AC-3
Формат/Информация : Audio Coding 3
Расширение режима : CM (complete main)
Параметр Endianness формата : Big
Идентификатор кодека : A_AC3
Продолжительность : 1 ч. 44 м.
Вид битрейта : Постоянный
Битрейт : 192 Кбит/сек
Каналы : 2 канала
Расположение каналов : Front: L R
Частота : 48,0 КГц
Битовая глубина : 16 бит
Метод сжатия : С потерями
Размер потока : 143 Мбайт (2%)
Заголовок : Дубляж РТР
Язык : Russian
Default : Да
Forced : Нет

Аудио #2
Идентификатор : 3
Формат : AC-3
Формат/Информация : Audio Coding 3
Расширение режима : CM (complete main)
Параметр Endianness формата : Big
Идентификатор кодека : A_AC3
Продолжительность : 1 ч. 44 м.
Вид битрейта : Постоянный
Битрейт : 192 Кбит/сек
Каналы : 2 канала
Расположение каналов : Front: L R
Частота : 48,0 КГц
Битовая глубина : 16 бит
Метод сжатия : С потерями
Размер потока : 143 Мбайт (2%)
Заголовок : MVO Peterburg 5 канал
Язык : Russian
Default : Нет
Forced : Нет

Аудио #3
Идентификатор : 4
Формат : AC-3
Формат/Информация : Audio Coding 3
Расширение режима : CM (complete main)
Параметр Endianness формата : Big
Идентификатор кодека : A_AC3
Продолжительность : 1 ч. 44 м.
Вид битрейта : Постоянный
Битрейт : 192 Кбит/сек
Каналы : 2 канала
Расположение каналов : Front: L R
Частота : 48,0 КГц
Битовая глубина : 16 бит
Метод сжатия : С потерями
Размер потока : 143 Мбайт (2%)
Заголовок : MVO OPT (iTunes Russia)
Язык : Russian
Default : Нет
Forced : Нет

Аудио #4
Идентификатор : 5
Формат : AC-3
Формат/Информация : Audio Coding 3
Расширение режима : CM (complete main)
Параметр Endianness формата : Big
Идентификатор кодека : A_AC3
Продолжительность : 1 ч. 44 м.
Вид битрейта : Постоянный
Битрейт : 192 Кбит/сек
Каналы : 2 канала
Расположение каналов : Front: L R
Частота : 48,0 КГц
Битовая глубина : 16 бит
Метод сжатия : С потерями
Размер потока : 143 Мбайт (2%)
Заголовок : VO А.Михалев
Язык : Russian
Default : Нет
Forced : Нет

Аудио #5
Идентификатор : 6
Формат : AC-3
Формат/Информация : Audio Coding 3
Расширение режима : CM (complete main)
Параметр Endianness формата : Big
Идентификатор кодека : A_AC3
Продолжительность : 1 ч. 44 м.
Вид битрейта : Постоянный
Битрейт : 192 Кбит/сек
Каналы : 2 канала
Расположение каналов : Front: L R
Частота : 48,0 КГц
Битовая глубина : 16 бит
Метод сжатия : С потерями
Размер потока : 143 Мбайт (2%)
Заголовок : VO А.Чуев
Язык : Russian
Default : Нет
Forced : Нет

Аудио #6
Идентификатор : 7
Формат : FLAC
Формат/Информация : Free Lossless Audio Codec
Идентификатор кодека : A_FLAC
Продолжительность : 1 ч. 44 м.
Вид битрейта : Переменный
Каналы : 2 канала
Частота : 48,0 КГц
Битовая глубина : 16 бит
Библиотека кодирования : libFLAC 1.2.1 (UTC 2007-09-17)
Язык : English
Default : Нет
Forced : Нет

Аудио #7
Идентификатор : 8
Формат : AAC
Формат/Информация : Advanced Audio Codec
Профиль формата : LC
Идентификатор кодека : A_AAC
Продолжительность : 1 ч. 44 м.
Каналы : 2 канала
Расположение каналов : Front: L R
Частота : 48,0 КГц
Метод сжатия : С потерями
Задержка видео : 9 мс.
Заголовок : commentary
Язык : English
Default : Нет
Forced : Нет

Текст
Идентификатор : 9
Формат : UTF-8
Идентификатор кодека : S_TEXT/UTF8
Идентификатор кодека/Информация : UTF-8 Plain Text
Язык : English
Default : Нет
Forced : Нет

Меню
00:00:00.000 : en:00:00:00.000
00:10:56.406 : en:00:10:56.406
00:24:40.354 : en:00:24:40.354
00:41:57.598 : en:00:41:57.598
00:57:59.476 : en:00:57:59.476
01:11:05.845 : en:01:11:05.845
01:22:17.891 : en:01:22:17.891
01:33:27.185 : en:01:33:27.185
Правила, инструкции, FAQ!!!
Торрент  Добавлен [12 май 2018, 22:24] Скачать торрент Магнет ссылка
Скачать торрент
[ Размер 19.21 КБ / Просмотров 9 ]

Статус
Проверен 
 
Размер  7.3 ГБ
Приватный: Нет (DHT включён)
.torrent скачан  0
Как залить торрент? | Как скачать Torrent? | Ошибка в торренте? Качайте магнет  
загрузка...


     Отправить личное сообщение
   
Страница 1 из 1
Показать сообщения за:  Поле сортировки  
Начать новую тему Ответить на тему

   Похожие торренты   Автор   Ответы   Просмотры   Последнее сообщение 
В этой теме нет новых непрочитанных сообщений. Скачать торрент Крутые мужики / Tough Guys (1986) DVDRip | P

в форуме Комедии, Размер: 1.37 ГБ, Здоровье: 100%

Anonymous

0
1|0

196
0

24 июл 2013, 20:19

Anonymous Перейти к последнему сообщению

В этой теме нет новых непрочитанных сообщений. Скачать торрент Проверен Английская линия - Will Self / Уилл Селф - Tough, Tough Toys for Tough, Tough Boys / Крутые-крутые игрушки для крутых-крутых мальчиков [2010, DjVu/FB2/TXT, RUS]

в форуме Зарубежная литература (XX и XXI век), Размер: 8.21 МБ, Здоровье: 0%

Anonymous

0
2|323

57
0

08 сен 2016, 18:32

Anonymous Перейти к последнему сообщению

В этой теме нет новых непрочитанных сообщений. Скачать торрент Вышибалы / Крутые парни / Knockaround Guys (2001) BDRip-AVC от 0ptimus | P

в форуме 720p | 1080p, Размер: 1.64 ГБ, Здоровье: 100%

Anonymous

0
2|0

176
3

17 июл 2013, 17:13

Anonymous Перейти к последнему сообщению

В этой теме нет новых непрочитанных сообщений. Скачать торрент Крутые чуваки / Bad Asses (2014) BDRip 720p | L1

в форуме 720p | 1080p, Размер: 4.49 ГБ, Здоровье: 0%

Anonymous

0
0|0

92
0

02 апр 2014, 22:56

Anonymous Перейти к последнему сообщению

В этой теме нет новых непрочитанных сообщений. Скачать торрент Проверен Крутые времена / Harsh Times (2005) BDRip 720p

в форуме 720p | 1080p, Размер: 5.37 ГБ, Здоровье: 100%

Anonymous

0
43|5

78
373

20 авг 2014, 16:32

Anonymous Перейти к последнему сообщению



Сейчас этот форум просматривают: нет зарегистрированных пользователей и гости: 0


Вы не можете начинать темы
Вы не можете отвечать на сообщения
Вы не можете редактировать свои сообщения
Вы не можете удалять свои сообщения
Вы не можете добавлять вложения

Перейти:  
Ресурс не предоставляет электронные версии произведений, а занимается лишь коллекционированием и каталогизацией ссылок, присылаемых и публикуемых на форуме нашими читателями. Если вы являетесь правообладателем какого-либо представленного материала и не желаете чтобы ссылка на него находилась в нашем каталоге, свяжитесь с нами и мы незамедлительно удалим её. Файлы для обмена на трекере предоставлены пользователями сайта, и администрация не несёт ответственности за их содержание. Просьба не заливать файлы, защищенные авторскими правами, а также файлы нелегального содержания!