На всех торрентах на трекере установлена скидка на скачивание в размере 100 процентов(а).
 Возможность скачивания торрента НЕ зависит от ограничений при низком ратио, низком аплоаде, требуемом ратио или требуемом аплоаде.


Начать новую тему Ответить на тему
Статистика раздачи
Размер: 7.76 ГБ | Добавлен: 27 апр 2018, 22:46 | Скачали: 3
Сидеров: 5  [0 байт/сек]    Личеров: 13  [0 байт/сек]
Пред. тема | След. тема 

Автор
Сообщение

СообщениеДобавлено: 27 апр 2018, 22:46 

Ответить с цитатой 

Информация о фильме:
Название: Кристина
Оригинальное название: Christine
Год выхода: 1983
Жанр: ужасы, триллер, драма, детектив
Режиссер: Джон Карпентер
В ролях: Кит Гордон, Джон Стокуэлл, Александра Пол, Роберт Проски, Гарри Дин Стэнтон, Кристин Белфорд, Робертс Блоссом, Уильям Острандер, Дэвид Спилберг, Мальколм Дэнар

О фильме:
Ее зовут Кристина. Ее классические формы вызывают восхищение. Она соблазняет 17-летнего Арни Каннингэма и делает его своим слугой. У нее нет и не может быть соперниц, ибо она их убивает. Она требует беспрекословного подчинения.
Она… автомобиль! Чтобы сохранить свою жизнь, юноша должен посвятить ее жестокой Кристине. История роскошного красного Плимута 1958 года полна страшных тайн. Все его предыдущие хозяева погибли. И юный Ромео должен стать очередной жертвой ненасытной Джульетты.



Выпущено: США
Продолжительность: 01:49:59
Перевод: Профессиональный (многоголосый закадровый) Видеосервис
+ Профессиональный (многоголосый закадровый) Киномания
+ Авторский (одноголосый закадровый) С.Визгунов + Оригинал

Файл
Кодек: x264
Качество: BDRip 1080p
Видео: 1920x800, 8822 Kbps, 23.976 fps
Аудио #1: AC-3, 6 ch, 448 kbps (Rus) (MVO - Видеосервис)
Аудио #2: AC-3, 2 ch, 192 kbps (Rus) (MVO - Киномания)
Аудио #3: AC-3, 2 ch, 192 kbps (Rus) (VO - С.Визгунов)
Аудио #4: AC-3, 6 ch, 448 kbps (Eng)
Субтитры: русские, английские

Общее
Уникальный идентификатор : 242228271335832260808132337488346036588 (0xB63B77D65672B98691566D3D9D75396C)
Полное имя : Кристина.1983.BDRip.1080p.Rus.Eng.mkv
Формат : Matroska
Версия формата : Version 2
Размер файла : 7,76 Гбайт
Продолжительность : 1 ч. 49 м.
Общий поток : 10,1 Мбит/сек
Название фильма : Кристина.1983
Дата кодирования : UTC 2013-07-21 17:57:56
Программа кодирования : mkvmerge v5.8.0 ('No Sleep / Pillow') built on Sep 2 2012 15:37:04
Библиотека кодирования : libebml v1.2.3 + libmatroska v1.3.0

Видео
Идентификатор : 1
Формат : AVC
Формат/Информация : Advanced Video Codec
Профиль формата : High@L4.1
Параметр CABAC формата : Да
Параметр ReFrames формата : 5 кадров
Идентификатор кодека : V_MPEG4/ISO/AVC
Продолжительность : 1 ч. 49 м.
Битрейт : 8822 Кбит/сек
Ширина : 1920 пикселей
Высота : 800 пикселей
Соотношение сторон : 2,40:1
Режим частоты кадров : Постоянный
Частота кадров : 23,976 кадра/сек
Цветовое пространство : YUV
Субдискретизация насыщенности : 4:2:0
Битовая глубина : 8 бит
Тип развёртки : Прогрессивная
Бит/(Пиксели*Кадры) : 0.240
Размер потока : 6,62 Гбайт (85%)
Заголовок : Rip by Boriy
Библиотека кодирования : x264 core 135 r2345 f0c1c53
Настройки программы : cabac=1 / ref=5 / deblock=1:-3:-3 / analyse=0x3:0x113 / me=umh / subme=11 / psy=1 / psy_rd=1.00:0.10 / mixed_ref=1 / me_range=32 / chroma_me=1 / trellis=2 / 8x8dct=1 / cqm=0 / deadzone=21,11 / fast_pskip=0 / chroma_qp_offset=-2 / threads=12 / lookahead_threads=1 / sliced_threads=0 / nr=0 / decimate=0 / interlaced=0 / bluray_compat=0 / constrained_intra=0 / bframes=6 / b_pyramid=2 / b_adapt=2 / b_bias=0 / direct=3 / weightb=1 / open_gop=0 / weightp=2 / keyint=240 / keyint_min=23 / scenecut=40 / intra_refresh=0 / rc=2pass / mbtree=0 / bitrate=8822 / ratetol=1.0 / qcomp=0.60 / qpmin=0 / qpmax=69 / qpstep=4 / cplxblur=20.0 / qblur=0.5 / ip_ratio=1.40 / pb_ratio=1.30 / aq=1:0.80
Язык : English
Default : Да
Forced : Нет

Аудио #1
Идентификатор : 2
Формат : AC-3
Формат/Информация : Audio Coding 3
Расширение режима : CM (complete main)
Параметр Endianness формата : Big
Идентификатор кодека : A_AC3
Продолжительность : 1 ч. 49 м.
Вид битрейта : Постоянный
Битрейт : 448 Кбит/сек
Каналы : 6 каналов
Расположение каналов : Front: L C R, Side: L R, LFE
Частота : 48,0 КГц
Битовая глубина : 16 бит
Метод сжатия : С потерями
Размер потока : 352 Мбайт (4%)
Заголовок : MVO - Видеосервис
Язык : Russian
Default : Да
Forced : Нет

Аудио #2
Идентификатор : 3
Формат : AC-3
Формат/Информация : Audio Coding 3
Расширение режима : CM (complete main)
Параметр Endianness формата : Big
Идентификатор кодека : A_AC3
Продолжительность : 1 ч. 49 м.
Вид битрейта : Постоянный
Битрейт : 192 Кбит/сек
Каналы : 2 канала
Расположение каналов : Front: L R
Частота : 48,0 КГц
Битовая глубина : 16 бит
Метод сжатия : С потерями
Размер потока : 151 Мбайт (2%)
Заголовок : MVO - Киномания
Язык : Russian
Default : Нет
Forced : Нет

Аудио #3
Идентификатор : 4
Формат : AC-3
Формат/Информация : Audio Coding 3
Расширение режима : CM (complete main)
Параметр Endianness формата : Big
Идентификатор кодека : A_AC3
Продолжительность : 1 ч. 49 м.
Вид битрейта : Постоянный
Битрейт : 192 Кбит/сек
Каналы : 2 канала
Расположение каналов : Front: L R
Частота : 48,0 КГц
Битовая глубина : 16 бит
Метод сжатия : С потерями
Размер потока : 151 Мбайт (2%)
Заголовок : VO - С.Визгунов
Язык : Russian
Default : Нет
Forced : Нет

Аудио #4
Идентификатор : 5
Формат : AC-3
Формат/Информация : Audio Coding 3
Расширение режима : CM (complete main)
Параметр Endianness формата : Big
Идентификатор кодека : A_AC3
Продолжительность : 1 ч. 49 м.
Вид битрейта : Постоянный
Битрейт : 448 Кбит/сек
Каналы : 6 каналов
Расположение каналов : Front: L C R, Side: L R, LFE
Частота : 48,0 КГц
Битовая глубина : 16 бит
Метод сжатия : С потерями
Размер потока : 352 Мбайт (4%)
Заголовок : Оригинал
Язык : English
Default : Нет
Forced : Нет

Текст #1
Идентификатор : 6
Формат : UTF-8
Идентификатор кодека : S_TEXT/UTF8
Идентификатор кодека/Информация : UTF-8 Plain Text
Заголовок : Киномания
Язык : Russian
Default : Нет
Forced : Нет

Текст #2
Идентификатор : 7
Формат : UTF-8
Идентификатор кодека : S_TEXT/UTF8
Идентификатор кодека/Информация : UTF-8 Plain Text
Язык : English
Default : Нет
Forced : Нет

Меню
00:00:00.000 : :Start
00:01:34.000 : :Detroit 1957
00:05:02.000 : :Arnie Cunningham
00:09:22.000 : :The New Girl
00:10:26.000 : :Arnie's Lunch
00:15:58.000 : :Christine
00:17:11.000 : :George LeBay
00:21:56.000 : :Darnell's Garage
00:27:33.000 : :October 9
00:34:02.000 : :Change in Arnie
00:36:11.000 : :Lost Owner's Fate
00:37:42.000 : :Keep A-Knockin'
00:39:04.000 : :The Game
00:41:56.000 : :November 5
00:47:57.000 : :All Choked Up
00:53:50.000 : :Revenge of the Punks
00:55:11.000 : :Trashed
00:59:13.000 : :"O.K. show Me."
01:01:33.000 : :Moochie
01:05:56.000 : :November 23
01:07:54.000 : :Rudolph Junkins
01:12:49.000 : :One Hot Car
01:17:59.000 : :"The ride is over."
01:22:30.000 : :Arnie's Alibi
01:27:39.000 : :True Love
01:36:52.000 : :Christine Arrives
01:40:09.000 : :Arnie's Last Stand
01:42:01.000 : :Bulldozer vs. Plymouth
Правила, инструкции, FAQ!!!
Торрент  Добавлен [27 апр 2018, 22:46] Скачать торрент Магнет ссылка
Скачать торрент
[ Размер 39.81 КБ / Просмотров 95 ]

Статус
Проверен 
 
Размер  7.76 ГБ
Приватный: Нет (DHT включён)
.torrent скачан  3
Как залить торрент? | Как скачать Torrent? | Ошибка в торренте? Качайте магнет  


     Отправить личное сообщение
   
Страница 1 из 1
Показать сообщения за:  Поле сортировки  
Начать новую тему Ответить на тему

   Похожие торренты   Автор   Ответы   Просмотры   Последнее сообщение 
В этой теме нет новых непрочитанных сообщений. Скачать торрент Кристина / Christine (Джон Карпентер / John Carpenter) [1983, США, Ужасы, триллер, драма, детектив, BDRip 720p]

в форуме 720p | 1080p, Размер: 5.4 ГБ, Здоровье: 100%

Anonymous

0
12|4

110
0

25 фев 2014, 22:41

Anonymous Перейти к последнему сообщению

В этой теме нет новых непрочитанных сообщений. Скачать торрент Проверен Африканец / L'Africain (1983) BDRip 1080p | D, P

в форуме 720p | 1080p, Размер: 9.47 ГБ, Здоровье: 94%

Anonymous

0
32|34

77
62

31 окт 2014, 20:16

Anonymous Перейти к последнему сообщению

В этой теме нет новых непрочитанных сообщений. Скачать торрент Проверен (Rock) Christine McVie (Fleetwood Mac) - Christine McVie - 1984, FLAC (tracks+.cue), lossless

в форуме Classic Rock & Hard Rock, Размер: 250.74 МБ, Здоровье: 3%

Anonymous

0
2|66

21
0

05 сен 2016, 19:57

Anonymous Перейти к последнему сообщению

В этой теме нет новых непрочитанных сообщений. Скачать торрент Проверен (Pop Rock)[LP][24/192] Christine McVie - Christine McVie - 1984 (Japan), FLAC (image+.cue)

в форуме Зарубежный рок (оцифровки), Размер: 1.69 ГБ, Здоровье: 100%

Anonymous

0
11|5

15
1

26 авг 2016, 08:30

Anonymous Перейти к последнему сообщению

В этой теме нет новых непрочитанных сообщений. Скачать торрент Проверен Проект А - Дилогия / Project A Collection (1983-1987) BDRip 1080p | P2, P1, A

в форуме 720p | 1080p, Размер: 20.22 ГБ, Здоровье: 100%

Anonymous

0
16|10

409
59

15 ноя 2015, 23:54

Anonymous Перейти к последнему сообщению



Сейчас этот форум просматривают: нет зарегистрированных пользователей и гости: 1


Вы не можете начинать темы
Вы не можете отвечать на сообщения
Вы не можете редактировать свои сообщения
Вы не можете удалять свои сообщения
Вы не можете добавлять вложения

Перейти:  
Ресурс не предоставляет электронные версии произведений, а занимается лишь коллекционированием и каталогизацией ссылок, присылаемых и публикуемых на форуме нашими читателями. Если вы являетесь правообладателем какого-либо представленного материала и не желаете чтобы ссылка на него находилась в нашем каталоге, свяжитесь с нами и мы незамедлительно удалим её. Файлы для обмена на трекере предоставлены пользователями сайта, и администрация не несёт ответственности за их содержание. Просьба не заливать файлы, защищенные авторскими правами, а также файлы нелегального содержания!
cron