На всех торрентах на трекере установлена скидка на скачивание в размере 100 процентов(а).
 Возможность скачивания торрента НЕ зависит от ограничений при низком ратио, низком аплоаде, требуемом ратио или требуемом аплоаде.


Начать новую тему Ответить на тему
Статистика раздачи
Размер: 4.15 ГБ | Добавлен: 12 дек 2015, 22:07 | Скачали: 8
Сидеров: 34  [0 байт/сек]    Личеров: 4  [0 байт/сек]
Пред. тема | След. тема 

Автор
Сообщение

СообщениеДобавлено: 12 дек 2015, 22:07 

Ответить с цитатой 

Производство: СССР, Ленфильм
Жанр: Фантастика

Режиссер: Леонид Квинихидзе
Актеры: Олег Борисов, Нонна Терентьева, Александр Белявский, Василий Корзун, Геннадий Сайфулин, Михаил Волков, Владимир Татосов, Игорь Кузнецов, Ефим Копелян, Григорий Гай, Эрнст Романов, Виталий Юшков, Александр Кайдановский, Владимир Костин, Альгимантас Масюлис, Анатолий Шведерский, Валентин Никулин...

Описание:
По мотивам фантастического романа Алексея Толстого «Гиперболоид инженера Гарина». В конце 20-х годов в Петрограде на Крестовском острове найден труп инженера Гарина. Но не тут-то было. Гарин жив и здоров. Он, воспользовавшись гениальным открытием ученого Манцева сконструировал аппарат, обладающий разрушительной силой. Гарин, тщеславный и аморальный тип, но необычайно талантливый ученый эмигрирует из России под видом французского коммерсанта. Конечная цель Гарина - стать правителем мира. В этом ему пытается помешать сотрудник уголовного розыска Советской России Василий Шельга.

Доп. информация: Полная реставрация изображения и звука, Крупный план.


Релиз: (NNM-CLUB)

Продолжительность: 01:05:00 + 01:03:22 + 01:03:20 + 01:02:54
Качество видео: DVDRip

Видео: AVC/H.264, 718x576@766x576, ~1590-1791 kbps
Аудио1: AC3, 6 ch, 448 kbps, CBR
Аудио2: AC3, 1 ch, 192 kbps, CBR, отдельными файлами
1-ая серия:
2-ая серия:
3-ья серия:
4-ая серия:
Код:
Код:
Общее
Уникальный идентификатор                 : 209295168334232740507199050091114518892 (0x9D74C87F355BADDCB3813DE576EFD96C)
Полное имя                               : D:\00-Крах инженера Гарина\01-Крах инженера Гарина-КП-DVDRip-MG.mkv
Формат                                   : Matroska
Версия формата                           : Version 4 / Version 2
Размер файла                             : 948 Мбайт
Продолжительность                        : 1 ч. 5 м.
Общий поток                              : 2039 Кбит/сек
Дата кодирования                         : UTC 2015-12-08 07:24:47
Программа кодирования                    : mkvmerge v8.6.1 ('Flying') 64bit
Библиотека кодирования                   : libebml v1.3.3 + libmatroska v1.4.4

Видео
Идентификатор                            : 1
Формат                                   : AVC
Формат/Информация                        : Advanced Video Codec
Профиль формата                          :
Параметр CABAC формата                   : Да
Параметр ReFrames формата                : 11 кадров
Идентификатор кодека                     : V_MPEG4/ISO/AVC
Продолжительность                        : 1 ч. 5 м.
Битрейт                                  : 1590 Кбит/сек
Ширина                                   : 718 пикселей
Высота                                   : 576 пикселей
Соотношение сторон                       : 4:3
Режим частоты кадров                     : Постоянный
Частота кадров                           : 25,000 кадров/сек
Цветовое пространство                    : YUV
Субдискретизация насыщенности            : 4:2:0
Битовая глубина                          : 8 бит
Тип развёртки                            : Прогрессивная
Бит/(Пиксели*Кадры)                      : 0.154
Размер потока                            : 739 Мбайт (78%)
Заголовок                                : FomaTash for nnm-club.me
Библиотека кодирования                   : x264 core 146 r2538 121396c
Настройки программы                      : cabac=1 / ref=11 / deblock=1:-1:-1 / analyse=0x3:0x133 / me=umh / subme=11 / psy=1 / psy_rd=1.00:0.15 / mixed_ref=1 / me_range=48 / chroma_me=1 / trellis=2 / 8x8dct=1 / cqm=0 / deadzone=21,11 / fast_pskip=0 / chroma_qp_offset=-3 / threads=6 / lookahead_threads=1 / sliced_threads=0 / nr=0 / decimate=1 / interlaced=0 / bluray_compat=0 / constrained_intra=0 / bframes=16 / b_pyramid=2 / b_adapt=2 / b_bias=0 / direct=3 / weightb=1 / open_gop=0 / weightp=2 / keyint=250 / keyint_min=25 / scenecut=40 / intra_refresh=0 / rc_lookahead=40 / rc=2pass / mbtree=1 / bitrate=1590 / ratetol=1.0 / qcomp=0.60 / qpmin=10 / qpmax=51 / qpstep=4 / cplxblur=20.0 / qblur=0.5 / vbv_maxrate=50000 / vbv_bufsize=62500 / nal_hrd=none / filler=0 / ip_ratio=1.40 / aq=1:1.00
Язык                                     : Russian
Default                                  : Да
Forced                                   : Нет

Аудио
Идентификатор                            : 2
Формат                                   : AC-3
Формат/Информация                        : Audio Coding 3
Расширение режима                        : CM (complete main)
Параметр Endianness формата              : Big
Идентификатор кодека                     : A_AC3
Продолжительность                        : 1 ч. 4 м.
Вид битрейта                             : Постоянный
Битрейт                                  : 448 Кбит/сек
Каналы                                   : 6 каналов
Расположение каналов                     : Front: L C R, Side: L R, LFE
Частота                                  : 48,0 КГц
Частота кадров                           : 31,250 кадров/сек (1536 spf)
Метод сжатия                             : С потерями
Задержка видео                           : 62 мс.
Размер потока                            : 208 Мбайт (22%)
Заголовок                                : AC3-5+1
Язык                                     : Russian
Default                                  : Да
Forced                                   : Нет
Код:
Код:
Общее
Уникальный идентификатор                 : 213612701077356156484491284660808170266 (0xA0B44F4BD14242A09234B876D9A1BB1A)
Полное имя                               : D:\00-Крах инженера Гарина\02-Крах инженера Гарина-КП-DVDRip-MG.mkv
Формат                                   : Matroska
Версия формата                           : Version 4 / Version 2
Размер файла                             : 967 Мбайт
Продолжительность                        : 1 ч. 3 м.
Общий поток                              : 2134 Кбит/сек
Дата кодирования                         : UTC 2015-12-08 12:03:52
Программа кодирования                    : mkvmerge v8.6.1 ('Flying') 64bit
Библиотека кодирования                   : libebml v1.3.3 + libmatroska v1.4.4

Видео
Идентификатор                            : 1
Формат                                   : AVC
Формат/Информация                        : Advanced Video Codec
Профиль формата                          :
Параметр CABAC формата                   : Да
Параметр ReFrames формата                : 11 кадров
Идентификатор кодека                     : V_MPEG4/ISO/AVC
Продолжительность                        : 1 ч. 3 м.
Битрейт                                  : 1684 Кбит/сек
Ширина                                   : 718 пикселей
Высота                                   : 576 пикселей
Соотношение сторон                       : 4:3
Режим частоты кадров                     : Постоянный
Частота кадров                           : 25,000 кадров/сек
Цветовое пространство                    : YUV
Субдискретизация насыщенности            : 4:2:0
Битовая глубина                          : 8 бит
Тип развёртки                            : Прогрессивная
Бит/(Пиксели*Кадры)                      : 0.163
Размер потока                            : 763 Мбайт (79%)
Заголовок                                : FomaTash for nnm-club.me
Библиотека кодирования                   : x264 core 146 r2538 121396c
Настройки программы                      : cabac=1 / ref=11 / deblock=1:-1:-1 / analyse=0x3:0x133 / me=umh / subme=11 / psy=1 / psy_rd=1.00:0.15 / mixed_ref=1 / me_range=48 / chroma_me=1 / trellis=2 / 8x8dct=1 / cqm=0 / deadzone=21,11 / fast_pskip=0 / chroma_qp_offset=-3 / threads=6 / lookahead_threads=1 / sliced_threads=0 / nr=0 / decimate=1 / interlaced=0 / bluray_compat=0 / constrained_intra=0 / bframes=16 / b_pyramid=2 / b_adapt=2 / b_bias=0 / direct=3 / weightb=1 / open_gop=0 / weightp=2 / keyint=250 / keyint_min=25 / scenecut=40 / intra_refresh=0 / rc_lookahead=40 / rc=2pass / mbtree=1 / bitrate=1684 / ratetol=1.0 / qcomp=0.60 / qpmin=10 / qpmax=51 / qpstep=4 / cplxblur=20.0 / qblur=0.5 / vbv_maxrate=50000 / vbv_bufsize=62500 / nal_hrd=none / filler=0 / ip_ratio=1.40 / aq=1:1.00
Язык                                     : Russian
Default                                  : Да
Forced                                   : Нет

Аудио
Идентификатор                            : 2
Формат                                   : AC-3
Формат/Информация                        : Audio Coding 3
Расширение режима                        : CM (complete main)
Параметр Endianness формата              : Big
Идентификатор кодека                     : A_AC3
Продолжительность                        : 1 ч. 3 м.
Вид битрейта                             : Постоянный
Битрейт                                  : 448 Кбит/сек
Каналы                                   : 6 каналов
Расположение каналов                     : Front: L C R, Side: L R, LFE
Частота                                  : 48,0 КГц
Частота кадров                           : 31,250 кадров/сек (1536 spf)
Метод сжатия                             : С потерями
Задержка видео                           : 322 мс.
Размер потока                            : 203 Мбайт (21%)
Заголовок                                : AC3-5+1
Язык                                     : Russian
Default                                  : Да
Forced                                   : Нет
Код:
Код:
Общее
Уникальный идентификатор                 : 205884559535171363337602822128975802540 (0x9AE3EC80185957D58A96B47776DCF0AC)
Полное имя                               : D:\00-Крах инженера Гарина\03-Крах инженера Гарина-КП-DVDRip-MG.mkv
Формат                                   : Matroska
Версия формата                           : Version 4 / Version 2
Размер файла                             : 976 Мбайт
Продолжительность                        : 1 ч. 3 м.
Общий поток                              : 2155 Кбит/сек
Дата кодирования                         : UTC 2015-12-08 15:51:15
Программа кодирования                    : mkvmerge v8.6.1 ('Flying') 64bit
Библиотека кодирования                   : libebml v1.3.3 + libmatroska v1.4.4

Видео
Идентификатор                            : 1
Формат                                   : AVC
Формат/Информация                        : Advanced Video Codec
Профиль формата                          :
Параметр CABAC формата                   : Да
Параметр ReFrames формата                : 12 кадров
Идентификатор кодека                     : V_MPEG4/ISO/AVC
Продолжительность                        : 1 ч. 3 м.
Битрейт                                  : 1705 Кбит/сек
Ширина                                   : 718 пикселей
Высота                                   : 576 пикселей
Соотношение сторон                       : 4:3
Режим частоты кадров                     : Постоянный
Частота кадров                           : 25,000 кадров/сек
Цветовое пространство                    : YUV
Субдискретизация насыщенности            : 4:2:0
Битовая глубина                          : 8 бит
Тип развёртки                            : Прогрессивная
Бит/(Пиксели*Кадры)                      : 0.165
Размер потока                            : 773 Мбайт (79%)
Заголовок                                : FomaTash for nnm-club.me
Библиотека кодирования                   : x264 core 146 r2538 121396c
Настройки программы                      : cabac=1 / ref=12 / deblock=1:-1:-1 / analyse=0x3:0x133 / me=umh / subme=11 / psy=1 / psy_rd=1.00:0.15 / mixed_ref=1 / me_range=48 / chroma_me=1 / trellis=2 / 8x8dct=1 / cqm=0 / deadzone=21,11 / fast_pskip=0 / chroma_qp_offset=-3 / threads=6 / lookahead_threads=1 / sliced_threads=0 / nr=0 / decimate=1 / interlaced=0 / bluray_compat=0 / constrained_intra=0 / bframes=13 / b_pyramid=2 / b_adapt=2 / b_bias=0 / direct=3 / weightb=1 / open_gop=0 / weightp=2 / keyint=250 / keyint_min=25 / scenecut=40 / intra_refresh=0 / rc_lookahead=40 / rc=2pass / mbtree=1 / bitrate=1705 / ratetol=1.0 / qcomp=0.60 / qpmin=10 / qpmax=51 / qpstep=4 / cplxblur=20.0 / qblur=0.5 / vbv_maxrate=50000 / vbv_bufsize=62500 / nal_hrd=none / filler=0 / ip_ratio=1.40 / aq=1:1.00
Язык                                     : Russian
Default                                  : Да
Forced                                   : Нет

Аудио
Идентификатор                            : 2
Формат                                   : AC-3
Формат/Информация                        : Audio Coding 3
Расширение режима                        : CM (complete main)
Параметр Endianness формата              : Big
Идентификатор кодека                     : A_AC3
Продолжительность                        : 1 ч. 3 м.
Вид битрейта                             : Постоянный
Битрейт                                  : 448 Кбит/сек
Каналы                                   : 6 каналов
Расположение каналов                     : Front: L C R, Side: L R, LFE
Частота                                  : 48,0 КГц
Частота кадров                           : 31,250 кадров/сек (1536 spf)
Метод сжатия                             : С потерями
Задержка видео                           : 312 мс.
Размер потока                            : 203 Мбайт (21%)
Заголовок                                : AC3-5+1
Язык                                     : Russian
Default                                  : Да
Forced                                   : Нет
Код:
Код:
Общее
Уникальный идентификатор                 : 172346154455971872520808052935653459752 (0x81A8A976A5E1889C86140D87F4760728)
Полное имя                               : D:\00-Крах инженера Гарина\04-Крах инженера Гарина-КП-DVDRip-MG.mkv
Формат                                   : Matroska
Версия формата                           : Version 4 / Version 2
Размер файла                             : 1009 Мбайт
Продолжительность                        : 1 ч. 2 м.
Общий поток                              : 2241 Кбит/сек
Дата кодирования                         : UTC 2015-12-08 20:26:20
Программа кодирования                    : mkvmerge v8.6.1 ('Flying') 64bit
Библиотека кодирования                   : libebml v1.3.3 + libmatroska v1.4.4

Видео
Идентификатор                            : 1
Формат                                   : AVC
Формат/Информация                        : Advanced Video Codec
Профиль формата                          :
Параметр CABAC формата                   : Да
Параметр ReFrames формата                : 14 кадров
Идентификатор кодека                     : V_MPEG4/ISO/AVC
Продолжительность                        : 1 ч. 2 м.
Битрейт                                  : 1791 Кбит/сек
Ширина                                   : 718 пикселей
Высота                                   : 576 пикселей
Соотношение сторон                       : 4:3
Режим частоты кадров                     : Постоянный
Частота кадров                           : 25,000 кадров/сек
Цветовое пространство                    : YUV
Субдискретизация насыщенности            : 4:2:0
Битовая глубина                          : 8 бит
Тип развёртки                            : Прогрессивная
Бит/(Пиксели*Кадры)                      : 0.173
Размер потока                            : 806 Мбайт (80%)
Заголовок                                : FomaTash for nnm-club.me
Библиотека кодирования                   : x264 core 146 r2538 121396c
Настройки программы                      : cabac=1 / ref=14 / deblock=1:-1:-1 / analyse=0x3:0x133 / me=umh / subme=11 / psy=1 / psy_rd=1.00:0.15 / mixed_ref=1 / me_range=48 / chroma_me=1 / trellis=2 / 8x8dct=1 / cqm=0 / deadzone=21,11 / fast_pskip=0 / chroma_qp_offset=-3 / threads=6 / lookahead_threads=1 / sliced_threads=0 / nr=0 / decimate=1 / interlaced=0 / bluray_compat=0 / constrained_intra=0 / bframes=8 / b_pyramid=2 / b_adapt=2 / b_bias=0 / direct=3 / weightb=1 / open_gop=0 / weightp=2 / keyint=250 / keyint_min=25 / scenecut=40 / intra_refresh=0 / rc_lookahead=40 / rc=2pass / mbtree=1 / bitrate=1791 / ratetol=1.0 / qcomp=0.60 / qpmin=10 / qpmax=51 / qpstep=4 / cplxblur=20.0 / qblur=0.5 / vbv_maxrate=50000 / vbv_bufsize=62500 / nal_hrd=none / filler=0 / ip_ratio=1.40 / aq=1:1.00
Язык                                     : Russian
Default                                  : Да
Forced                                   : Нет

Аудио
Идентификатор                            : 2
Формат                                   : AC-3
Формат/Информация                        : Audio Coding 3
Расширение режима                        : CM (complete main)
Параметр Endianness формата              : Big
Идентификатор кодека                     : A_AC3
Продолжительность                        : 1 ч. 2 м.
Вид битрейта                             : Постоянный
Битрейт                                  : 448 Кбит/сек
Каналы                                   : 6 каналов
Расположение каналов                     : Front: L C R, Side: L R, LFE
Частота                                  : 48,0 КГц
Частота кадров                           : 31,250 кадров/сек (1536 spf)
Метод сжатия                             : С потерями
Задержка видео                           : 289 мс.
Размер потока                            : 201 Мбайт (20%)
Заголовок                                : AC3-5+1
Язык                                     : Russian
Default                                  : Да
Forced                                   : Нет
1-ая серия:

2-ая серия:
3-ья серия:
4-ая серия:

Скриншоты:




Время раздачи: с 23:00 до 5:00 по Москве
загрузка...
Правила, инструкции, FAQ!!!
Торрент  Добавлен [12 дек 2015, 22:07] Скачать торрент Магнет ссылка
Скачать торрент
[ Размер 22.5 КБ / Просмотров 81 ]

Статус
Проверен 
 
Размер  4.15 ГБ
Приватный: Нет (DHT включён)
.torrent скачан  8
Как залить торрент? | Как скачать Torrent? | Ошибка в торренте? Качайте магнет  


     Отправить личное сообщение
   
Страница 1 из 1
Показать сообщения за:  Поле сортировки  
Начать новую тему Ответить на тему

   Похожие торренты   Автор   Ответы   Просмотры   Последнее сообщение 
В этой теме нет новых непрочитанных сообщений. Скачать торрент Проверен Гиперболоид инженера Гарина (1965) DVDRip [H.264]

в форуме Фантастика, Фэнтези, Размер: 1.98 ГБ, Здоровье: 100%

Anonymous

0
191|18

319
4

19 окт 2014, 23:09

Anonymous Перейти к последнему сообщению

В этой теме нет новых непрочитанных сообщений. Скачать торрент Алексей Толстой | Гиперболоид инженера Гарина [1936] [DJVU]

в форуме Фантастика, фэнтези, Размер: 5.89 МБ, Здоровье: 100%

Anonymous

0
59|11

93
4

09 янв 2014, 22:52

Anonymous Перейти к последнему сообщению

В этой теме нет новых непрочитанных сообщений. Скачать торрент Проверен Мир приключений - Толстой А.Н. - Гиперболоид инженера Гарина [1988, PDF/DjVu, RUS]

в форуме Русская литература, Размер: 25.82 МБ, Здоровье: 100%

Anonymous

0
2135|753

69
170

07 сен 2016, 23:45

Anonymous Перейти к последнему сообщению

В этой теме нет новых непрочитанных сообщений. Скачать торрент Проверен Толстой Алексей - Гиперболоид инженера Гарина [Дмитрий Савин, 2009 г., 128 kbps, MP3]

в форуме Российская фантастика, фэнтези, мистика, ужасы, фанфики, Размер: 672.5 МБ, Здоровье: 100%

Anonymous

0
3|1

88
0

10 сен 2016, 19:44

Anonymous Перейти к последнему сообщению

В этой теме нет новых непрочитанных сообщений. Скачать торрент Проверен Толстой Алексей Николаевич - Гиперболоид инженера Гарина [Сергей Ефремов, 2011 г., 192 kbps, MP3]

в форуме Российская фантастика, фэнтези, мистика, ужасы, фанфики, Размер: 1.06 ГБ, Здоровье: 0%

Anonymous

0
0|0

47
0

10 сен 2016, 21:18

Anonymous Перейти к последнему сообщению



Сейчас этот форум просматривают: нет зарегистрированных пользователей и гости: 0


Вы не можете начинать темы
Вы не можете отвечать на сообщения
Вы не можете редактировать свои сообщения
Вы не можете удалять свои сообщения
Вы не можете добавлять вложения

Перейти:  
Ресурс не предоставляет электронные версии произведений, а занимается лишь коллекционированием и каталогизацией ссылок, присылаемых и публикуемых на форуме нашими читателями. Если вы являетесь правообладателем какого-либо представленного материала и не желаете чтобы ссылка на него находилась в нашем каталоге, свяжитесь с нами и мы незамедлительно удалим её. Файлы для обмена на трекере предоставлены пользователями сайта, и администрация не несёт ответственности за их содержание. Просьба не заливать файлы, защищенные авторскими правами, а также файлы нелегального содержания!
cron