На всех торрентах на трекере установлена скидка на скачивание в размере 100 процентов(а).
 Возможность скачивания торрента НЕ зависит от ограничений при низком ратио, низком аплоаде, требуемом ратио или требуемом аплоаде.


Начать новую тему Ответить на тему
Статистика раздачи
Размер: 6.06 ГБ | Добавлен: 17 май 2014, 06:14 | Скачали: 1
Сидеров: 0  [0 байт/сек]    Личеров: 0  [0 байт/сек]
Пред. тема | След. тема 

Автор
Сообщение

СообщениеДобавлено: 17 май 2014, 06:14 

Ответить с цитатой 

Кот Гром и заколдованный дом / The House of Magic (2013) BDRip [1080p]

Год выпуска: 2013
Жанр: Приключения, Семейный
Производство: США, Бельгия / Anton Capital Entertainment (ACE), nWave Pictures, Studio Canal International, uMedia Family

Описание:
Любопытный рыжий кот попадает в дом старого фокусника и узнает секрет его трюков. Так начинается его знакомство с учеными зверями и живыми игрушками, а также невероятные приключения полные юмора и опасностей.

Режиссер: Джереми Дегрусон, Бен Стассен
Продюсер: Надя Хамличи, Адриан Политовски, Бен Стассен
Роли дублировали: Александр Якин, Людмила Артемьева, Михаил Башкатов, Роман Юнусов, Федор Добронравов.



Возраст: 0+

Дата мировой премьеры: 24 декабря 2013
Дата российской премьеры: 8 мая 2014, «Вольга»
Дата выхода DVD релиза: 10 июня 2014, «Вольга»

Продолжительность: 01:25:28
Качество видео: BDRip
Перевод: Дублированный (Чистый звук)
Субтитры: Отсутствуют

Видеокодек: MPEG-4 AVC/H.264
Битрейт видео: 8457 kb/s
Размер кадра: 1920x1080
Аудио #1: 48 kHz, AC3, 2/0 (L,R) ch, ~192 kbps avg (Русский) / Дубляж, Чистый
Аудио #2: 48 kHz, DTS, 3/2 (L,C,R,l,r) + LFE ch, ~1509 kbps avg (Английский) / Оригинал
Код:
Код:
Общее
Уникальный идентификатор                 : 190464893537684287666976800607442481152 (0x8F4A3445436CE42FB4A2EFFE4A86B000)
Полное имя                               : D:\Раздачи\Kot.Grom.i.Zakoldovannyy.dom.2013.BDRip.1080p.NNM-CLUB.mkv
Формат                                   : Matroska
Версия формата                           : Version 2
Размер файла                             : 6,06 Гбайт
Продолжительность                        : 1 ч. 25 м.
Общий поток                              : 10,1 Мбит/сек
Название фильма                          : Kot.Grom.i.Zakoldovannyy.dom.2013.BDRip.1080p.NNM-CLUB
Дата кодирования                         : UTC 2014-05-16 20:05:55
Программа кодирования                    : mkvmerge v4.9.1 ('Ich will') сборка от Jul 11 2011 23:53:15
Библиотека кодирования                   : libebml v1.2.1 + libmatroska v1.1.1

Видео
Идентификатор                            : 1
Формат                                   : AVC
Формат/Информация                        : Advanced Video Codec
Профиль формата                          :
Параметр CABAC формата                   : Да
Параметр ReFrames формата                : 4 кадра
Идентификатор кодека                     : V_MPEG4/ISO/AVC
Продолжительность                        : 1 ч. 25 м.
Битрейт                                  : 8457 Кбит/сек
Ширина                                   : 1920 пикселей
Высота                                   : 1080 пикселей
Соотношение сторон                       : 16:9
Режим частоты кадров                     : Постоянный
Частота кадров                           : 24,000 кадра/сек
Цветовое пространство                    : YUV
Субдискретизация насыщенности            : 4:2:0
Битовая глубина                          : 8 бит
Тип развёртки                            : Прогрессивная
Бит/(Пиксели*Кадры)                      : 0.170
Размер потока                            : 4,92 Гбайт (81%)
Библиотека кодирования                   : x264 core 138 r2358 9e941d1
Настройки программы                      : cabac=1 / ref=4 / deblock=1:0:0 / analyse=0x3:0x133 / me=umh / subme=11 / psy=1 / psy_rd=1.00:0.15 / mixed_ref=1 / me_range=32 / chroma_me=1 / trellis=2 / 8x8dct=1 / cqm=0 / deadzone=21,11 / fast_pskip=0 / chroma_qp_offset=-3 / threads=12 / lookahead_threads=1 / sliced_threads=0 / nr=0 / decimate=1 / interlaced=0 / bluray_compat=0 / constrained_intra=0 / bframes=3 / b_pyramid=2 / b_adapt=2 / b_bias=0 / direct=3 / weightb=1 / open_gop=0 / weightp=2 / keyint=240 / keyint_min=24 / scenecut=40 / intra_refresh=0 / rc=2pass / mbtree=0 / bitrate=8457 / ratetol=2.0 / qcomp=0.60 / qpmin=10 / qpmax=51 / qpstep=4 / cplxblur=20.0 / qblur=0.5 / ip_ratio=1.40 / pb_ratio=1.00 / aq=1:1.00
Язык                                     : English
Default                                  : Нет
Forced                                   : Нет

Аудио #1
Идентификатор                            : 2
Формат                                   : AC-3
Формат/Информация                        : Audio Coding 3
Расширение режима                        : CM (complete main)
Параметр Endianness формата              : Big
Идентификатор кодека                     : A_AC3
Продолжительность                        : 1 ч. 25 м.
Вид битрейта                             : Постоянный
Битрейт                                  : 192 Кбит/сек
Каналы                                   : 2 канала
Расположение каналов                     : Front: L R
Частота                                  : 48,0 КГц
Битовая глубина                          : 16 бит
Метод сжатия                             : С потерями
Размер потока                            : 117 Мбайт (2%)
Язык                                     : Russian
Default                                  : Да
Forced                                   : Нет

Аудио #2
Идентификатор                            : 3
Формат                                   : DTS
Формат/Информация                        : Digital Theater Systems
Режим                                    : 16
Параметр Endianness формата              : Big
Идентификатор кодека                     : A_DTS
Продолжительность                        : 1 ч. 25 м.
Вид битрейта                             : Постоянный
Битрейт                                  : 1509 Кбит/сек
Каналы                                   : 6 каналов
Расположение каналов                     : Front: L C R, Side: L R, LFE
Частота                                  : 48,0 КГц
Битовая глубина                          : 24 бит
Метод сжатия                             : С потерями
Задержка видео                           : 1 мс.
Размер потока                            : 923 Мбайт (15%)
Язык                                     : English
Default                                  : Нет
Forced                                   : Нет
Скриншоты:
загрузка...
Правила, инструкции, FAQ!!!
Торрент  Добавлен [17 май 2014, 06:14] Скачать торрент Магнет ссылка
Скачать торрент
[ Размер 31.07 КБ / Просмотров 18 ]

Статус  
 
Размер  6.06 ГБ
Приватный: Нет (DHT включён)
.torrent скачан  1
Как залить торрент? | Как скачать Torrent? | Ошибка в торренте? Качайте магнет  


     Отправить личное сообщение
   
Страница 1 из 1
Показать сообщения за:  Поле сортировки  
Начать новую тему Ответить на тему

   Похожие торренты   Автор   Ответы   Просмотры   Последнее сообщение 
В этой теме нет новых непрочитанных сообщений. Скачать торрент Кот Гром и заколдованный дом / The House of Magic (2013) BDRip [720p] [Line]

в форуме Зарубежные мультфильмы (HD Video), Размер: 3.64 ГБ, Здоровье: 0%

Anonymous

0
0|0

97
1

17 май 2014, 06:18

Anonymous Перейти к последнему сообщению

В этой теме нет новых непрочитанных сообщений. Скачать торрент Кот Гром и заколдованный дом / The House of Magic (2013) HDRip [Line]

в форуме Зарубежные мультфильмы, Размер: 1.37 ГБ, Здоровье: 0%

Anonymous

0
0|0

76
1

16 май 2014, 22:32

Anonymous Перейти к последнему сообщению

В этой теме нет новых непрочитанных сообщений. Скачать торрент Проверен Кот Гром и заколдованный дом в 3Д / The House of Magic 3D (Джереми Дегрусон, Бен Стассен / Jeremy Degruson, Ben Stassen) [2013, Мультфильм, BDremux, 1080p] BD3D [Re-Encode - Left foreshortening first]

в форуме 3D Мультфильмы, Размер: 14.54 ГБ, Здоровье: ???%

Anonymous

0
0|1

37
0

07 сен 2016, 17:59

Anonymous Перейти к последнему сообщению

В этой теме нет новых непрочитанных сообщений. Скачать торрент Кот Гром и заколдованный дом / The House of Magic (2013) HDRip-720p | Трейлер

в форуме Трейлеры и доп.материалы, Размер: 72.84 МБ, Здоровье: 100%

Anonymous

0
1|0

388
1

25 янв 2014, 23:20

Anonymous Перейти к последнему сообщению

В этой теме нет новых непрочитанных сообщений. Скачать торрент Зажигание / Combustion (2013) BDRip [1080p] [Line]

в форуме 720p | 1080p, Размер: 9.26 ГБ, Здоровье: 0%

Anonymous

0
0|0

151
0

31 авг 2013, 21:05

Anonymous Перейти к последнему сообщению



Сейчас этот форум просматривают: нет зарегистрированных пользователей и гости: 0


Вы не можете начинать темы
Вы не можете отвечать на сообщения
Вы не можете редактировать свои сообщения
Вы не можете удалять свои сообщения
Вы не можете добавлять вложения

Перейти:  
Ресурс не предоставляет электронные версии произведений, а занимается лишь коллекционированием и каталогизацией ссылок, присылаемых и публикуемых на форуме нашими читателями. Если вы являетесь правообладателем какого-либо представленного материала и не желаете чтобы ссылка на него находилась в нашем каталоге, свяжитесь с нами и мы незамедлительно удалим её. Файлы для обмена на трекере предоставлены пользователями сайта, и администрация не несёт ответственности за их содержание. Просьба не заливать файлы, защищенные авторскими правами, а также файлы нелегального содержания!
cron