На всех торрентах на трекере установлена скидка на скачивание в размере 100 процентов(а).
 Возможность скачивания торрента НЕ зависит от ограничений при низком ратио, низком аплоаде, требуемом ратио или требуемом аплоаде.


Начать новую тему Ответить на тему
Статистика раздачи
Размер: 6.85 ГБ | Добавлен: 18 июл 2014, 16:25 | Скачали: 86
Сидеров: 3  [0 байт/сек]    Личеров: 1  [0 байт/сек]
Пред. тема | След. тема 

Автор
Сообщение

СообщениеДобавлено: 18 июл 2014, 16:25 

Ответить с цитатой 

Название: Кошачий глаз
Оригинальное название: Cat's Eye
Год выхода: 1985
Жанр: ужасы, триллер
Режиссер: Льюис Тиг

В ролях: Дрю Бэрримор, Джеймс Вудс, Алан Кинг, Кеннет МакМиллан, Роберт Хэйс, Кэнди Кларк, Джеймс Нафтон, Тони Мунафо, Корт Миллер, Расселл Хортон

О фильме:
Фильм объединяет в себе три новеллы — две из них из сборника «Ночная смена»: «Корпорация «Бросайте курить» и «Карниз». Третья — объединяющая новелла «Генерал» написана специально для фильма. Главным связующим звеном фильма является бездомный кот, пытающийся спасти маленькую девочку от неизвестной опасности.



Страна: США
Продолжительность: 01:34:37
Перевод: Профессиональный (двухголосый закадровый)


Кодек: H264
Качество: BDRip 1080p
Видео: MPEG-4 AVC, 9730 Кбит/с, 1920x824
Звук: Русский (АС3, 6 ch, 448 Кбит/с), английский (AC3, 2 ch, 192 Кбит/с)
Субтитры: Отсутствуют

Семпл

Общее
Уникальный идентификатор : 218296429655108956933988416625039824188 (0xA43A5CF1AAFBF15E8076542E328AD53C)
Полное имя : E:КиноКошачий глаз - Cat's Eye.mkv
Формат : Matroska
Версия формата : Version 4 / Version 2
Размер файла : 6,85 Гбайт
Продолжительность : 1 ч. 34 м.
Общий поток : 10,4 Мбит/сек
Дата кодирования : UTC 2014-07-15 12:47:49
Программа кодирования : mkvmerge v6.3.0 ('You can't stop me!') built on Jun 28 2013 20:09:41
Библиотека кодирования : libebml v1.3.0 + libmatroska v1.4.0

Видео
Идентификатор : 1
Формат : AVC
Формат/Информация : Advanced Video Codec
Профиль формата : High@L4.1
Параметр CABAC формата : Да
Параметр ReFrames формата : 5 кадров
Идентификатор кодека : V_MPEG4/ISO/AVC
Продолжительность : 1 ч. 34 м.
Битрейт : 9730 Кбит/сек
Ширина : 1920 пикселей
Высота : 824 пикселя
Соотношение сторон : 2,35:1
Режим частоты кадров : Постоянный
Частота кадров : 23,976 кадра/сек
Цветовое пространство : YUV
Субдискретизация насыщенности : 4:2:0
Битовая глубина : 8 бит
Тип развёртки : Прогрессивная
Бит/(Пиксели*Кадры) : 0.257
Размер потока : 6,29 Гбайт (92%)
Библиотека кодирования : x264 core 142 r2431 ac76440
Настройки программы : cabac=1 / ref=5 / deblock=1:-3:-3 / analyse=0x3:0x113 / me=umh / subme=8 / psy=1 / psy_rd=1.00:0.00 / mixed_ref=1 / me_range=16 / chroma_me=1 / trellis=1 / 8x8dct=1 / cqm=0 / deadzone=21,11 / fast_pskip=1 / chroma_qp_offset=-2 / threads=18 / lookahead_threads=3 / sliced_threads=0 / nr=0 / decimate=1 / interlaced=0 / bluray_compat=0 / constrained_intra=0 / bframes=3 / b_pyramid=2 / b_adapt=2 / b_bias=0 / direct=3 / weightb=1 / open_gop=0 / weightp=2 / keyint=240 / keyint_min=24 / scenecut=40 / intra_refresh=0 / rc_lookahead=50 / rc=2pass / mbtree=1 / bitrate=9730 / ratetol=1.0 / qcomp=0.60 / qpmin=0 / qpmax=69 / qpstep=4 / cplxblur=20.0 / qblur=0.5 / ip_ratio=1.40 / aq=1:1.00
Язык : English
Default : Да
Forced : Нет

Аудио #1
Идентификатор : 2
Формат : AC-3
Формат/Информация : Audio Coding 3
Расширение режима : CM (complete main)
Параметр Endianness формата : Big
Идентификатор кодека : A_AC3
Продолжительность : 1 ч. 34 м.
Вид битрейта : Постоянный
Битрейт : 448 Кбит/сек
Каналы : 6 каналов
Расположение каналов : Front: L C R, Side: L R, LFE
Частота : 48,0 КГц
Битовая глубина : 16 бит
Метод сжатия : С потерями
Размер потока : 303 Мбайт (4%)
Язык : Russian
Default : Нет
Forced : Нет

Аудио #2
Идентификатор : 3
Формат : AC-3
Формат/Информация : Audio Coding 3
Расширение режима : CM (complete main)
Параметр Endianness формата : Big
Идентификатор кодека : A_AC3
Продолжительность : 1 ч. 34 м.
Вид битрейта : Постоянный
Битрейт : 192 Кбит/сек
Каналы : 2 канала
Расположение каналов : Front: L R
Частота : 48,0 КГц
Битовая глубина : 16 бит
Метод сжатия : С потерями
Размер потока : 130 Мбайт (2%)
Язык : English
Default : Да
Forced : Нет

Меню
00:00:00.000 : en:00:00:00.000
00:00:00.375 : en:00:00:00.375
00:15:17.917 : en:00:15:17.917
00:27:08.418 : en:00:27:08.418
00:39:09.013 : en:00:39:09.013
00:51:53.444 : en:00:51:53.444
01:04:28.531 : en:01:04:28.531
01:16:59.281 : en:01:16:59.281
01:27:33.248 : en:01:27:33.248
загрузка...
Правила, инструкции, FAQ!!!
Торрент  Добавлен [18 июл 2014, 16:25] Скачать торрент Магнет ссылка
Скачать торрент
[ Размер 17.76 КБ / Просмотров 9 ]

Статус
Проверен 
 
Размер  6.85 ГБ
Приватный: Нет (DHT включён)
.torrent скачан  86
Как залить торрент? | Как скачать Torrent? | Как смотреть и слушать онлайн?  


     Отправить личное сообщение
   
Страница 1 из 1
Показать сообщения за:  Поле сортировки  
Начать новую тему Ответить на тему

   Похожие торренты   Автор   Ответы   Просмотры   Последнее сообщение 
В этой теме нет новых непрочитанных сообщений. Скачать торрент Проверен День мертвецов / Day of the Dead (1985) BDRip 1080p | P

в форуме 720p | 1080p, Размер: 7.75 ГБ, Здоровье: 100%

Гость

0
66|60

82
53

08 июл 2015, 20:14

Гость Перейти к последнему сообщению

В этой теме нет новых непрочитанных сообщений. Скачать торрент Проверен Частный курорт / Private Resort (1985) BDRip 1080p | P, A

в форуме 720p | 1080p, Размер: 11.06 ГБ, Здоровье: 41%

Anonymous

0
14|34

280
13

24 июл 2016, 17:28

Anonymous Перейти к последнему сообщению

В этой теме нет новых непрочитанных сообщений. Скачать торрент Проверен Жемчужина Нила / The Jewel Of The Nile (1985) BDRip 1080p | P, P2, A

в форуме 720p | 1080p, Размер: 12.82 ГБ, Здоровье: 100%

Гость

0
10|3

57
75

08 янв 2015, 00:50

Гость Перейти к последнему сообщению

В этой теме нет новых непрочитанных сообщений. Скачать торрент Проверен Синдбад и Глаз Тигра / Sindbad and the Eye of the Tiger (1977) BDRip [H.264]

в форуме Фантастика, Фэнтези, Размер: 2.92 ГБ, Здоровье: 100%

Гость

0
126|30

132
0

15 фев 2017, 22:47

Гость Перейти к последнему сообщению

В этой теме нет новых непрочитанных сообщений. Скачать торрент Проверен Bon Jovi - When We Were Beautiful (Bonus) BDrip 1080p [2009, Rock, Documentary, BDRip]

в форуме Концерты (HD-Video), Размер: 4.09 ГБ, Здоровье: 100%

Anonymous

0
2|1

4
1

23 окт 2016, 14:23

Anonymous Перейти к последнему сообщению



Сейчас этот форум просматривают: нет зарегистрированных пользователей и гости: 1


Вы не можете начинать темы
Вы не можете отвечать на сообщения
Вы не можете редактировать свои сообщения
Вы не можете удалять свои сообщения
Вы не можете добавлять вложения


!ВНИМАНИЕ!
 Ресурс не предоставляет электронные версии произведений, а занимается лишь коллекционированием и каталогизацией ссылок, присылаемых и публикуемых на форуме нашими читателями. Если вы являетесь правообладателем какого-либо представленного материала и не желаете чтобы ссылка на него находилась в нашем каталоге, свяжитесь с нами и мы незамедлительно удалим её. Файлы для обмена на трекере предоставлены пользователями сайта, и администрация не несёт ответственности за их содержание. Просьба не заливать файлы, защищенные авторскими правами, а также файлы нелегального содержания!