На всех торрентах на трекере установлена скидка на скачивание в размере 100 процентов(а).
 Возможность скачивания торрента НЕ зависит от ограничений при низком ратио, низком аплоаде, требуемом ратио или требуемом аплоаде.


Начать новую тему Ответить на тему
Статистика раздачи
Размер: 5.47 ГБ | Добавлен: 21 фев 2016, 16:21 | Скачали: 5
Сидеров: 31  [0 байт/сек]    Личеров: 3  [0 байт/сек]
Пред. тема | След. тема 

Автор
Сообщение

СообщениеДобавлено: 21 фев 2016, 16:21 

Ответить с цитатой 

Производство: СССР, Киностудия им. М.Горького
Жанр: Сказка, Семейный, Фэнтези

Режиссер: Александр Роу
Актеры: Ольга Юкина, Татьяна Юкина, Татьяна Барышева, Анатолий Кубацкий, Андрей Файт, Лидия Вертинская, Аркадий Цинман, Андрей Стапран, Иван Кузнецов, Георгий Милляр

Описание:
Однажды школьница Оля взглянула в самое обычное зеркало, которое висело дома в прихожей, и неожиданно отправилась путешествовать в волшебную зазеркальную страну вместе со своим отражением - озорной девочкой Яло.
Королевство Кривых Зеркал — сказочное королевство зазеркалья. Имена жителей королевства обычно — зеркальные отражения имён нарицательных. Основная политика Королевства — изготовление кривых зеркал, в которых уродливые кажутся красивыми, молодые — старыми и так далее. Довольные такой политикой граждане (злые, лживые и т. п.) предпочитают верить зеркалам, а не своим глазам. Единственное прямое зеркало в Королевстве есть только у короля. Недовольные такой политикой — слуги, рабы, беднота — мечтают о смене политического строя. Один юный зеркальщик, Гурд, отказался делать кривые зеркала, за что его приговорили к казни и заточили в Башню Смерти...





Продолжительность: 01:14:58
Качество видео: BDRip 1080p

Видео: AVC/H.264, 1920x1080 (16:9), ~9 786 Kbps, 25 fps
Аудио: AC3, 6 ch, 448 kbps, 48 kHz, VBR
Код:
Код:
General
Unique ID                                : 42667679403385220795924488285283152793 (0x20197F032A5463ABF08C8C64C15BF399)
Complete name                            : G:\Download_G\Korolevstvo_krivih_zerkal_1080p.mkv
Format                                   : Matroska
Format version                           : Version 2
File size                                : 5.47 GiB
Duration                                 : 1h 14mn
Overall bit rate                         : 10.4 Mbps
Writing application                      : Lavf55.7.100
Writing library                          : Lavf55.7.100
LABEL                                    : Chapter 1
TCHAPTER                                 : 91776928
Language                                 : eng

Video
ID                                       : 1
Format                                   : AVC
Format/Info                              : Advanced Video Codec
Format profile                           : High@L4
Format settings, CABAC                   : Yes
Format settings, ReFrames                : 3 frames
Codec ID                                 : V_MPEG4/ISO/AVC
Duration                                 : 1h 14mn
Bit rate                                 : 9 786 Kbps
Width                                    : 1 920 pixels
Height                                   : 1 080 pixels
Display aspect ratio                     : 16:9
Frame rate mode                          : Constant
Frame rate                               : 25.000 fps
Standard                                 : PAL
Color space                              : YUV
Chroma subsampling                       : 4:2:0
Bit depth                                : 8 bits
Scan type                                : Progressive
Bits/(Pixel*Frame)                       : 0.189
Stream size                              : 5.13 GiB (94%)
Title                                    : Main video
Language                                 : English
Default                                  : Yes
Forced                                   : No
Encoded date                             : UTC 2016-02-18 21:59:02
Color range                              : Limited
Color primaries                          : BT.709
Transfer characteristics                 : BT.709
Matrix coefficients                      : BT.709
HANDLER_NAME                             : Mainconcept MP4 Video Media Handler
PART_NUMBER                              : 0

Audio
ID                                       : 2
Format                                   : AC-3
Format/Info                              : Audio Coding 3
Mode extension                           : CM (complete main)
Format settings, Endianness              : Big
Codec ID                                 : A_AC3
Duration                                 : 1h 14mn
Bit rate mode                            : Constant
Bit rate                                 : 448 Kbps
Channel(s)                               : 6 channels
Channel positions                        : Front: L C R, Side: L R, LFE
Sampling rate                            : 48.0 KHz
Bit depth                                : 32 bits
Compression mode                         : Lossy
Delay relative to video                  : 24ms
Stream size                              : 240 MiB (4%)
Title                                    : Russian
Language                                 : Russian
Default                                  : No
Forced                                   : No
PART_NUMBER                              : 1

Menu
00:00:00.000                             : :Chapter 1
Исполнительницы главных ролей Оля и Таня Юкины попали в этот фильм случайно. За лето съемок они получили 80 рублей, бесплатный проезд из Москвы до Крыма и обратно, бесплатное питание.

Скриншоты:


[spoiler="Дополнительные скриншоты:"][center]
загрузка...
Правила, инструкции, FAQ!!!
Торрент  Добавлен [21 фев 2016, 16:21] Скачать торрент Магнет ссылка
Скачать торрент
[ Размер 14.39 КБ / Просмотров 30 ]

Статус
Проверен 
 
Размер  5.47 ГБ
Приватный: Нет (DHT включён)
.torrent скачан  5
Как залить торрент? | Как скачать Torrent? | Как смотреть и слушать онлайн?  


     Отправить личное сообщение
   
Страница 1 из 1
Показать сообщения за:  Поле сортировки  
Начать новую тему Ответить на тему

   Похожие торренты   Автор   Ответы   Просмотры   Последнее сообщение 
В этой теме нет новых непрочитанных сообщений. Скачать торрент Проверен Королевство кривых зеркал (Александр Роу) [1963, сказка, BDRip]

в форуме Детское, Семейное кино, Размер: 1.45 ГБ, Здоровье: 100%

Anonymous

0
59|19

45
1

10 апр 2016, 20:22

Anonymous Перейти к последнему сообщению

В этой теме нет новых непрочитанных сообщений. Скачать торрент Проверен Королевство кривых зеркал (Александр Роу) [1963, СССР, фэнтези, семейный, Blu-ray disc 1080i]

в форуме Наше кино (HD Video), Размер: 15.5 ГБ, Здоровье: 100%

Anonymous

0
28|10

109
0

12 апр 2015, 15:07

Anonymous Перейти к последнему сообщению

В этой теме нет новых непрочитанных сообщений. Скачать торрент Проверен (sXe Hardcore, RAC) Ящик Пандоры - Королевство Кривых Зеркал - 2009, MP3 (tracks), 320 kbps

в форуме Русский Рок, Размер: 41.51 МБ, Здоровье: 0%

Anonymous

0
0|0

22
0

22 авг 2016, 11:05

Anonymous Перейти к последнему сообщению

В этой теме нет новых непрочитанных сообщений. Скачать торрент Проверен КняZz - Тайна Кривых Зеркал (2012) [FLAC|lossless] <Punk Rock>

в форуме Русский рок, Размер: 505.16 МБ, Здоровье: 36%

Anonymous

0
4|11

93
0

11 авг 2014, 09:19

Anonymous Перейти к последнему сообщению

В этой теме нет новых непрочитанных сообщений. Скачать торрент Проверен Пикник - Королевство кривых (2005) /2013, Bomba Music/ [WavPack 2.0 24/192|image (Vinyl-Rip)]<Рок>

в форуме Vinyl-Rip и Hand-Made, Размер: 1.79 ГБ, Здоровье: 100%

Anonymous

0
39|10

193
8

07 фев 2015, 23:57

Anonymous Перейти к последнему сообщению



Сейчас этот форум просматривают: нет зарегистрированных пользователей и гости: 0


Вы не можете начинать темы
Вы не можете отвечать на сообщения
Вы не можете редактировать свои сообщения
Вы не можете удалять свои сообщения
Вы не можете добавлять вложения

Перейти:  

!ВНИМАНИЕ!
 Ресурс не предоставляет электронные версии произведений, а занимается лишь коллекционированием и каталогизацией ссылок, присылаемых и публикуемых на форуме нашими читателями. Если вы являетесь правообладателем какого-либо представленного материала и не желаете чтобы ссылка на него находилась в нашем каталоге, свяжитесь с нами и мы незамедлительно удалим её. Файлы для обмена на трекере предоставлены пользователями сайта, и администрация не несёт ответственности за их содержание. Просьба не заливать файлы, защищенные авторскими правами, а также файлы нелегального содержания!