На всех торрентах на трекере установлена скидка на скачивание в размере 100 процентов(а).
 Возможность скачивания торрента НЕ зависит от ограничений при низком ратио, низком аплоаде, требуемом ратио или требуемом аплоаде.


Начать новую тему Ответить на тему
Статистика раздачи
Размер: 7.86 ГБ | Добавлен: 08 апр 2018, 09:14 | Скачали: 0
Сидеров: 1  [0 байт/сек]    Личеров: 0  [0 байт/сек]
Пред. тема | След. тема 

Автор
Сообщение

СообщениеДобавлено: 08 апр 2018, 09:14 

Ответить с цитатой 

Король Ральф

King Ralph

«A great tragedy has befallen the royal family leaving only one heir to the throne...»



Страна: США
Жанр: мелодрама, комедия
Год выпуска: 1991
Продолжительность: 01:36:19
Перевод: Профессиональный (многоголосый, закадровый), Авторский
Субтитры: русские, английские.


Режиссер: Дэвид С. Уорд / David S. Ward


В ролях: Джон Гудмен, Питер О`Тул, Джон Хёрт, Камилла Кодури, Ричард Гриффитс, Лесли Филлипс, Джеймс Виллерс, Джоэли Ричардсон, Ниал О`Брайэн, Джулиан Гловер


Описание: К ужасу всей Великобритании, выясняется, что единственный наследник опустевшего престола - жирный любитель гамбургеров из Америки по фамилии Ральф, который совершенно не представляет, что это такое - быть настоящим королем.











Качество: BDRip 720p
Контейнер: MKV

Видео: MPEG-4 AVC, 1280x694 (1.85:1), 8690 kbps, 23,976 fps, 0,408 bpp
Аудио №01: русский / AC3 / 5.1 / 48 kHz / 384 kbps / MVO
Аудио №02: русский / AC3 / 2.0 / 48 kHz / 192 kbps / MVO (CTC )
Аудио №03: русский / AC3 / 2.0 / 48 kHz / 192 kbps / MVO ( Селена Интернешнл )
Аудио №04: русский / AC3 / 2.0 / 48 kHz / 192 kbps / MVO ( SDI Media )
Аудио №05: русский / AC3 / 5.1 / 48 kHz / 384 kbps / AVO ( Михалев )
Аудио №06: русский / AC3 / 2.0 / 48 kHz / 192 kbps / AVO ( Живов )
Аудио №07: русский / AC3 / 2.0 / 48 kHz / 192 kbps / AVO ( Визгунов с дамой )
Аудио №08: русский / AC3 / 2.0 / 48 kHz / 192 kbps / AVO ( Иванов )
Аудио №09: русский / AC3 / 2.0 / 48 kHz / 192 kbps / AVO ( Дольский )
Аудио №10: английский / AC3 / 5.1 / 48 kHz / 640 kbps
Навигация по главам: есть


*************************************************************
x264 [info]: frame I:1111 Avg QP:18.23 size:132334
x264 [info]: frame P:24324 Avg QP:19.41 size: 73133
x264 [info]: frame B:113139 Avg QP:21.37 size: 39926
*************************************************************

Формат : Matroska
Версия формата : Version 2
Размер файла : 7,86 Гбайт
Продолжительность : 1 ч. 36 м.
Общий поток : 11,7 Мбит/сек
Название фильма : = Король Ральф / King Ralph (1991) BDRip 720p - KORSAR =
Дата кодирования : UTC 2018-04-05 23:57:06
Программа кодирования : mkvmerge v5.8.0 ('No Sleep / Pillow') built on Sep 2 2012 15:37:04
Библиотека кодирования : libebml v1.2.3 + libmatroska v1.3.0
Attachment : Yes

Видео
Идентификатор : 1
Формат : AVC
Формат/Информация : Advanced Video Codec
Профиль формата : High@L4.1
Параметр CABAC формата : Да
Параметр ReFrames формата : 8 кадров
Идентификатор кодека : V_MPEG4/ISO/AVC
Продолжительность : 1 ч. 36 м.
Битрейт : 8691 Кбит/сек
Ширина : 1280 пикселей
Высота : 694 пикселя
Соотношение сторон : 1,85:1
Режим частоты кадров : Постоянный
Частота кадров : 23,976 кадра/сек
Цветовое пространство : YUV
Субдискретизация насыщенности : 4:2:0
Битовая глубина : 8 бит
Тип развёртки : Прогрессивная
Бит/(Пиксели*Кадры) : 0.408
Размер потока : 5,85 Гбайт (74%)
Заголовок : Король Ральф / King Ralph (1991) BDRip 720p - KORSAR
Библиотека кодирования : x264 core 148 r2744kMod b97ae06
Настройки программы : cabac=1 / ref=8 / deblock=1:-2:-2 / analyse=0x3:0x113 / me=umh / subme=11 / psy=1 / fade_compensate=0.00 / psy_rd=1.05:0.14 / mixed_ref=1 / me_range=32 / chroma_me=1 / trellis=2 / 8x8dct=1 / cqm=0 / deadzone=21,11 / fast_pskip=0 / chroma_qp_offset=-3 / threads=12 / lookahead_threads=3 / sliced_threads=0 / nr=0 / decimate=1 / interlaced=0 / bluray_compat=0 / constrained_intra=0 / bframes=12 / b_pyramid=2 / b_adapt=2 / b_bias=0 / direct=3 / weightb=1 / open_gop=0 / weightp=2 / keyint=240 / keyint_min=23 / scenecut=40 / intra_refresh=0 / rc_lookahead=60 / rc=crf / mbtree=0 / crf=17.6000 / qcomp=0.60 / qpmin=0 / qpmax=39 / qpstep=4 / vbv_maxrate=50000 / vbv_bufsize=62500 / crf_max=0.0 / nal_hrd=none / filler=0 / ip_ratio=1.40 / pb_ratio=1.30 / aq=3:0.80
Язык : English
Default : Да
Forced : Нет
Основные цвета : BT.709
Характеристики трансфера : BT.709
Коэффициенты матрицы : BT.709

Аудио #1
Идентификатор : 2
Формат : AC-3
Формат/Информация : Audio Coding 3
Расширение режима : CM (complete main)
Параметр Endianness формата : Big
Идентификатор кодека : A_AC3
Продолжительность : 1 ч. 36 м.
Вид битрейта : Постоянный
Битрейт : 384 Кбит/сек
Каналы : 6 каналов
Расположение каналов : Front: L C R, Side: L R, LFE
Частота : 48,0 КГц
Битовая глубина : 16 бит
Метод сжатия : С потерями
Размер потока : 265 Мбайт (3%)
Заголовок : MVO
Язык : Russian
Default : Да
Forced : Нет

Аудио #2
Идентификатор : 3
Формат : AC-3
Формат/Информация : Audio Coding 3
Расширение режима : CM (complete main)
Параметр Endianness формата : Big
Идентификатор кодека : A_AC3
Продолжительность : 1 ч. 36 м.
Вид битрейта : Постоянный
Битрейт : 192 Кбит/сек
Каналы : 2 канала
Расположение каналов : Front: L R
Частота : 48,0 КГц
Битовая глубина : 16 бит
Метод сжатия : С потерями
Размер потока : 132 Мбайт (2%)
Заголовок : MVO (CTC )
Язык : Russian
Default : Нет
Forced : Нет

Аудио #3
Идентификатор : 4
Формат : AC-3
Формат/Информация : Audio Coding 3
Расширение режима : CM (complete main)
Параметр Endianness формата : Big
Идентификатор кодека : A_AC3
Продолжительность : 1 ч. 36 м.
Вид битрейта : Постоянный
Битрейт : 192 Кбит/сек
Каналы : 2 канала
Расположение каналов : Front: L R
Частота : 48,0 КГц
Битовая глубина : 16 бит
Метод сжатия : С потерями
Размер потока : 132 Мбайт (2%)
Заголовок : MVO ( Селена Интернешнл )
Язык : Russian
Default : Нет
Forced : Нет

Аудио #4
Идентификатор : 5
Формат : AC-3
Формат/Информация : Audio Coding 3
Расширение режима : CM (complete main)
Параметр Endianness формата : Big
Идентификатор кодека : A_AC3
Продолжительность : 1 ч. 36 м.
Вид битрейта : Постоянный
Битрейт : 192 Кбит/сек
Каналы : 2 канала
Расположение каналов : Front: L R
Частота : 48,0 КГц
Битовая глубина : 16 бит
Метод сжатия : С потерями
Размер потока : 132 Мбайт (2%)
Заголовок : MVO ( SDI Media )
Язык : Russian
Default : Нет
Forced : Нет

Аудио #5
Идентификатор : 6
Формат : AC-3
Формат/Информация : Audio Coding 3
Расширение режима : CM (complete main)
Параметр Endianness формата : Big
Идентификатор кодека : A_AC3
Продолжительность : 1 ч. 36 м.
Вид битрейта : Постоянный
Битрейт : 384 Кбит/сек
Каналы : 6 каналов
Расположение каналов : Front: L C R, Side: L R, LFE
Частота : 48,0 КГц
Битовая глубина : 16 бит
Метод сжатия : С потерями
Размер потока : 265 Мбайт (3%)
Заголовок : AVO ( Михалев )
Язык : Russian
Default : Нет
Forced : Нет

Аудио #6
Идентификатор : 7
Формат : AC-3
Формат/Информация : Audio Coding 3
Расширение режима : CM (complete main)
Параметр Endianness формата : Big
Идентификатор кодека : A_AC3
Продолжительность : 1 ч. 36 м.
Вид битрейта : Постоянный
Битрейт : 192 Кбит/сек
Каналы : 2 канала
Расположение каналов : Front: L R
Частота : 48,0 КГц
Битовая глубина : 16 бит
Метод сжатия : С потерями
Размер потока : 132 Мбайт (2%)
Заголовок : AVO ( Живов )
Язык : Russian
Default : Нет
Forced : Нет

Аудио #7
Идентификатор : 8
Формат : AC-3
Формат/Информация : Audio Coding 3
Расширение режима : CM (complete main)
Параметр Endianness формата : Big
Идентификатор кодека : A_AC3
Продолжительность : 1 ч. 36 м.
Вид битрейта : Постоянный
Битрейт : 192 Кбит/сек
Каналы : 2 канала
Расположение каналов : Front: L R
Частота : 48,0 КГц
Битовая глубина : 16 бит
Метод сжатия : С потерями
Размер потока : 132 Мбайт (2%)
Заголовок : AVO ( Визгунов с дамой )
Язык : Russian
Default : Нет
Forced : Нет

Аудио #8
Идентификатор : 9
Формат : AC-3
Формат/Информация : Audio Coding 3
Расширение режима : CM (complete main)
Параметр Endianness формата : Big
Идентификатор кодека : A_AC3
Продолжительность : 1 ч. 36 м.
Вид битрейта : Постоянный
Битрейт : 192 Кбит/сек
Каналы : 2 канала
Расположение каналов : Front: L R
Частота : 48,0 КГц
Битовая глубина : 16 бит
Метод сжатия : С потерями
Размер потока : 132 Мбайт (2%)
Заголовок : AVO ( Иванов )
Язык : Russian
Default : Нет
Forced : Нет

Аудио #9
Идентификатор : 10
Формат : AC-3
Формат/Информация : Audio Coding 3
Расширение режима : CM (complete main)
Параметр Endianness формата : Big
Идентификатор кодека : A_AC3
Продолжительность : 1 ч. 36 м.
Вид битрейта : Постоянный
Битрейт : 192 Кбит/сек
Каналы : 2 канала
Расположение каналов : Front: L R
Частота : 48,0 КГц
Битовая глубина : 16 бит
Метод сжатия : С потерями
Размер потока : 132 Мбайт (2%)
Заголовок : AVO ( Дольский )
Язык : Russian
Default : Нет
Forced : Нет

Аудио #10
Идентификатор : 11
Формат : AC-3
Формат/Информация : Audio Coding 3
Расширение режима : CM (complete main)
Параметр Endianness формата : Big
Идентификатор кодека : A_AC3
Продолжительность : 1 ч. 36 м.
Вид битрейта : Постоянный
Битрейт : 640 Кбит/сек
Каналы : 6 каналов
Расположение каналов : Front: L C R, Side: L R, LFE
Частота : 48,0 КГц
Битовая глубина : 16 бит
Метод сжатия : С потерями
Размер потока : 441 Мбайт (5%)
Язык : English
Default : Нет
Forced : Нет

Текст #1
Идентификатор : 12
Формат : UTF-8
Идентификатор кодека : S_TEXT/UTF8
Идентификатор кодека/Информация : UTF-8 Plain Text
Язык : Russian
Default : Нет
Forced : Нет

Текст #2
Идентификатор : 13
Формат : UTF-8
Идентификатор кодека : S_TEXT/UTF8
Идентификатор кодека/Информация : UTF-8 Plain Text
Язык : English
Default : Нет
Forced : Нет

Меню
00:00:00.000 : en:Chapter 01
00:08:29.008 : en:Chapter 02
00:16:27.069 : en:Chapter 03
00:23:09.304 : en:Chapter 04
00:30:58.940 : en:Chapter 05
00:38:20.214 : en:Chapter 06
00:46:09.850 : en:Chapter 07
00:53:49.309 : en:Chapter 08
01:01:17.965 : en:Chapter 09
01:13:16.475 : en:Chapter 10
01:22:33.657 : en:Chapter 11
01:32:38.636 : en:Chapter 12
01:36:19.774 : en:Chapter 13





Правила, инструкции, FAQ!!!
Торрент  Добавлен [08 апр 2018, 09:14] Скачать торрент Магнет ссылка
Скачать торрент
[ Размер 40.18 КБ / Просмотров 137 ]

Статус
Проверен 
 
Размер  7.86 ГБ
Приватный: Нет (DHT включён)
.torrent скачан  0
Как залить торрент? | Как скачать Torrent? | Ошибка в торренте? Качайте магнет  


     Отправить личное сообщение
   
Страница 1 из 1
Показать сообщения за:  Поле сортировки  
Начать новую тему Ответить на тему

   Похожие торренты   Автор   Ответы   Просмотры   Последнее сообщение 
В этой теме нет новых непрочитанных сообщений. Скачать торрент Проверен Король Лев / The Lion King (1994) BDRip 720p | Лицензия

в форуме Зарубежные мультфильмы (HD Video), Размер: 2.21 ГБ, Здоровье: 100%

Anonymous

0
134|5

127
74

21 июл 2014, 20:38

Anonymous Перейти к последнему сообщению

В этой теме нет новых непрочитанных сообщений. Скачать торрент Проверен Король Лев 3: Акуна Матата / The Lion King 1½ (2004) BDRip 720p | Лицензия

в форуме Зарубежные мультфильмы (HD Video), Размер: 1.7 ГБ, Здоровье: 100%

Anonymous

0
91|3

112
75

21 июл 2014, 20:45

Anonymous Перейти к последнему сообщению

В этой теме нет новых непрочитанных сообщений. Скачать торрент Проверен Король Лев 2: Гордость Симбы / The Lion King II: Simba's Pride (1998) BDRip 720p | Лицензия

в форуме Зарубежные мультфильмы (HD Video), Размер: 2.17 ГБ, Здоровье: 100%

Anonymous

0
102|6

105
134

21 июл 2014, 20:42

Anonymous Перейти к последнему сообщению

В этой теме нет новых непрочитанных сообщений. Скачать торрент Король Нью-Йорка / King of New York (Абель Феррара) [720p] [1990 г., боевик, драма, криминал, BDRip]

в форуме 720p | 1080p, Размер: 4.82 ГБ, Здоровье: 0%

Anonymous

0
0|0

75
0

25 фев 2014, 22:41

Anonymous Перейти к последнему сообщению

В этой теме нет новых непрочитанных сообщений. Скачать торрент Проверен [iPad] Король говорит! / The King's Speech (Том Хупер / Tom Hooper) [2010, драма, биография, история, BDRip 720p]

в форуме Фильмы для iPod, iPhone, iPad, Размер: 3.19 ГБ, Здоровье: 100%

Anonymous

0
9|2

13
0

24 дек 2017, 22:05

Anonymous Перейти к последнему сообщению



Сейчас этот форум просматривают: нет зарегистрированных пользователей и гости: 0


Вы не можете начинать темы
Вы не можете отвечать на сообщения
Вы не можете редактировать свои сообщения
Вы не можете удалять свои сообщения
Вы не можете добавлять вложения

Перейти:  
Ресурс не предоставляет электронные версии произведений, а занимается лишь коллекционированием и каталогизацией ссылок, присылаемых и публикуемых на форуме нашими читателями. Если вы являетесь правообладателем какого-либо представленного материала и не желаете чтобы ссылка на него находилась в нашем каталоге, свяжитесь с нами и мы незамедлительно удалим её. Файлы для обмена на трекере предоставлены пользователями сайта, и администрация не несёт ответственности за их содержание. Просьба не заливать файлы, защищенные авторскими правами, а также файлы нелегального содержания!
cron