На всех торрентах на трекере установлена скидка на скачивание в размере 100 процентов(а).
 Возможность скачивания торрента НЕ зависит от ограничений при низком ратио, низком аплоаде, требуемом ратио или требуемом аплоаде.


Начать новую тему Ответить на тему
Статистика раздачи
Размер: 1.42 ГБ | Добавлен: 21 янв 2018, 21:44 | Скачали: 1
Сидеров: 0  [0 байт/сек]    Личеров: 0  [0 байт/сек]
Пред. тема | След. тема 

Автор
Сообщение

СообщениеДобавлено: 21 янв 2018, 21:44 

Ответить с цитатой 

Конец ***го мира / The End Of The F***ing World

Страна: Великобритания
Производство: Dominic Buchanan Productions, Clerkenwell Films
Год выпуска: 2017
Сезон: 1
Жанр: драма, комедия
Продолжительность: 8х ~00:22:00

Режиссеры: Джонатан Энтвистл, Люси Черняк
Авторы сценария: Чарли Ковелл, Чарльз С. Форсман

В ролях: Джессика Барден, Алекс Лоутер, Стив Орам, Вунми Моссаку, Джемма Уилан, Кристин Боттомли, Навин Чоудхри, Джонатан Арис

Описание: Джеймсу семнадцать и он уверен, что он психопат. Алисе тоже семнадцать, и она крутая капризная новенькая девчонка в школе. Они с пол-оборота заводят подростковый роман, и Алиса уговаривает Джеймса начать поиски её отца. Джеймсу от Алисы тоже кое-что нужно...



Перевод: Любительский многоголосый закадровый [ Hamsterstudio ]
Субтитры: нет


Качество: WEBRip
Формат: АVI
Видео кодек: XviD
Аудио кодек: МР3
Видео: 720x400 (16:9), 25.000 fps, XviD ~1 100 kbps avg
Аудио: 48.0 kHz, MPEG Layer 3, 2 ch, ~128 kbps avg

Дата премьеры (мир): 24 октября 2017



General
Complete name : The End Of The F__ing World_S01E01.avi
Format : AVI
Format/Info : Audio Video Interleave
File size : 166 MiB
Duration : 18mn 48s
Overall bit rate : 1 231 Kbps
Writing application : VirtualDubMod 1.5.10.2 (build 2540/release)
Writing library : VirtualDubMod build 2540/release

Video
ID : 0
Format : MPEG-4 Visual
Format profile : Advanced Simple@L5
Format settings, BVOP : 2
Format settings, QPel : No
Format settings, GMC : No warppoints
Format settings, Matrix : Default (H.263)
Muxing mode : Packed bitstream
Codec ID : XVID
Codec ID/Hint : XviD
Duration : 18mn 48s
Bit rate : 1 093 Kbps
Width : 720 pixels
Height : 400 pixels
Display aspect ratio : 16:9
Frame rate : 25.000 fps
Color space : YUV
Chroma subsampling : 4:2:0
Bit depth : 8 bits
Scan type : Progressive
Compression mode : Lossy
Bits/(Pixel*Frame) : 0.152
Stream size : 147 MiB (89%)
Writing library : XviD 66

Audio
ID : 1
Format : MPEG Audio
Format version : Version 1
Format profile : Layer 3
Mode : Joint stereo
Mode extension : MS Stereo
Codec ID : 55
Codec ID/Hint : MP3
Duration : 18mn 48s
Bit rate mode : Constant
Bit rate : 128 Kbps
Channel(s) : 2 channels
Sampling rate : 48.0 KHz
Compression mode : Lossy
Stream size : 17.2 MiB (10%)
Alignment : Aligned on interleaves
Interleave, duration : 40 ms (1.00 video frame)
Interleave, preload duration : 504 ms
Правила, инструкции, FAQ!!!
Торрент  Добавлен [21 янв 2018, 21:44] Скачать торрент Магнет ссылка
Скачать торрент
[ Размер 15.66 КБ / Просмотров 113 ]

Статус
Проверен 
 
Размер  1.42 ГБ
Приватный: Нет (DHT включён)
.torrent скачан  1
Как залить торрент? | Как скачать Torrent? | Ошибка в торренте? Качайте магнет  
загрузка...


     Отправить личное сообщение
   
Страница 1 из 1
Показать сообщения за:  Поле сортировки  
Начать новую тему Ответить на тему

   Похожие торренты   Автор   Ответы   Просмотры   Последнее сообщение 
В этой теме нет новых непрочитанных сообщений. Скачать торрент Проверен Все деньги мира / All the Money in the World (2017) BDRip 1080p | iTunes

в форуме 720p | 1080p, Размер: 7.71 ГБ, Здоровье: 100%

Гость

0
3622|803

75
5302

30 мар 2018, 17:49

Гость Перейти к последнему сообщению

В этой теме нет новых непрочитанных сообщений. Скачать торрент Проверен Восставшие мертвецы: конец игры / Dead Rising: Endgame (Пэт Уильямс / Pat Williams) [2016, США, Ужасы, WEBRip] VO (Хихикающий доктор)

в форуме Фильмы 2016-2017, Размер: 1.38 ГБ, Здоровье: 0%

Anonymous

0
0|0

12
0

03 фев 2018, 18:12

Anonymous Перейти к последнему сообщению

В этой теме нет новых непрочитанных сообщений. Скачать торрент Проверен В этом мире я больше не чувствую себя как дома / I Don't Feel at Home in This World Anymore (Мэйкон Блэр / Macon Blair) [2017, США, Триллер, драма, криминал, WEBRip] VO (BadBajo) + Original + Sub Rus

в форуме Фильмы 2016-2017, Размер: 1.76 ГБ, Здоровье: 100%

Anonymous

0
35|11

52
0

04 фев 2018, 15:09

Anonymous Перейти к последнему сообщению

В этой теме нет новых непрочитанных сообщений. Скачать торрент Проверен Кавахара Рэки - Accel World / Ускоренный Мир 15, Конец и начало (без музыки) [Adrenalin28, (ЛИ), 2015 г., 128 kbps, MP3]

в форуме Зарубежная фантастика, фэнтези, мистика, ужасы, Размер: 373.4 МБ, Здоровье: 0%

Anonymous

0
0|0

13
0

11 сен 2016, 11:33

Anonymous Перейти к последнему сообщению

В этой теме нет новых непрочитанных сообщений. Скачать торрент Проверен Бенедикт Велльс | Конец одиночества (2017) [FB2]

в форуме Классика, современная проза и поэзия, Размер: 1.15 МБ, Здоровье: 100%

Anonymous

0
1|0

28
0

04 янв 2018, 01:38

Anonymous Перейти к последнему сообщению



Сейчас этот форум просматривают: нет зарегистрированных пользователей и гости: 0


Вы не можете начинать темы
Вы не можете отвечать на сообщения
Вы не можете редактировать свои сообщения
Вы не можете удалять свои сообщения
Вы не можете добавлять вложения

Перейти:  
Ресурс не предоставляет электронные версии произведений, а занимается лишь коллекционированием и каталогизацией ссылок, присылаемых и публикуемых на форуме нашими читателями. Если вы являетесь правообладателем какого-либо представленного материала и не желаете чтобы ссылка на него находилась в нашем каталоге, свяжитесь с нами и мы незамедлительно удалим её. Файлы для обмена на трекере предоставлены пользователями сайта, и администрация не несёт ответственности за их содержание. Просьба не заливать файлы, защищенные авторскими правами, а также файлы нелегального содержания!
cron