На всех торрентах на трекере установлена скидка на скачивание в размере 100 процентов(а).
 Возможность скачивания торрента НЕ зависит от ограничений при низком ратио, низком аплоаде, требуемом ратио или требуемом аплоаде.


Начать новую тему Ответить на тему
Статистика раздачи
Размер: 5.23 ГБ | Добавлен: 06 апр 2018, 23:46 | Скачали: 0
Сидеров: 1  [0 байт/сек]    Личеров: 0  [0 байт/сек]
Пред. тема | След. тема 

Автор
Сообщение

СообщениеДобавлено: 06 апр 2018, 23:46 

Ответить с цитатой 

Название: Команда 49: Огненная лестница
Оригинальное название: Ladder 49
Год выпуска: 2004
Жанр: Боевик, триллер, драма
Выпущено: США, Beacon Communications LLC, Beacon Pictures, Casey Silver Productions, Fantail Films Inc., Touchstone Pictures
Режиссер: Джей Расселл
В ролях: Хоакин Феникс, Джон Траволта, Джасинда Бэрретт, Роберт Патрик, Моррис Честнат, Билли Бёрк, Бальтазар Гетти, Тим Гини, Кевин Чэпмен, Джей Эрнандес, Кевин Дэниелс, Стив Мэй, Роберт Льюис, Брук Хэмлин, Спенсер Берглунд, Карен Лоррэйн Викс, Дезри Кэа, Пегги Кафферти, Мария Аллен, Лесли Лайлс, Роберт МакКэй, Ричард Пилчер, Джон Лумия, Роберт О’Нейлл, Тодд Кахун, Джесс Кинг, Реверенд Дж. Кевин Фармер, Делани Уильямс, Шарлин Уильямс, Рори Д. Годсей, Дакота Ли Холлоуэй, Кэрол Флоренс, Кайл Прю, Стэн Стовэлл, Барбара Уорд, Шон Прэтт

О фильме: Пойманному в огненную ловушку пожарному Джеку Мориссону предстоит вспомнить свою полную приключений жизнь, а его друзьям и коллегам по пожарному отряду «Лестница 49» во главе с боссом Кеннеди сделать всё возможное, чтобы спасти его. Впереди у героев испытания и пламенные вихри, но они — крепкая команда настоящих мужчин, способная всё преодолеть…

Качество: BDRip 720p
Продолжительность: 01:55:03

Видео: MPEG-4 AVC, 4654 Кбит/с, 1280x694
Аудио 1: русский, 48 kHz, AC3, 6 ch, 384 kbps avg, [Дублированный]
Аудио 2: русский, 48 kHz, AC3, 6 ch, 448 kbps avg, [Авторский, Сергей Визгунов]
Аудио 3: русский, 48 kHz, AC3, 6 ch, 448 kbps avg, [Авторский, Юрий Немахов]
Аудио 4: английский, 48 kHz, AC3, 6 ch, 448 kbps avg, [Оригинал]
Субтитры 1: русские
Субтитры 2: английские
Субтитры 3: русские (комментарий режиссёров)

Исходник: delo2006 (HDTracker)

Сравнение с исходником



Общее
Уникальный идентификатор : 241812231025385936221917255147959568683 (0xB5EB57775CF8FB6D817ABAB981DB492B)
Полное имя : E:VideoKomanda.49.2004.x264.BDRip.720p.mkv
Формат : Matroska
Версия формата : Version 4 / Version 2
Размер файла : 5,23 Гбайт
Продолжительность : 1 ч. 55 м.
Общий поток : 6512 Кбит/сек
Название фильма : Команда 49: Огненная лестница / Ladder 49 / 2004 / BDRip -- STarankov
Дата кодирования : UTC 2013-12-03 11:54:53
Программа кодирования : mkvmerge v6.4.1 ('Omega Point') built on Sep 16 2013 22:05:10
Библиотека кодирования : libebml v1.3.0 + libmatroska v1.4.1

Видео
Идентификатор : 1
Формат : AVC
Формат/Информация : Advanced Video Codec
Профиль формата : High@L4.1
Параметр CABAC формата : Да
Параметр ReFrames формата : 9 кадров
Идентификатор кодека : V_MPEG4/ISO/AVC
Продолжительность : 1 ч. 55 м.
Битрейт : 4654 Кбит/сек
Ширина : 1280 пикселей
Высота : 694 пикселя
Соотношение сторон : 1,85:1
Режим частоты кадров : Постоянный
Частота кадров : 23,976 кадра/сек
Цветовое пространство : YUV
Субдискретизация насыщенности : 4:2:0
Битовая глубина : 8 бит
Тип развёртки : Прогрессивная
Бит/(Пиксели*Кадры) : 0.219
Размер потока : 3,74 Гбайт (71%)
Библиотека кодирования : x264 core 138 r2358 9e941d1
Настройки программы : cabac=1 / ref=9 / deblock=1:-2:-2 / analyse=0x3:0x113 / me=umh / subme=10 / psy=1 / psy_rd=1.00:0.15 / mixed_ref=1 / me_range=24 / chroma_me=1 / trellis=2 / 8x8dct=1 / cqm=0 / deadzone=21,11 / fast_pskip=0 / chroma_qp_offset=-3 / threads=6 / lookahead_threads=1 / sliced_threads=0 / nr=0 / decimate=1 / interlaced=0 / bluray_compat=0 / constrained_intra=0 / bframes=8 / b_pyramid=2 / b_adapt=2 / b_bias=0 / direct=1 / weightb=1 / open_gop=0 / weightp=2 / keyint=230 / keyint_min=23 / scenecut=40 / intra_refresh=0 / rc_lookahead=40 / rc=crf / mbtree=0 / crf=18.0 / qcomp=0.60 / qpmin=0 / qpmax=69 / qpstep=4 / vbv_maxrate=50000 / vbv_bufsize=62500 / crf_max=0.0 / nal_hrd=none / ip_ratio=1.40 / pb_ratio=1.30 / aq=1:1.00
Язык : English
Default : Да
Forced : Нет

Аудио #1
Идентификатор : 2
Формат : AC-3
Формат/Информация : Audio Coding 3
Расширение режима : CM (complete main)
Параметр Endianness формата : Big
Идентификатор кодека : A_AC3
Продолжительность : 1 ч. 55 м.
Вид битрейта : Постоянный
Битрейт : 384 Кбит/сек
Каналы : 6 каналов
Расположение каналов : Front: L C R, Side: L R, LFE
Частота : 48,0 КГц
Битовая глубина : 16 бит
Метод сжатия : С потерями
Размер потока : 316 Мбайт (6%)
Заголовок : DUB
Язык : Russian
Default : Да
Forced : Нет

Аудио #2
Идентификатор : 3
Формат : AC-3
Формат/Информация : Audio Coding 3
Расширение режима : CM (complete main)
Параметр Endianness формата : Big
Идентификатор кодека : A_AC3
Продолжительность : 1 ч. 55 м.
Вид битрейта : Постоянный
Битрейт : 448 Кбит/сек
Каналы : 6 каналов
Расположение каналов : Front: L C R, Side: L R, LFE
Частота : 48,0 КГц
Битовая глубина : 16 бит
Метод сжатия : С потерями
Размер потока : 369 Мбайт (7%)
Заголовок : AVO (Сергей Визгунов)
Язык : Russian
Default : Нет
Forced : Нет

Аудио #3
Идентификатор : 4
Формат : AC-3
Формат/Информация : Audio Coding 3
Расширение режима : CM (complete main)
Параметр Endianness формата : Big
Идентификатор кодека : A_AC3
Продолжительность : 1 ч. 55 м.
Вид битрейта : Постоянный
Битрейт : 448 Кбит/сек
Каналы : 6 каналов
Расположение каналов : Front: L C R, Side: L R, LFE
Частота : 48,0 КГц
Битовая глубина : 16 бит
Метод сжатия : С потерями
Размер потока : 369 Мбайт (7%)
Заголовок : AVO (Юрий Немахов)
Язык : Russian
Default : Нет
Forced : Нет

Аудио #4
Идентификатор : 5
Формат : AC-3
Формат/Информация : Audio Coding 3
Расширение режима : CM (complete main)
Параметр Endianness формата : Big
Идентификатор кодека : A_AC3
Продолжительность : 1 ч. 55 м.
Вид битрейта : Постоянный
Битрейт : 448 Кбит/сек
Каналы : 6 каналов
Расположение каналов : Front: L C R, Side: L R, LFE
Частота : 48,0 КГц
Битовая глубина : 16 бит
Метод сжатия : С потерями
Размер потока : 369 Мбайт (7%)
Заголовок : Original
Язык : English
Default : Нет
Forced : Нет

Текст #1
Идентификатор : 6
Формат : UTF-8
Идентификатор кодека : S_TEXT/UTF8
Идентификатор кодека/Информация : UTF-8 Plain Text
Заголовок : русский
Язык : Russian
Default : Нет
Forced : Нет

Текст #2
Идентификатор : 7
Формат : UTF-8
Идентификатор кодека : S_TEXT/UTF8
Идентификатор кодека/Информация : UTF-8 Plain Text
Заголовок : английский
Default : Нет
Forced : Нет

Текст #3
Идентификатор : 8
Формат : UTF-8
Идентификатор кодека : S_TEXT/UTF8
Идентификатор кодека/Информация : UTF-8 Plain Text
Заголовок : русский (комментарий режиссёров)
Язык : Russian
Default : Нет
Forced : Нет

---[Information] [03.12.2013 5:56:28] avs [info]: 1280x694p 1:1 @ 24000/1001 fps (cfr)
---[Information] [03.12.2013 5:56:28] x264 [info]: using SAR=1/1
---[Information] [03.12.2013 5:56:28] x264 [info]: using cpu capabilities: MMX2 SSE2Fast SSSE3 SSE4.2
---[Information] [03.12.2013 5:56:28] x264 [info]: profile High, level 4.1
---[Information] [03.12.2013 17:31:18] x264 [info]: frame I:1147 Avg QP:15.14 size: 94019
---[Information] [03.12.2013 17:31:18] x264 [info]: frame P:36102 Avg QP:15.90 size: 46600
---[Information] [03.12.2013 17:31:18] x264 [info]: frame B:128275 Avg QP:18.40 size: 18208
---[Information] [03.12.2013 17:31:18] x264 [info]: consecutive B-frames: 1.6% 2.5% 6.4% 29.2% 15.7% 34.0% 3.4% 6.1% 1.0%
---[Information] [03.12.2013 17:31:18] x264 [info]: mb I I16..4: 7.5% 79.3% 13.2%
---[Information] [03.12.2013 17:31:18] x264 [info]: mb P I16..4: 1.5% 26.7% 1.9% P16..4: 30.5% 24.1% 11.4% 0.0% 0.0% skip: 3.9%
---[Information] [03.12.2013 17:31:18] x264 [info]: mb B I16..4: 0.2% 2.4% 0.2% B16..8: 38.6% 15.8% 3.8% direct:10.2% skip:28.9% L0:46.2% L1:42.1% BI:11.7%
---[Information] [03.12.2013 17:31:18] x264 [info]: 8x8 transform intra:87.7% inter:60.0%
---[Information] [03.12.2013 17:31:18] x264 [info]: coded y,uvDC,uvAC intra: 91.1% 90.0% 72.3% inter: 32.6% 34.0% 7.2%
---[Information] [03.12.2013 17:31:18] x264 [info]: i16 v,h,dc,p: 33% 9% 13% 46%
---[Information] [03.12.2013 17:31:18] x264 [info]: i8 v,h,dc,ddl,ddr,vr,hd,vl,hu: 14% 8% 12% 8% 11% 12% 10% 12% 12%
---[Information] [03.12.2013 17:31:18] x264 [info]: i4 v,h,dc,ddl,ddr,vr,hd,vl,hu: 17% 7% 4% 9% 14% 15% 12% 11% 11%
---[Information] [03.12.2013 17:31:18] x264 [info]: i8c dc,h,v,p: 47% 21% 19% 14%
---[Information] [03.12.2013 17:31:18] x264 [info]: Weighted P-Frames: Y:6.8% UV:4.9%
---[Information] [03.12.2013 17:31:18] x264 [info]: ref P L0: 42.8% 8.4% 19.3% 7.9% 6.7% 4.8% 4.4% 2.7% 2.7% 0.4% 0.0%
---[Information] [03.12.2013 17:31:18] x264 [info]: ref B L0: 70.3% 13.3% 6.5% 3.5% 2.5% 2.1% 1.2% 0.5%
---[Information] [03.12.2013 17:31:18] x264 [info]: ref B L1: 92.8% 7.2%
---[Information] [03.12.2013 17:31:18] x264 [info]: kb/s:4780.95
---[Information] [03.12.2013 17:31:19] encoded 165524 frames, 3.97 fps, 4780.96 kb/s
--[Information] [03.12.2013 17:31:20] Final statistics
---[Information] [03.12.2013 17:31:20] Constant Quality Mode: Quality 18 computed...
---[Information] [03.12.2013 17:31:20] Video Bitrate Obtained (approximate): 4782 kbit/s
--[Information] [03.12.2013 17:31:20] MediaInfo
---[Information] File: E:RipKomanda.49.2004.x264.BDRipKomanda.49.2004.x264.BDRip.720p.mkv


Правила, инструкции, FAQ!!!
Торрент  Добавлен [06 апр 2018, 23:46] Скачать торрент Магнет ссылка
Скачать торрент
[ Размер 27.22 КБ / Просмотров 55 ]

Статус
Проверен 
 
Размер  5.23 ГБ
Приватный: Нет (DHT включён)
.torrent скачан  0
Как залить торрент? | Как скачать Torrent? | Ошибка в торренте? Качайте магнет  


     Отправить личное сообщение
   
Страница 1 из 1
Показать сообщения за:  Поле сортировки  
Начать новую тему Ответить на тему

   Похожие торренты   Автор   Ответы   Просмотры   Последнее сообщение 
В этой теме нет новых непрочитанных сообщений. Скачать торрент Команда 49: Огненная лестница / Ladder 49 (2004) BDRip | D, A

в форуме Боевики, Размер: 2.93 ГБ, Здоровье: 0%

Anonymous

0
0|0

59
0

02 дек 2013, 18:48

Anonymous Перейти к последнему сообщению

В этой теме нет новых непрочитанных сообщений. Скачать торрент Проверен Команда 49: Огненная лестница / Ladder 49 (2004) HDRip | D

в форуме Боевики, Размер: 1.45 ГБ, Здоровье: 100%

Гость

0
34|4

466
2

21 май 2016, 22:23

Гость Перейти к последнему сообщению

В этой теме нет новых непрочитанных сообщений. Скачать торрент Проверен Лестница Иакова / Jacob's Ladder (1990) BDRip 1080p

в форуме 720p | 1080p, Размер: 11.56 ГБ, Здоровье: 100%

Anonymous

0
430|9

117
132

05 дек 2014, 21:29

Anonymous Перейти к последнему сообщению

В этой теме нет новых непрочитанных сообщений. Скачать торрент Проверен Лестница Иакова / Jacob's Ladder (1990) HDRip | Р

в форуме Триллеры, Размер: 1.45 ГБ, Здоровье: 100%

Гость

0
96|15

113
45

05 дек 2014, 21:31

Гость Перейти к последнему сообщению

В этой теме нет новых непрочитанных сообщений. Скачать торрент Проверен Бегущий человек / The Running Man (1987) BDRip 720p by msltel | P, P2, A

в форуме 720p | 1080p, Размер: 7.76 ГБ, Здоровье: 100%

Anonymous

0
1|0

68
0

10 мар 2018, 17:08

Anonymous Перейти к последнему сообщению



Сейчас этот форум просматривают: нет зарегистрированных пользователей и гости: 0


Вы не можете начинать темы
Вы не можете отвечать на сообщения
Вы не можете редактировать свои сообщения
Вы не можете удалять свои сообщения
Вы не можете добавлять вложения

Перейти:  
Ресурс не предоставляет электронные версии произведений, а занимается лишь коллекционированием и каталогизацией ссылок, присылаемых и публикуемых на форуме нашими читателями. Если вы являетесь правообладателем какого-либо представленного материала и не желаете чтобы ссылка на него находилась в нашем каталоге, свяжитесь с нами и мы незамедлительно удалим её. Файлы для обмена на трекере предоставлены пользователями сайта, и администрация не несёт ответственности за их содержание. Просьба не заливать файлы, защищенные авторскими правами, а также файлы нелегального содержания!
cron