На всех торрентах на трекере установлена скидка на скачивание в размере 100 процентов(а).
 Возможность скачивания торрента НЕ зависит от ограничений при низком ратио, низком аплоаде, требуемом ратио или требуемом аплоаде.


Начать новую тему Ответить на тему
Статистика раздачи
Размер: 13.87 ГБ | Добавлен: 29 ноя 2013, 21:01 | Скачали: 14
Сидеров: 52  [0 байт/сек]    Личеров: 8  [0 байт/сек]
Пред. тема | След. тема 

Автор
Сообщение

СообщениеДобавлено: 29 ноя 2013, 21:01 

Ответить с цитатой 

Гойко Митич (1965-1983) DVDRip

Gojko Mitic (1965-1983)



Дата рождения: 13 июня, 1940
Mесто рождения: Лесковас, Югославия
Карьера: Актер, Сценарист
Жанры: Вестерн. Драма. Приключения
Всего фильмов: 59
Первый фильм: 1963
Последний фильм: 2008
Биография создания проекта из 12 фильмов:

В 1965 году, сразу же после пленума ЦК СЕПГ состоялось совещание, на которое были приглашены все киноруководство ГДР. На совещании обсуждался вопрос о проекте по созданию отечественных картин, которые смогли бы противостоять всё большему влиянию западногерманских вестернов, созданных по романам Карла Мая и главным героем которых являлся Виннету в исполнении французского актера Пьера Бриса. Тем более, что и литературная основа для этого имелась. И тоже немецкая - пенталогия писательницы Лизелотты Вельскопф-Генрих. Для выполнения проекта были привлечены лучшие режиссёры - Йозеф Мах, Конрад Петцольд, Рихард Грошопп, Готфрид Кольдиц и другие. Всего было запланировано 12 картин, и они были сняты. Съёмки проходили в местах, похожих на американские прерии - в Югославии (некоторые ленты просто снимались совместно с югославскими студиями), Грузии, некоторых других местах. Первым фильмом проекта стали "Сыновья Большой Медведицы". Снимать ленту поручили чехословацкому режиссёру Йозефу Маху. Оставалось только найти главного героя. Просмотрев западногерманские ленты о Виннету и Шаттерхэнде, Мах увидел в них актёра с яркой фактурой, играющего второй план, да и то, в эпизодах. Это был молодой югослав Гойко Митич, решивший попробовать себя в кино в качестве каскадёра и эпизодника. Первая картина цикла - "Сыновья Большой Медведицы - стала самой кассовой в ГДР, где её просмотрели 10 миллионов человек. Всего же цикл включает следующие ленты:

Сыновья Большой Медведицы / Die Sohne der groben Barin (1965) DVDRip
#777Русское название: Сыновья Большой Медведицы
Оригинальное название: Die Sohne der groben Barin
Cтрана: Германия (ГДР)
Год выпуска: 1965
Жанр: Боевик. Bестерн

Описание фильма:
В самом разгаре война с индейцами. Белые колонизаторы хотят согнать племя Дакота с их исконных земель, богатых золотом. Вождь индейцев Токей Ито отказывается от предложения переселиться в резервацию. Колонизаторы предлагают вождю либо жизнь в резервации, либо смерть, но вождь видит и другой выход из сложившейся ситуации. Он хочет увести свое племя на территорию Канады, где есть плодородные земли, и нет власти белых колонизаторов. Но для того, чтобы попасть в Канаду, нужно разбить войска колонизаторов, которых значительно больше, чем индейцев.

Режиссер: Йозеф Мах
Актеры: Рольф Рёмер, Иржи Врстала, Гойко Митич, Ганс Хардт-Хардтлофф, Герхард Рахольд, Хорст Йонишкан, Йозеф Майерчик, Йозеф Адамович, Милан Яблонски, Ханньо Хассе

Продолжительность: 01:20:52
Перевод: Дублированный
Язык субтитров: нет



Дата мировой премьеры: 18.02.1966

Видео: AVI (Xvid)
Битрейт видео: ~2146 Кbps
Размер кадра: 704 x 368
Качество видео: DVDRip
Aудио: AC3, 48,0 КHz, 2 ch, 256 Кbps
Сэмпл: Ссылка
General
Complete name : D:\Торренты\ФИЛЬМЫ торента\Gojko Mitic Films\Сыновья Большой Медведицы (1965) DVDRip.avi
Format : AVI
Format/Info : Audio Video Interleave
File size : 1.36 GiB
Duration : 1h 20mn
Overall bit rate : 2 412 Kbps

Video
ID : 0
Format : MPEG-4 Visual
Format profile : Advanced Simple@L5
Format settings, BVOP : 2
Format settings, QPel : No
Format settings, GMC : No warppoints
Format settings, Matrix : Default (H.263)
Muxing mode : Packed bitstream
Codec ID : XVID
Codec ID/Hint : XviD
Duration : 1h 20mn
Bit rate : 2 146 Kbps
Width : 704 pixels
Height : 368 pixels
Display aspect ratio : 1.913
Frame rate : 25.000 fps
Color space : YUV
Chroma subsampling : 4:2:0
Bit depth : 8 bits
Scan type : Progressive
Compression mode : Lossy
Bits/(Pixel*Frame) : 0.331
Stream size : 1.21 GiB (89%)
Writing library : XviD 1.2.0.dev47 (UTC 2006-11-01)

Audio
ID : 1
Format : AC-3
Format/Info : Audio Coding 3
Mode extension : CM (complete main)
Codec ID : 2000
Duration : 1h 20mn
Bit rate mode : Constant
Bit rate : 256 Kbps
Channel(s) : 2 channels
Channel positions : Front: L R
Sampling rate : 48.0 KHz
Bit depth : 16 bits
Compression mode : Lossy
Stream size : 148 MiB (11%)
Alignment : Split accross interleaves
Interleave, duration : 40 ms (1.00 video frame)
Interleave, preload duration : 500 ms[/center]

Скриншоты:



Чингачгук-большой змей / Chingachgook, die grosse Schlange (1967) DVDRip
#777Русское название: Чингачгук-большой змей
Оригинальное название: Chingachgook, die grosse Schlange
Cтрана: Германия (ГДР)
Год выпуска: 1967
Жанр: Драма, Приключения, Вестерн

Описание фильма:
1740 год. Английские войска пытаются отбить у французов их североамериканские колонии и втягивают в эту войну индейцев. В руки гуронов, которых французы натравили на делаваров, попадает Ватава, дочь вождя, обещанная Чингачгуку. Он собирается освободить ее с помощью своего друга Зверобоя. Неподалеку от лагеря гуронов они сталкиваются с охотниками за скальпами. Чингачгук попадает в плен к гуронам. Он пытается убедить их, что индейцам нет дела до войны между белыми. Но это ему не удается. Между тем один из охотников приводит английских солдат, которые наголову разбивают гуронов. Теперь их тяжело раненный вождь понимает, что Чингачгук был прав. Сумеют ли Чингачгук, Ватава и Зверобой выжить в этой резне?..

Режиссер: Рихард Грошопп
Актеры: Гойко Митич, Рольф Ремер, Лило Гран, Хельмут Шрайбер, Юрген Фрорип, Хайнц Клевенов, Йоханнес Книттель

Продолжительность: 01:23:14
Перевод: Дублированный
Язык субтитров: нет



Дата мировой премьеры: 25.06.1967

Видео: AVI (Xvid)
Битрейт видео: ~2152 Kbps
Размер кадра: 720 x 416
Качество видео: DVDRip
Aудио: AC3, 48.0 KHz, 2 ch, 192 Kbps
Сэмпл: Ссылка
General
Complete name : D:\Торренты\ФИЛЬМЫ торента\Gojko Mitic Films\Чингачгук-большой змей (1967) DVDRip.avi
Format : AVI
Format/Info : Audio Video Interleave
File size : 1.37 GiB
Duration : 1h 23mn
Overall bit rate : 2 351 Kbps

Video
ID : 0
Format : MPEG-4 Visual
Format profile : Advanced Simple@L5
Format settings, BVOP : 1
Format settings, QPel : No
Format settings, GMC : No warppoints
Format settings, Matrix : Custom
Codec ID : XVID
Codec ID/Hint : XviD
Duration : 1h 23mn
Bit rate : 2 152 Kbps
Width : 720 pixels
Height : 416 pixels
Display aspect ratio : 16:9
Frame rate : 25.000 fps
Color space : YUV
Chroma subsampling : 4:2:0
Bit depth : 8 bits
Scan type : Progressive
Compression mode : Lossy
Bits/(Pixel*Frame) : 0.287
Stream size : 1.25 GiB (92%)
Writing library : XviD 1.2.0.dev47 (UTC 2006-11-01)

Audio
ID : 1
Format : AC-3
Format/Info : Audio Coding 3
Mode extension : CM (complete main)
Codec ID : 2000
Duration : 1h 23mn
Bit rate mode : Constant
Bit rate : 192 Kbps
Channel(s) : 2 channels
Channel positions : Front: L R
Sampling rate : 48.0 KHz
Bit depth : 16 bits
Compression mode : Lossy
Stream size : 114 MiB (8%)
Alignment : Split accross interleaves
Interleave, duration : 96 ms (2.40 video frames)
Interleave, preload duration : 96 ms[/center]

Скриншоты:



След Сокола / Spur des Falken (1968) DVDRip
#777Русское название: След Сокола
Оригинальное название: Spur des Falken
Cтрана: Германия (ГДР)
Год выпуска: 1968
Жанр: Вестерн, Приключения

Описание фильма:
На индейских территориях племени дакота в Черных горах во второй половине 19 века было найдено золото. Бандиты, золотоискатели и дельцы потянулись на его кровавый запах. Истребляя стада буйволов и вырезая целые деревни, им удается ослабить племя. Вождь Зоркий Сокол со своими воинами отбивают оружие и нападают на поселение белых. Белых может спасти от поражения только приход армии...

Режиссер: Готфрид Кольдитц
Актеры: Гойко Митич, Ханьо Хассе, Барбара Брыльска, Рольф Хоппе, Хельмут Шрайбер, Хартмут Бир

Продолжительность: 01:45:10
Перевод: Дублированный
Язык субтитров: нет



Дата мировой премьеры: 22.06.68

Видео: AVI (Xvid)
Битрейт видео: ~1657 Kbps
Размер кадра: 720 x 352
Качество видео: DVDRip
Aудио: AC3, 48.0 KHz, 2 ch, 192 Kbps
Сэмпл: Ссылка
General
Complete name : D:\Торренты\ФИЛЬМЫ торента\Gojko Mitic Films\След Сокола (1968) DVDRip.avi
Format : AVI
Format/Info : Audio Video Interleave
File size : 1.37 GiB
Duration : 1h 45mn
Overall bit rate : 1 859 Kbps

Video
ID : 0
Format : MPEG-4 Visual
Format profile : Simple@L3
Format settings, BVOP : 1
Format settings, QPel : No
Format settings, GMC : No warppoints
Format settings, Matrix : Custom
Codec ID : XVID
Codec ID/Hint : XviD
Duration : 1h 45mn
Bit rate : 1 657 Kbps
Width : 720 pixels
Height : 352 pixels
Display aspect ratio : 2.045
Frame rate : 25.000 fps
Color space : YUV
Chroma subsampling : 4:2:0
Bit depth : 8 bits
Scan type : Progressive
Compression mode : Lossy
Bits/(Pixel*Frame) : 0.262
Stream size : 1.22 GiB (89%)
Writing library : XviD 1.0.1 (UTC 2004-06-05)

Audio
ID : 1
Format : AC-3
Format/Info : Audio Coding 3
Mode extension : CM (complete main)
Codec ID : 2000
Duration : 1h 45mn
Bit rate mode : Constant
Bit rate : 192 Kbps
Channel(s) : 2 channels
Channel positions : Front: L R
Sampling rate : 48.0 KHz
Bit depth : 16 bits
Compression mode : Lossy
Delay relative to video : 54ms
Stream size : 145 MiB (10%)
Alignment : Split accross interleaves
Interleave, duration : 40 ms (1.00 video frame)
Interleave, preload duration : 500 ms[/center]

Скриншоты:



Белые Волки / Weisse Wolfe (1969) DVDRip
#777Русское название: Белые Волки
Оригинальное название: Weisse Wolfe
Cтрана: Югославия,Германия (ГДР)
Год выпуска: 1969
Жанр: Драма, Вестерн

Описание фильма:
Вождь племени дакота Зоркий Сокол, его жена Вороново Крыло и два воина - единственные оставшиеся в живых из всего племени. Они укрываются в горах Блэк-Хиллс. Они хотят присоединиться к группе племен шайеннов, которую возглавляет вождь Маленький Волк. По пути к шайеннам Вороново Крыло коварно убивают белые бандиты. Зоркий Сокол клянется отомстить и отправляется в Тэнглвуд, где, как он подозревает, находится убийца его жены, бандит Башан, прислужник горнопромышленника Харрингтона. Он встречается с честным шерифом Паттерсоном, который готов ему помочь. Вместе они пытаются изобличить Башана и доказать городу, что именно Башан - виновник многочисленных преступлений, происходящих в Тэнглвуде. Однако жители города давно уже сдались на милость горнопромышленной компании...

Режиссер: Конрад Петцольт
Актеры: Гойко Митич, Хорст Шульце, Барбара Брыльска, Хольгер Манлих, Слободан Димитриевич, Слободан Велимирович, Хельмут Шрайбер, Фред Дельмаре, Фред Людвиг, Рольф Хоппе

Продолжительность: 01:31:30
Перевод: Дублированный
Язык субтитров: нет



Дата мировой премьеры: 25.06.1969

Видео: AVI (DivX 5)
Битрейт видео: ~1433 Kbps
Размер кадра: 640 x 352
Качество видео: DVDRip
Aудио: AC3, 48.0 KHz, 2ch, 256 Kbps
Сэмпл: Ссылка
General
Complete name : D:\Торренты\ФИЛЬМЫ торента\Gojko Mitic Films\Белые Волки (1969) DVDRip.avi
Format : AVI
Format/Info : Audio Video Interleave
File size : 1.08 GiB
Duration : 1h 31mn
Overall bit rate : 1 697 Kbps

Video
ID : 0
Format : MPEG-4 Visual
Format settings, BVOP : 1
Format settings, QPel : No
Format settings, GMC : No warppoints
Format settings, Matrix : Default (H.263)
Muxing mode : Packed bitstream
Codec ID : DX50
Codec ID/Hint : DivX 5
Duration : 1h 31mn
Bit rate : 1 433 Kbps
Width : 640 pixels
Height : 352 pixels
Display aspect ratio : 16:9
Frame rate : 25.000 fps
Color space : YUV
Chroma subsampling : 4:2:0
Bit depth : 8 bits
Scan type : Progressive
Compression mode : Lossy
Bits/(Pixel*Frame) : 0.254
Stream size : 938 MiB (84%)
Writing library : DivX 5.9.0 Fusion (HiggsBoson) (UTC 2005-01)

Audio
ID : 1
Format : AC-3
Format/Info : Audio Coding 3
Mode extension : CM (complete main)
Codec ID : 2000
Duration : 1h 31mn
Bit rate mode : Constant
Bit rate : 256 Kbps
Channel(s) : 2 channels
Channel positions : Front: L R
Sampling rate : 48.0 KHz
Bit depth : 16 bits
Compression mode : Lossy
Delay relative to video : 16ms
Stream size : 168 MiB (15%)
Alignment : Split accross interleaves
Interleave, duration : 64 ms (1.60 video frames)
Interleave, preload duration : 64 ms[/center]

Скриншоты:



Смертельная ошибка / Todlicher Irrtum (1970) DVDRip
#777Русское название: Смертельная ошибка
Оригинальное название: Todlicher Irrtum
Cтрана: Германия (ГДР)
Год выпуска: 1970
Жанр: Вестерн, Приключения

Описание фильма:
На земле, принадлежащей живущим в резервации индейским племенам шошонов, была обнаружена нефть. Темные дельцы, не имея на то разрешения правительства, начали выкачивать «черное золото», увеличивая свои доходы. Индейцы надеются, что им тоже перепадет что-нибудь. Но они заблуждаются. И вот уже убиты пять из племенных вождей.
Юный вождь Бритая Голова призывает на помощь своего брата Криса, он метис. Крис принимает пост помощника шерифа и пытается разоблачить убийц и махинации компании.Кроме того, в резервацию вот-вот должна прибыть следственная комиссия, приглашенная инженером, который хочет самостоятельно вести свое дело. Глава компании Эллисон обороняется любыми средствами, плетет интриги и под конец организует поджог лагеря нефтяников. Вину за пожар он взваливает на индейцев, чтобы убедить комиссию, что жалоба «краснокожих» ничто иное, как попытка отомстить ему.
Индейцы не могут отстоять свои права, а Крис, как и многие другие, платит жизнью за свою попытку восстановить справедливость.

Режиссер: Конрад Петцольд
Актеры: Гойко Митич, Армин Мюллер-Щталь, Герри Вольф, Аннекатрин Бюргер,Кристина Миколаевская и другие

Продолжительность: 01:33:34
Перевод: Дублированный
Язык субтитров: НЕТ



Дата мировой премьеры: 03.07.1970

Видео: AVI (DivX 5)
Битрейт видео: ~1409 Kbps
Размер кадра: 640 x 288
Качество видео: DVDRip
Aудио: AC3, 48.0 KHz, 2 ch, 256 Kbps
Сэмпл: Ссылка
General
Complete name : D:\Торренты\ФИЛЬМЫ торента\Gojko Mitic Films\Смертельная ошибка (1970) DVDRip.avi
Format : AVI
Format/Info : Audio Video Interleave
File size : 1.09 GiB
Duration : 1h 33mn
Overall bit rate : 1 673 Kbps

Video
ID : 0
Format : MPEG-4 Visual
Format settings, BVOP : 1
Format settings, QPel : No
Format settings, GMC : No warppoints
Format settings, Matrix : Default (H.263)
Muxing mode : Packed bitstream
Codec ID : DX50
Codec ID/Hint : DivX 5
Duration : 1h 33mn
Bit rate : 1 409 Kbps
Width : 640 pixels
Height : 288 pixels
Display aspect ratio : 2.222
Frame rate : 25.000 fps
Color space : YUV
Chroma subsampling : 4:2:0
Bit depth : 8 bits
Scan type : Progressive
Compression mode : Lossy
Bits/(Pixel*Frame) : 0.306
Stream size : 943 MiB (84%)
Writing library : DivX 5.9.0 Fusion (HiggsBoson) (UTC 2005-01)

Audio
ID : 1
Format : AC-3
Format/Info : Audio Coding 3
Mode extension : CM (complete main)
Codec ID : 2000
Duration : 1h 33mn
Bit rate mode : Constant
Bit rate : 256 Kbps
Channel(s) : 2 channels
Channel positions : Front: L R
Sampling rate : 48.0 KHz
Bit depth : 16 bits
Compression mode : Lossy
Delay relative to video : 16ms
Stream size : 171 MiB (15%)
Alignment : Split accross interleaves
Interleave, duration : 64 ms (1.60 video frames)
Interleave, preload duration : 64 ms[/center]

Скриншоты:



Оцеола. Правая рука возмездия / Osceola. Die rechte Hand der Vergeltung (1971) DVDRip
#777Русское название: Оцеола. Правая рука возмездия
Оригинальное название: Osceola. Die rechte Hand der Vergeltung
Cтрана: Германия (ГДР), Болгария, Куба
Год выпуска: 1971
Жанр: Драма, Вестерн

Описание фильма:
Семинолы - единственное индейское племя, не подчинившееся приказу поселиться в резервациях. Они перебрались во Флориду и теперь занимаются там земледелием и скотоводством. Белые же любыми средствами пытались выгнать маленькое племя с плодородных земель Флориды. Плантатор Рейнс готовит коварную операцию по массовому уничтожению индейцев. Оцеоле приходится ступить на тропу войны и взяться за томагавк...

Режиссер: Конрад Петцольт
Актеры: Гойко Митич, Хорст Шульце, Юри Дарие, Карин Уговски, Кати Буш, Пепа Николова, Искра Радева

Продолжительность: 01:36:12
Перевод: Дублированный
Язык субтитров: нет



Дата мировой премьеры: 26.06.1971

Видео: AVI (Xvid)
Битрейт видео: ~1776 Kbps
Размер кадра: 704 x 368
Качество видео: DVDRip
Aудио: MP3, 48.0 KHz, 2 ch, 256 Kbps
Сэмпл: Ссылка
General
Complete name : D:\Торренты\ФИЛЬМЫ торента\Gojko Mitic Films\Оцеола. Правая рука возмездия (1971) DVDRip.avi
Format : AVI
Format/Info : Audio Video Interleave
File size : 1.37 GiB
Duration : 1h 36mn
Overall bit rate : 2 042 Kbps
Writing application : VirtualDubModRus 1.5.10.2 (build 2542/release)
Writing library : VirtualDubMod build 2542/release

Video
ID : 0
Format : MPEG-4 Visual
Format profile : Advanced Simple@L5
Format settings, BVOP : 2
Format settings, QPel : No
Format settings, GMC : No warppoints
Format settings, Matrix : Default (H.263)
Muxing mode : Packed bitstream
Codec ID : XVID
Codec ID/Hint : XviD
Duration : 1h 36mn
Bit rate : 1 776 Kbps
Width : 704 pixels
Height : 368 pixels
Display aspect ratio : 1.913
Frame rate : 25.000 fps
Color space : YUV
Chroma subsampling : 4:2:0
Bit depth : 8 bits
Scan type : Progressive
Compression mode : Lossy
Bits/(Pixel*Frame) : 0.274
Stream size : 1.19 GiB (87%)
Writing library : XviD 1.2.1 (UTC 2008-12-04)

Audio
ID : 1
Format : MPEG Audio
Format version : Version 1
Format profile : Layer 3
Mode : Joint stereo
Codec ID : 55
Codec ID/Hint : MP3
Duration : 1h 36mn
Bit rate mode : Constant
Bit rate : 256 Kbps
Channel(s) : 2 channels
Sampling rate : 48.0 KHz
Compression mode : Lossy
Stream size : 176 MiB (13%)
Alignment : Aligned on interleaves
Interleave, duration : 40 ms (1.00 video frame)
Interleave, preload duration : 504 ms
Writing library : LAME3.97
Encoding settings : -m j -V 4 -q 2 -lowpass 19.7[/center]

Скриншоты:



Текумзе / Tekumze (1972) DVDRip
#777Русское название: Текумзе
Оригинальное название: Tekumze
Cтрана: Германия (ГДР)
Год выпуска: 1972
Жанр: Вестерн, Приключения, Драма

Описание фильма:
Северная Америка, начало 19 столетия. Борьбу индейцев за свои права возглавил молодой вождь Текумзе, воспитанный в семье белого судьи Мэкью. Текумзе стремился объединить разрозненные племена в союз и с этой целью основал Священный город. Предательство друга детства Саймона Мэкью, разрушившего Священный город, подорвало силы индейцев. Поверив английскому генералу Бруку, обещавшему поддержку Англии в образовании независимого индейского государства, Текумзе выступил на его стороне. Но главное сражение индейцам пришлось вести одним: англичане бросили их. Текумзе погиб в бою. Победа осталась за американцами

Режиссер: Ханс Кратерт
Актеры: Гойко Митич, Рольф Ремер,Аннекатрин Бюргер, Леон Немчик, Мечислав Каленик, Милан Бели

Продолжительность: 01:27:18
Перевод: Дублированный
Язык субтитров: нет



Дата мировой премьеры: 01.07.1972

Видео: AVI (DivX 5)
Битрейт видео: ~1528 Kbps
Размер кадра: 640 x 288
Качество видео: DVDRip
Aудио: AC3, 48.0 KHz, 2 ch, 256 Kbps
Сэмпл: Ссылка
General
Complete name : D:\Торренты\ФИЛЬМЫ торента\Gojko Mitic Films\Текумзе (1972) DVDRip.avi
Format : AVI
Format/Info : Audio Video Interleave
File size : 1.09 GiB
Duration : 1h 27mn
Overall bit rate : 1 792 Kbps

Video
ID : 0
Format : MPEG-4 Visual
Format settings, BVOP : 1
Format settings, QPel : No
Format settings, GMC : No warppoints
Format settings, Matrix : Default (H.263)
Muxing mode : Packed bitstream
Codec ID : DX50
Codec ID/Hint : DivX 5
Duration : 1h 27mn
Bit rate : 1 528 Kbps
Width : 640 pixels
Height : 288 pixels
Display aspect ratio : 2.222
Frame rate : 25.000 fps
Color space : YUV
Chroma subsampling : 4:2:0
Bit depth : 8 bits
Scan type : Progressive
Compression mode : Lossy
Bits/(Pixel*Frame) : 0.332
Stream size : 954 MiB (85%)
Writing library : DivX 5.9.0 Fusion (HiggsBoson) (UTC 2005-01)

Audio
ID : 1
Format : AC-3
Format/Info : Audio Coding 3
Mode extension : CM (complete main)
Codec ID : 2000
Duration : 1h 27mn
Bit rate mode : Constant
Bit rate : 256 Kbps
Channel(s) : 2 channels
Channel positions : Front: L R
Sampling rate : 48.0 KHz
Bit depth : 16 bits
Compression mode : Lossy
Stream size : 160 MiB (14%)
Alignment : Split accross interleaves
Interleave, duration : 64 ms (1.60 video frames)
Interleave, preload duration : 64 ms[/center]

Скриншоты:



Апачи / Apachen (1973) DVDRip
#777Русское название: Апачи
Оригинальное название: Apachen
Cтрана: СССР, Румыния, Германия (ГДР)
Год выпуска: 1973
Жанр: Вестерн

Описание фильма:
Действие фильма происходит в пограничной области между США и Мексикой в 1848 году, когда Мексике пришлось уступить Америке территорию нынешних штатов Аризона, Нью-Мексико, Юта и Колорадо. Апачи племени мимбреньо в "Новой Испании" заключают с мексиканской горнопромышленной компанией договор, позволяющий мексиканцам производить разведочные работы. Однако залежи благородных металлов привлекают сюда и американского геолога Джонсона. Он зарится на эти земли и расстреливает в селении Санта-Рита индейцев из армейской пушки. Кроме того, он получает огромную премию за их скальпы. Лишь немногие из индейцев остаются в живых и скрываются, в их числе вождь Ульзана. Законы племени требуют покарать убийцу. Смогут ли они отомстить...?

Режиссер: Готфрид Колдитс
Актеры: Гойко Митич, Милан Бели, Колея Реуту, Леон Немчук, Герри Вольф

Продолжительность: 01:27:13
Перевод: Дублированный
Язык субтитров: нет



Дата мировой премьеры: 29.06.1973

Видео: AVI (Xvid)
Битрейт видео: ~2063 Kbps
Размер кадра: 720 x 384
Качество видео: DVDRip
Aудио: AC3, 48.0 KHz, 2 ch, 192 Kbps
Сэмпл: Ссылка
General
Complete name : D:\Торренты\ФИЛЬМЫ торента\Gojko Mitic Films\Апачи (1973) DVDRip.avi
Format : AVI
Format/Info : Audio Video Interleave
File size : 1.38 GiB
Duration : 1h 27mn
Overall bit rate : 2 265 Kbps

Video
ID : 0
Format : MPEG-4 Visual
Format profile : Advanced Simple@L5
Format settings, BVOP : 1
Format settings, QPel : No
Format settings, GMC : No warppoints
Format settings, Matrix : Custom
Codec ID : XVID
Codec ID/Hint : XviD
Duration : 1h 27mn
Bit rate : 2 063 Kbps
Width : 720 pixels
Height : 384 pixels
Display aspect ratio : 1.875
Frame rate : 25.000 fps
Color space : YUV
Chroma subsampling : 4:2:0
Bit depth : 8 bits
Scan type : Progressive
Compression mode : Lossy
Bits/(Pixel*Frame) : 0.298
Stream size : 1.25 GiB (91%)
Writing library : XviD 1.2.0.dev47 (UTC 2006-11-01)

Audio
ID : 1
Format : AC-3
Format/Info : Audio Coding 3
Mode extension : CM (complete main)
Codec ID : 2000
Duration : 1h 27mn
Bit rate mode : Constant
Bit rate : 192 Kbps
Channel(s) : 2 channels
Channel positions : Front: L R
Sampling rate : 48.0 KHz
Bit depth : 16 bits
Compression mode : Lossy
Delay relative to video : 16ms
Stream size : 120 MiB (8%)
Alignment : Split accross interleaves
Interleave, duration : 40 ms (1.00 video frame)
Interleave, preload duration : 500 ms[/center]

Скриншоты:



Ульзана / Ulzana (1974) DVDRip
#777Русское название: Ульзана
Оригинальное название: Ulzana
Cтрана: СССР, Румыния, Германия (ГДР)
Год выпуска: 1974
Жанр: Вестерн, Драма, Мелодрама

Описание фильма:
Аризона, конец сороковых годов 19-го столетия. Индейцы племени мимбреньо стали земледельцами, они построили оросительное сооружение и празднуют свой первый праздник урожая. Урожай выдался богатый, и они собираются продать излишки. Генерал Крук, которого индейцы называют Серым Волком, обещает скупать излишки урожая. Это сулит бледнолицым коммерсантам, убытки в миллионы долларов. Они переходят в наступление и взрывают оросительное сооружение. Вождь Ульзана ранен, белые считают его погибшим и собираются загнать индейцев мимбреньо в бесплодную резервацию. Индейцы сбегают в Мексику, в горы Сьерра Мадре, но жена Ульзаны, Леона, попадает в руки солдатам. Когда Ульзана пытается освободить Леону, ее убивают.

Режиссер: Готтфрид Кольдиц
Актеры: Гойко Митич, Рената Блюме, Амза Пеля, Ролф Хоппе, Коля Реуту

Продолжительность: 01:25:16
Перевод: Дублированный
Язык субтитров: нет



Дата мировой премьеры: 16.05.1974

Видео: AVI (DivX 5)
Битрейт видео: ~1572 Kbps
Размер кадра: 640 x 304
Качество видео: DVDRip
Aудио: AC3, 48.0 KHz, 2 ch, 256 Kbps
Сэмпл: Ссылка
General
Complete name : D:\Торренты\ФИЛЬМЫ торента\Gojko Mitic Films\Ульзана (1974) DVDRip.avi
Format : AVI
Format/Info : Audio Video Interleave
File size : 1.09 GiB
Duration : 1h 25mn
Overall bit rate : 1 836 Kbps

Video
ID : 0
Format : MPEG-4 Visual
Format settings, BVOP : 1
Format settings, QPel : No
Format settings, GMC : No warppoints
Format settings, Matrix : Default (H.263)
Muxing mode : Packed bitstream
Codec ID : DX50
Codec ID/Hint : DivX 5
Duration : 1h 25mn
Bit rate : 1 572 Kbps
Width : 640 pixels
Height : 304 pixels
Display aspect ratio : 2.2:1
Frame rate : 25.000 fps
Color space : YUV
Chroma subsampling : 4:2:0
Bit depth : 8 bits
Scan type : Progressive
Compression mode : Lossy
Bits/(Pixel*Frame) : 0.323
Stream size : 959 MiB (86%)
Writing library : DivX 5.9.0 Fusion (HiggsBoson) (UTC 2005-01)

Audio
ID : 1
Format : AC-3
Format/Info : Audio Coding 3
Mode extension : CM (complete main)
Codec ID : 2000
Duration : 1h 25mn
Bit rate mode : Constant
Bit rate : 256 Kbps
Channel(s) : 2 channels
Channel positions : Front: L R
Sampling rate : 48.0 KHz
Bit depth : 16 bits
Compression mode : Lossy
Stream size : 156 MiB (14%)
Alignment : Split accross interleaves
Interleave, duration : 64 ms (1.60 video frames)
Interleave, preload duration : 64 ms[/center]

Скриншоты:



Братья по крови / Blutsbruder (1975) DVDRip
#777Русское название: Братья по крови
Оригинальное название: Blutsbruder
Cтрана: Германия (ГДР)
Год выпуска: 1975
Жанр: Вестерн, Драма

Описание фильма:
Индейская деревня подвергается нападению армией США . Жители безжалостно уничтожаются. Один из солдат по имени Хармоника, испытывая отвращение к убийству невинных женщин и детей, решает оставить армию. Он становится соплеменником индейцев и влюбляется в индейскую женщину, а самый храбрый индеец по имени Твердая Скала становится его другом.

Режиссер: Вернер Валльрот
Актеры: Дин Рид, Гойко Митич, Гизела Фройденберг, Йорг Панкнин, Корнел Испас, Тома Димитру, Юрие Дарие, Зина Фидлер-Энгель, Маня Александру

Продолжительность: 01:18:10
Перевод: Дублированный
Язык субтитров: нет



Дата мировой премьеры: 26.06.1975

Видео: AVI (Xvid)
Битрейт видео: ~1009 Kbps
Размер кадра: 640 x 352
Качество видео: DVDRip
Aудио: MPEG Audio, 48.0 KHz, 2 ch, 192 Kbps
Сэмпл: Ссылка
General
Complete name : D:\Торренты\ФИЛЬМЫ торента\Gojko Mitic Films\Братья по крови (1975) DVDRip.avi
Format : AVI
Format/Info : Audio Video Interleave
File size : 677 MiB
Duration : 1h 18mn
Overall bit rate : 1 211 Kbps
Writing application : VirtualDubMod 1.5.10.1 (build 2439/release)
Writing library : VirtualDub build 24415/release

Video
ID : 0
Format : MPEG-4 Visual
Format profile : Advanced Simple@L5
Format settings, BVOP : 2
Format settings, QPel : No
Format settings, GMC : No warppoints
Format settings, Matrix : Default (H.263)
Muxing mode : Packed bitstream
Codec ID : XVID
Codec ID/Hint : XviD
Duration : 1h 18mn
Bit rate : 1 009 Kbps
Width : 640 pixels
Height : 352 pixels
Display aspect ratio : 16:9
Frame rate : 25.000 fps
Color space : YUV
Chroma subsampling : 4:2:0
Bit depth : 8 bits
Scan type : Progressive
Compression mode : Lossy
Bits/(Pixel*Frame) : 0.179
Stream size : 564 MiB (83%)
Writing library : XviD 1.0.1 (UTC 2004-06-05)

Audio
ID : 1
Format : MPEG Audio
Format version : Version 1
Format profile : Layer 2
Codec ID : 50
Duration : 1h 18mn
Bit rate mode : Constant
Bit rate : 192 Kbps
Channel(s) : 2 channels
Sampling rate : 48.0 KHz
Compression mode : Lossy
Stream size : 107 MiB (16%)
Alignment : Split accross interleaves
Interleave, duration : 40 ms (1.00 video frame)
Interleave, preload duration : 500 ms[/center]

Скриншоты:



Северино / Severino (1978) DVDRip
#777Русское название: Северино
Оригинальное название: Severino
Cтрана: Германия (ГДР)
Год выпуска: 1978
Жанр: Вестерн, Драма

Описание фильма:
Северино, южноамериканский индеец племени манзанеро, возвращается в родную деревню после 10-летнего отсутствия, чтобы забрать с собой своего младшего брата. Он работал у белых, накопил денег и теперь собирается купить земельный участок на Севере, чтобы начать новую жизнь.
Но в его родной деревне драматически обострилась ситуация. Кто-то угоняет скот, нападает на индейцев и на белых поселенцев, явно желая натравить их друг на друга. Северино остается, он хочет добиться, чтобы индейцы мирно жили рядом с белыми…

Режиссер: Клаус Добберке
Актеры: Гойко Митич, Виолетта Андреи, Константин Фугасин, Мирче Ангелеску, Эмануил Петру, Леон Немчик, Хельмут Шрайбер, Томас Волф

Продолжительность: 01:13:30
Перевод: Профессиональный (одноголосый)
Язык субтитров: нет



Дата мировой премьеры: 30.06.1978

Видео: AVI (DivX 5)
Битрейт видео: ~1194 Kbps
Размер кадра: 640 x 352
Качество видео: DVDRip
Aудио: MP3, 48.0 KHz, 2 ch, 128 Kbps
Сэмпл: Ссылка
General
Complete name : D:\Торренты\ФИЛЬМЫ торента\Gojko Mitic Films\Северино (1978) DVDRip.avi
Format : AVI
Format/Info : Audio Video Interleave
File size : 700 MiB
Duration : 1h 13mn
Overall bit rate : 1 332 Kbps
Writing application : VirtualDubMod 1.5.10.1 (build 2366/release)
Writing library : VirtualDubMod build 2366/release

Video
ID : 0
Format : MPEG-4 Visual
Format settings, BVOP : 2
Format settings, QPel : No
Format settings, GMC : 2 warppoints
Format settings, Matrix : Default (H.263)
Codec ID : DX50
Codec ID/Hint : DivX 5
Duration : 1h 13mn
Bit rate : 1 194 Kbps
Width : 640 pixels
Height : 352 pixels
Display aspect ratio : 16:9
Frame rate : 25.000 fps
Color space : YUV
Chroma subsampling : 4:2:0
Bit depth : 8 bits
Scan type : Progressive
Compression mode : Lossy
Bits/(Pixel*Frame) : 0.212
Stream size : 628 MiB (90%)
Writing library : DivX 1328m

Audio
ID : 1
Format : MPEG Audio
Format version : Version 1
Format profile : Layer 3
Codec ID : 55
Codec ID/Hint : MP3
Duration : 1h 13mn
Bit rate mode : Constant
Bit rate : 128 Kbps
Channel(s) : 2 channels
Sampling rate : 48.0 KHz
Compression mode : Lossy
Stream size : 67.3 MiB (10%)
Alignment : Aligned on interleaves
Interleave, duration : 40 ms (1.00 video frame)
Interleave, preload duration : 504 ms
Writing library : LAME3.93[/center]

Скриншоты:



Вождь Белое Перо / Der Scout (1983) DVDRip
#777Русское название: Вождь Белое Перо
Оригинальное название: Der Scout
Cтрана: Германия (ГДР), Монголия
Год выпуска: 1983
Жанр: Приключения, Вестерн, Драма

Описание фильма:
Солдаты североамериканской регулярной армии отняли у индейского племени табун лошадей – жизненно необходимое достояние. Самим индейцам в ультимативной форме предложено переселиться на гиблые земли – в резервацию. Старейшины племени были близки к тому, чтобы склониться перед неизбежностью, тем более что закон предков запрещает им поднимать оружие против кого-либо. И лишь молодой вождь Белое Перо решается вступить с поработителями в отчаянную борьбу, не пользуясь огнестрельным оружием, а полагаясь только на собственную смелость, готовность к риску да на индейский нож.

Режиссер: Конрад Петцольд
Актеры: Гойко Митич, Назагдорджийн Батцецег, Клаус Манхен, Милан Бели, Гизо Вайсбах, Юрген Хайнрих, Уве Еллинек и др.

Продолжительность: 01:14:48
Перевод: Дублированный
Язык субтитров: нет



Дата мировой премьеры: 17.05.1983

Видео: AVI (Xvid)
Битрейт видео: ~2251 Kbps
Размер кадра: 640 x 368
Качество видео: DVDRip
Aудио: AC3, 48.0 KHz, 2 ch, 256 Kbps
Сэмпл: Ссылка
General
Complete name : D:\Торренты\ФИЛЬМЫ торента\Gojko Mitic Films\Вождь Белое Перо (1983) DVDRip.avi
Format : AVI
Format/Info : Audio Video Interleave
File size : 1.31 GiB
Duration : 1h 14mn
Overall bit rate : 2 516 Kbps

Video
ID : 0
Format : MPEG-4 Visual
Format profile : Advanced Simple@L5
Format settings, BVOP : 1
Format settings, QPel : No
Format settings, GMC : No warppoints
Format settings, Matrix : Default (MPEG)
Muxing mode : Packed bitstream
Codec ID : XVID
Codec ID/Hint : XviD
Duration : 1h 14mn
Bit rate : 2 251 Kbps
Width : 640 pixels
Height : 368 pixels
Display aspect ratio : 16:9
Frame rate : 25.000 fps
Color space : YUV
Chroma subsampling : 4:2:0
Bit depth : 8 bits
Scan type : Progressive
Compression mode : Lossy
Bits/(Pixel*Frame) : 0.382
Stream size : 1.18 GiB (89%)
Writing library : XviD 1.0.3 (UTC 2004-12-20)

Audio
ID : 1
Format : AC-3
Format/Info : Audio Coding 3
Mode extension : CM (complete main)
Codec ID : 2000
Duration : 1h 14mn
Bit rate mode : Constant
Bit rate : 256 Kbps
Channel(s) : 2 channels
Channel positions : Front: L R
Sampling rate : 48.0 KHz
Bit depth : 16 bits
Compression mode : Lossy
Delay relative to video : 24ms
Stream size : 137 MiB (10%)
Alignment : Split accross interleaves
Interleave, duration : 40 ms (1.00 video frame)
Interleave, preload duration : 500 ms[/center]

Скриншоты:

Правила, инструкции, FAQ!!!
Торрент  Добавлен [29 ноя 2013, 21:01] Скачать торрент Магнет ссылка
Скачать торрент
[ Размер 71.17 КБ / Просмотров 564 ]

Статус  
 
Размер  13.87 ГБ
Приватный: Нет (DHT включён)
.torrent скачан  14
Как залить торрент? | Как скачать Torrent? | Ошибка в торренте? Качайте магнет  


     Отправить личное сообщение
   
Страница 1 из 1
Показать сообщения за:  Поле сортировки  
Начать новую тему Ответить на тему

   Похожие торренты   Автор   Ответы   Просмотры   Последнее сообщение 
В этой теме нет новых непрочитанных сообщений. Скачать торрент Проверен Коллекция. Полное собрание фильмов про Виннету и его друга Олд Шатерхенда (Верная Рука) (1962-1998) DVDRip, VHSRip

в форуме Вестерн, Размер: 14.76 ГБ, Здоровье: 100%

Гость

0
651|89

3044
66

26 дек 2014, 19:51

Гость Перейти к последнему сообщению

В этой теме нет новых непрочитанных сообщений. Скачать торрент Проверен Гардемарины (1987 - 1992) [H.264] DVDRip (полное собрание фильмов)

в форуме Приключения, Размер: 8.41 ГБ, Здоровье: 100%

Anonymous

0
98|10

1446
8

05 июл 2014, 23:36

Anonymous Перейти к последнему сообщению

В этой теме нет новых непрочитанных сообщений. Скачать торрент Проверен Золотая коллекция фильмов киностудии Центрнаучфильм: 80 лет (1936-2013) DVDRip

в форуме Документальные, Размер: 2.19 ГБ, Здоровье: 100%

Anonymous

0
51|40

376
47

07 сен 2014, 09:46

Anonymous Перейти к последнему сообщению

В этой теме нет новых непрочитанных сообщений. Скачать торрент Вальтер Скотт | Полное собрание сочинений в 20 томах [1960-1965] [FB2]

в форуме Собрания сочинений, Размер: 24.65 МБ, Здоровье: 100%

Anonymous

0
888|34

786
75

10 окт 2013, 22:11

Anonymous Перейти к последнему сообщению

В этой теме нет новых непрочитанных сообщений. Скачать торрент Проверен Вальтер Скотт - Полное собрание сочинений [20 томов] (1960-1965) PDF, DJVU

в форуме Собрания сочинений, Размер: 579.78 МБ, Здоровье: 100%

Anonymous

0
344|47

659
49

14 апр 2016, 23:08

Anonymous Перейти к последнему сообщению



Сейчас этот форум просматривают: нет зарегистрированных пользователей и гости: 0


Вы не можете начинать темы
Вы не можете отвечать на сообщения
Вы не можете редактировать свои сообщения
Вы не можете удалять свои сообщения
Вы не можете добавлять вложения

Перейти:  
Ресурс не предоставляет электронные версии произведений, а занимается лишь коллекционированием и каталогизацией ссылок, присылаемых и публикуемых на форуме нашими читателями. Если вы являетесь правообладателем какого-либо представленного материала и не желаете чтобы ссылка на него находилась в нашем каталоге, свяжитесь с нами и мы незамедлительно удалим её. Файлы для обмена на трекере предоставлены пользователями сайта, и администрация не несёт ответственности за их содержание. Просьба не заливать файлы, защищенные авторскими правами, а также файлы нелегального содержания!
cron