На всех торрентах на трекере установлена скидка на скачивание в размере 100 процентов(а).
 Возможность скачивания торрента НЕ зависит от ограничений при низком ратио, низком аплоаде, требуемом ратио или требуемом аплоаде.


Начать новую тему Ответить на тему
Статистика раздачи
Размер: 3.29 ГБ | Добавлен: 21 окт 2014, 20:57 | Скачали: 1
Сидеров: 77  [0 байт/сек]    Личеров: 26  [0 байт/сек]
Пред. тема | След. тема 

Автор
Сообщение

СообщениеДобавлено: 21 окт 2014, 20:57 

Ответить с цитатой 

Клуб самоубийц, или Приключения титулованной особы /
Приключения принца Флоризеля (3 серии)


Жанр: иронический детектив
Год выпуска: 1979
Продолжительность: 01:03:36 + 01:03:25 + 01:03:27

Режиссёр: Евгений Татарский

В ролях: Олег Даль, Донатас Банионис (озвучание - Александр Демьяненко), Игорь Дмитриев, Любовь Полищук, Виталий Ильин, Игорь Янковский, Асхаб Абакаров, Елена Соловей, Борис Новиков, Иван Мокеев, Владимир Шевельков, Михаил Пуговкин, Владимир Басов, Гелий Сысоев, Валерий Матвеев, Евгений Киндинов, Елена Цыплакова, Мария Белкина, Михаил Бирбраер, Вячеслав Васильев, Валентин Голубенко, Кирилл Гунн, Валерий Доронин, Евгений Иловайский, Тариел Кения, Николай Кузьмин, Владимир Лосев, Любовь Малиновская, Валерий Миронов, Галина Мочалова, Анатолий Подшивалов, Илья Резник (озвучание - Лев Милиндер), Галина Самохина, Анатолий Столбов, Валерий Филонов, Валерий Черняев

Описание: Жизнь так скучна порой, что развлечением становится даже спасение бедного художника Перкинса, пожелавшего расстаться с жизнью, бросившись в реку с камнем на шее. Перкинс и приводит главу небольшого государства - скучающего наследного принца Бакардии Флоризеля - и его верного друга, полковника Джеральдина в некий клуб самоубийц, возглавляемый таинственным Председателем. Каждый, вступивший в этот клуб - всего за 40 фунтов, - может "умереть, как джентльмен"...

Доп. информация: По мотивам циклов повестей "Клуб самоубийц" и "Алмаз раджи" Роберта Льюиса Стивенсона.
Сценарий: Эдгар Дубровский
Оператор: Константин Рыжов
Художник: Исаак Каплан
Композитор: Надежда Симонян
Текст романса: Илья Резник
Вокал: Елена Соловей
Ограничения на просмотр: для любой зрительской аудитории



Качество видео: SATRip
Формат видео: AVI

Видео:
1 серия - 704x528 (1.33:1), 25 fps, XviD 1.2.1, 2235 kbps avg, 0.24 bit/pixel
2 серия - 704x528 (1.33:1), 25 fps, XviD 1.2.1, 2245 kbps avg, 0.24 bit/pixel
3 серия - 704x528 (1.33:1), 25 fps, XviD 1.2.1. 2245 kbps avg, 0.24 bit/pixel
Аудио: 48 kHz, AC3 Dolby Digital, 2 ch (mono), 224.00 kbps avg
Полное имя : \Florizel\Part 1.avi
Формат : AVI
Формат/Информация : Audio Video Interleave
Размер файла : 1,10 Гбайт
Продолжительность : 1 ч. 3 м.
Общий поток : 2469 Кбит/сек
Программа кодирования : VirtualDubMod 1.5.10.3 (build 2550/release)
Библиотека кодирования : VirtualDubMod build 2550/release

Видео
Идентификатор : 0
Формат : MPEG-4 Visual
Профиль формата : Advanced Simple@L5
Параметр BVOP формата : 1
Параметр QPel формата : Нет
Параметр GMC формата : Без точки перехода
Параметр матрицы формата : Выборочная
Идентификатор кодека : XVID
Идентификатор кодека/Подсказка : XviD
Продолжительность : 1 ч. 3 м.
Битрейт : 2235 Кбит/сек
Ширина : 704 пикселя
Высота : 528 пикселей
Соотношение сторон : 4:3
Частота кадров : 25,000 кадров/сек
Цветовое пространство : YUV
Субдискретизация насыщенности : 4:2:0
Битовая глубина : 8 бит
Тип развёртки : Прогрессивная
Метод сжатия : С потерями
Бит/(Пиксели*Кадры) : 0.240
Размер потока : 1017 Мбайт (91%)
Библиотека кодирования : XviD 1.2.1 (UTC 2008-12-04)

Аудио
Идентификатор : 1
Формат : AC-3
Формат/Информация : Audio Coding 3
Расширение режима : CM (complete main)
Параметр Endianness формата : Big
Идентификатор кодека : 2000
Продолжительность : 1 ч. 3 м.
Вид битрейта : Постоянный
Битрейт : 224 Кбит/сек
Каналы : 2 канала
Расположение каналов : Front: L R
Частота : 48,0 КГц
Битовая глубина : 16 бит
Метод сжатия : С потерями
Размер потока : 102 Мбайт (9%)
Выравнивание : Разделение по промежуткам
Продолжительность промежутка : 40 мс. (1,00 видеокадр)
Время предзагрузки промежутка : 500 мс.

Полное имя : \Florizel\Part 2.avi
Формат : AVI
Формат/Информация : Audio Video Interleave
Размер файла : 1,10 Гбайт
Продолжительность : 1 ч. 3 м.
Общий поток : 2479 Кбит/сек
Программа кодирования : VirtualDubMod 1.5.10.3 (build 2550/release)
Библиотека кодирования : VirtualDubMod build 2550/release

Видео
Идентификатор : 0
Формат : MPEG-4 Visual
Профиль формата : Advanced Simple@L5
Параметр BVOP формата : 1
Параметр QPel формата : Нет
Параметр GMC формата : Без точки перехода
Параметр матрицы формата : Выборочная
Идентификатор кодека : XVID
Идентификатор кодека/Подсказка : XviD
Продолжительность : 1 ч. 3 м.
Битрейт : 2245 Кбит/сек
Ширина : 704 пикселя
Высота : 528 пикселей
Соотношение сторон : 4:3
Частота кадров : 25,000 кадров/сек
Цветовое пространство : YUV
Субдискретизация насыщенности : 4:2:0
Битовая глубина : 8 бит
Тип развёртки : Прогрессивная
Метод сжатия : С потерями
Бит/(Пиксели*Кадры) : 0.242
Размер потока : 1018 Мбайт (91%)
Библиотека кодирования : XviD 1.2.1 (UTC 2008-12-04)

Аудио
Идентификатор : 1
Формат : AC-3
Формат/Информация : Audio Coding 3
Расширение режима : CM (complete main)
Параметр Endianness формата : Big
Идентификатор кодека : 2000
Продолжительность : 1 ч. 3 м.
Вид битрейта : Постоянный
Битрейт : 224 Кбит/сек
Каналы : 2 канала
Расположение каналов : Front: L R
Частота : 48,0 КГц
Битовая глубина : 16 бит
Метод сжатия : С потерями
Размер потока : 102 Мбайт (9%)
Выравнивание : Разделение по промежуткам
Продолжительность промежутка : 40 мс. (1,00 видеокадр)
Время предзагрузки промежутка : 500 мс.

Полное имя : \Florizel\Part 3.avi
Формат : AVI
Формат/Информация : Audio Video Interleave
Размер файла : 1,10 Гбайт
Продолжительность : 1 ч. 3 м.
Общий поток : 2479 Кбит/сек
Программа кодирования : VirtualDubMod 1.5.10.3 (build 2550/release)
Библиотека кодирования : VirtualDubMod build 2550/release

Видео
Идентификатор : 0
Формат : MPEG-4 Visual
Профиль формата : Advanced Simple@L5
Параметр BVOP формата : 1
Параметр QPel формата : Нет
Параметр GMC формата : Без точки перехода
Параметр матрицы формата : Выборочная
Идентификатор кодека : XVID
Идентификатор кодека/Подсказка : XviD
Продолжительность : 1 ч. 3 м.
Битрейт : 2245 Кбит/сек
Ширина : 704 пикселя
Высота : 528 пикселей
Соотношение сторон : 4:3
Частота кадров : 25,000 кадров/сек
Цветовое пространство : YUV
Субдискретизация насыщенности : 4:2:0
Битовая глубина : 8 бит
Тип развёртки : Прогрессивная
Метод сжатия : С потерями
Бит/(Пиксели*Кадры) : 0.242
Размер потока : 1019 Мбайт (91%)
Библиотека кодирования : XviD 1.2.1 (UTC 2008-12-04)

Аудио
Идентификатор : 1
Формат : AC-3
Формат/Информация : Audio Coding 3
Расширение режима : CM (complete main)
Параметр Endianness формата : Big
Идентификатор кодека : 2000
Продолжительность : 1 ч. 3 м.
Вид битрейта : Постоянный
Битрейт : 224 Кбит/сек
Каналы : 2 канала
Расположение каналов : Front: L R
Частота : 48,0 КГц
Битовая глубина : 16 бит
Метод сжатия : С потерями
Размер потока : 102 Мбайт (9%)
Выравнивание : Разделение по промежуткам
Продолжительность промежутка : 40 мс. (1,00 видеокадр)
Время предзагрузки промежутка : 500 мс.
загрузка...
Правила, инструкции, FAQ!!!
Торрент  Добавлен [21 окт 2014, 20:57] Скачать торрент Магнет ссылка
Скачать торрент
[ Размер 17.06 КБ / Просмотров 33 ]

Статус
Проверен 
 
Размер  3.29 ГБ
Приватный: Нет (DHT включён)
.torrent скачан  1
Как залить торрент? | Как скачать Torrent? | Ошибка в торренте? Качайте магнет  


     Отправить личное сообщение
   
Страница 1 из 1
Показать сообщения за:  Поле сортировки  
Начать новую тему Ответить на тему

   Похожие торренты   Автор   Ответы   Просмотры   Последнее сообщение 
В этой теме нет новых непрочитанных сообщений. Скачать торрент Проверен Иронический детектив - Галина Полынская - Что у принца под короной? [2007, fb2]

в форуме Детективы и Боевики, Размер: 620.81 КБ, Здоровье: 100%

Anonymous

0
8|3

59
1

08 сен 2016, 20:51

Anonymous Перейти к последнему сообщению

В этой теме нет новых непрочитанных сообщений. Скачать торрент Проверен Пропавшая экспедиция (Вениамин Дорман) [1975, детектив, драма, приключения, SATRip]

в форуме Кино СССР, Размер: 2.18 ГБ, Здоровье: 100%

Anonymous

0
33|11

507
7

21 окт 2014, 21:01

Anonymous Перейти к последнему сообщению

В этой теме нет новых непрочитанных сообщений. Скачать торрент Проверен Приключения Маленького Мука (Елизавета Кимягарова) [1983, Детский Приключения, SATRip]

в форуме Детское, Семейное кино, Размер: 1.09 ГБ, Здоровье: 100%

Anonymous

0
67|18

193
1

11 апр 2016, 23:38

Anonymous Перейти к последнему сообщению

В этой теме нет новых непрочитанных сообщений. Скачать торрент Проверен Возьми меня с собой (Борис Рыцарев) [1979, Мелодрама, приключения, SATRip]

в форуме Детское, Семейное кино, Размер: 1.09 ГБ, Здоровье: 100%

Гость

0
19|5

127
0

11 апр 2016, 23:37

Гость Перейти к последнему сообщению

В этой теме нет новых непрочитанных сообщений. Скачать торрент [SERIAL] Шерлок Холмс / Серии: 1-16 из 16 (1-8 из 8) (Андрей Кавун) [2013г, Россия, триллер, детектив, приключения, SATRip][MP4, 640x]

в форуме Видео для смартфонов и КПК, Размер: 5.79 ГБ, Здоровье: 30%

Anonymous

0
3|10

113
2

30 янв 2014, 06:46

Anonymous Перейти к последнему сообщению



Сейчас этот форум просматривают: нет зарегистрированных пользователей и гости: 0


Вы не можете начинать темы
Вы не можете отвечать на сообщения
Вы не можете редактировать свои сообщения
Вы не можете удалять свои сообщения
Вы не можете добавлять вложения

Перейти:  
Ресурс не предоставляет электронные версии произведений, а занимается лишь коллекционированием и каталогизацией ссылок, присылаемых и публикуемых на форуме нашими читателями. Если вы являетесь правообладателем какого-либо представленного материала и не желаете чтобы ссылка на него находилась в нашем каталоге, свяжитесь с нами и мы незамедлительно удалим её. Файлы для обмена на трекере предоставлены пользователями сайта, и администрация не несёт ответственности за их содержание. Просьба не заливать файлы, защищенные авторскими правами, а также файлы нелегального содержания!
cron