На всех торрентах на трекере установлена скидка на скачивание в размере 100 процентов(а).
 Возможность скачивания торрента НЕ зависит от ограничений при низком ратио, низком аплоаде, требуемом ратио или требуемом аплоаде.


Начать новую тему Ответить на тему
Статистика раздачи
Размер: 2.63 ГБ | Добавлен: 21 окт 2014, 20:59 | Скачали: 0
Сидеров: 12  [0 байт/сек]    Личеров: 72  [0 байт/сек]
Пред. тема | След. тема 

Автор
Сообщение

СообщениеДобавлено: 21 окт 2014, 20:59 

Ответить с цитатой 

Женщины, которым повезло (1 серия из 5)
Раздача ведётся путём добавления новых серий
Жанр: драма
Год выпуска: 1989
Продолжительность: 01:13:52

Режиссёр: Владимир Храмов, Марк Орлов

В ролях: Вера Глаголева, Янина Лисовская, Евгения Глушенко, Елена Проклова, Ольга Остроумова, Алексей Жарков, Андрей Толубеев, Михаил Филиппов, Анатолий Грачёв, Александр Фатюшин, Людмила Соловьёва, Антонина Дмитриева, Майя Булгакова, Александр Граве, Валентина Малявина, Валентина Владимирова, Николай Засухин, Александр Мохов, Любовь Соколова, Виктор Шульгин, Евгений Лазарев, Юрий Кочнев (II), Ирина Гордина, Александр Голобородько, Михаил Панюков (II), Виктор Сергачёв, Валентина Титова, Александр Вокач, Татьяна Курьянова, Елена Гашева, Авангард Леонтьев, Люсьена Овчинникова

Описание: Действие фильма разворачивается в послевоенные десятилетия и рассказывает о судьбах бывших участниц Великой Отечественной войны - Веры Боглюк, Нины Верховской, Дуси Королевой, Зины Скворцовой и Наташи Дружининой.
Их пятеро - молодых, красивых женщин, выживших в аду войны и дошедших до Берлина. На фронте они были снайперами, а в мирной жизни им нужно просто найти свое место, любовь и счастье. И главное - не растерять эту настоящую, закаленную в боях дружбу...

Каждая из пяти серий посвящена рассказу о судьбе женщин: "Вера", "Нина", "Дуся", "Зина", "Наташа".


Качество видео: DVB
Формат видео: MPEG-PS

Видео: MPEG Video, 704(768)х576 (4:3), 25,000 кадр/сек, 4840 Кбит/сек
Аудио: MPEG Audio, 48,0 КГц, 2 канала, 192 Кбит/сек
Общее
Полное имя : D:\Torrent\ЖЕНЩИНЫ КОТОРЫМ ПОВЕЗЛО\ЖЕНЩИНЫ КОТОРЫМ ПОВЕЗЛО 1 (ZVEZDA 49).mpg
Формат : MPEG-PS
Размер файла : 2,63 Гбайт
Продолжительность : 1 ч. 13 м.
Режим общего битрейта : Переменный
Общий поток : 5094 Кбит/сек

Видео
Идентификатор : 224 (0xE0)
Формат : MPEG Video
Версия формата : Version 2
Профиль формата : Main@Main
Параметр BVOP формата : Да
Параметр матрицы формата : Выборочная
Параметр GOP формата : Variable
Продолжительность : 1 ч. 13 м.
Вид битрейта : Переменный
Битрейт : 4840 Кбит/сек
Ширина : 704 пикселя
Высота : 576 пикселей
Соотношение сторон : 4:3
Частота кадров : 25,000 кадров/сек
Стандарт вещания : PAL
Цветовое пространство : YUV
Субдискретизация насыщенности : 4:2:0
Битовая глубина : 8 бит
Тип развёртки : Чересстрочная
Порядок развёртки : Верхнее поле первое
Метод сжатия : С потерями
Бит/(Пиксели*Кадры) : 0.477
Временной код первого кадра : 00:00:00:00
Оригинал временного кода : Group of pictures header
Размер потока : 2,48 Гбайт (94%)

Аудио
Идентификатор : 192 (0xC0)
Формат : MPEG Audio
Версия формата : Version 1
Профиль формата : Layer 2
Продолжительность : 1 ч. 13 м.
Вид битрейта : Постоянный
Битрейт : 192 Кбит/сек
Каналы : 2 канала
Частота : 48,0 КГц
Метод сжатия : С потерями
Размер потока : 101 Мбайт (4%)
загрузка...
Правила, инструкции, FAQ!!!
Торрент  Добавлен [21 окт 2014, 20:59] Скачать торрент Магнет ссылка
Скачать торрент
[ Размер 13.72 КБ / Просмотров 77 ]

Статус
Проверен 
 
Размер  2.63 ГБ
Приватный: Нет (DHT включён)
.torrent скачан  0
Как залить торрент? | Как скачать Torrent? | Ошибка в торренте? Качайте магнет  


     Отправить личное сообщение
   
Страница 1 из 1
Показать сообщения за:  Поле сортировки  
Начать новую тему Ответить на тему

   Похожие торренты   Автор   Ответы   Просмотры   Последнее сообщение 
В этой теме нет новых непрочитанных сообщений. Скачать торрент Проверен Марк Радин | Как стать мужчиной, о котором мечтают женщины (2008) [FB2]

в форуме Популярная психология, Размер: 2.1 МБ, Здоровье: 100%

Гость

0
73|6

95
8

19 янв 2016, 19:53

Гость Перейти к последнему сообщению

В этой теме нет новых непрочитанных сообщений. Скачать торрент Проверен Орлов Владимир - Аптекарь [Радик Мухаметзянов, 2008, 112 kbps]

в форуме Российская фантастика, фэнтези, мистика, ужасы, фанфики, Размер: 1.21 ГБ, Здоровье: 100%

Anonymous

0
43|7

36
0

10 сен 2016, 19:00

Anonymous Перейти к последнему сообщению

В этой теме нет новых непрочитанных сообщений. Скачать торрент Проверен Владимир Орлов - Лягушки [Радик Мухаметзянов, 2012 г., 96 kbps, MP3]

в форуме Российская фантастика, фэнтези, мистика, ужасы, фанфики, Размер: 1.33 ГБ, Здоровье: 100%

Anonymous

0
18|6

30
0

10 дек 2016, 17:36

Anonymous Перейти к последнему сообщению

В этой теме нет новых непрочитанных сообщений. Скачать торрент Проверен Орлов Владимир - Альтист Данилов [Олег Исаев, 2008, 128 kbps]

в форуме Российская фантастика, фэнтези, мистика, ужасы, фанфики, Размер: 1.23 ГБ, Здоровье: 100%

Anonymous

0
55|18

88
1

10 сен 2016, 20:43

Anonymous Перейти к последнему сообщению

В этой теме нет новых непрочитанных сообщений. Скачать торрент Проверен Орлов Владимир - Шеврикука, или Любовь к привидению. СД1. [Евгений Терновский, 2004, 96-160 кб/с]

в форуме Российская фантастика, фэнтези, мистика, ужасы, фанфики, Размер: 698.09 МБ, Здоровье: 100%

Anonymous

0
10|3

40
1

10 сен 2016, 19:00

Anonymous Перейти к последнему сообщению



Сейчас этот форум просматривают: нет зарегистрированных пользователей и гости: 0


Вы не можете начинать темы
Вы не можете отвечать на сообщения
Вы не можете редактировать свои сообщения
Вы не можете удалять свои сообщения
Вы не можете добавлять вложения

Перейти:  
Ресурс не предоставляет электронные версии произведений, а занимается лишь коллекционированием и каталогизацией ссылок, присылаемых и публикуемых на форуме нашими читателями. Если вы являетесь правообладателем какого-либо представленного материала и не желаете чтобы ссылка на него находилась в нашем каталоге, свяжитесь с нами и мы незамедлительно удалим её. Файлы для обмена на трекере предоставлены пользователями сайта, и администрация не несёт ответственности за их содержание. Просьба не заливать файлы, защищенные авторскими правами, а также файлы нелегального содержания!
cron