На всех торрентах на трекере установлена скидка на скачивание в размере 100 процентов(а).
 Возможность скачивания торрента НЕ зависит от ограничений при низком ратио, низком аплоаде, требуемом ратио или требуемом аплоаде.


Начать новую тему Ответить на тему
Статистика раздачи
Размер: 353.63 МБ | Добавлен: 14 сен 2017, 19:37 | Скачали: 1
Сидеров: 1  [0 байт/сек]    Личеров: 0  [0 байт/сек]
Пред. тема | След. тема 

Автор
Сообщение

СообщениеДобавлено: 14 сен 2017, 19:37 

Ответить с цитатой 

Richard Hallebeek- Richard Hallebeek Project/feat.Shawn Lane,Brett Garsed/
Жанр: Jazz-Rock,Fusion
Год выпуска диска
: 2004
Производитель диска: Russia
Аудио кодек: APE
Тип рипа: image+.cue
Битрейт аудио: lossless
Продолжительность: 00:56:37
Трэклист:
1.Prescription Strength
2.Lined Out
3.Canoga Park
4.Good Food
5.Free
6.Axe
7.Enigma
8.Orange Faces Everywhere
9.Imagine

Доп. информация: Musiciant:
Richard Hallebeek-guitars
Lale Larson-keyboards
Udo Pannekeet-bass
Bas Cornelissen-drums
Shawn Lane-guitars on tracks( 1.2.3 & 7)
Brett Garsed-guitars on tracks(1,4,5, & 7)

Рип из личного архива.
Exact Audio Copy V0.99 prebeta 4 from 23. January 2008
Отчёт EAC об извлечении, выполненном 12. мая 2010, 18:52
Richard Hallebeek / Richard Hallebeek Project
Дисковод: _NEC DVD_RW ND-2510A Adapter: 1 ID: 0
Режим чтения : Достоверность
Использование точного потока : Да
Отключение кэша аудио : Да
Использование указателей C2 : Нет
Коррекция смещения при чтении : 48
Способность читать области Lead-in и Lead-out : Нет
Заполнение пропущенных сэмплов тишиной : Да
Удаление блоков с тишиной в начале и конце : Нет
При вычислениях CRC использовались нулевые сэмплы : Да
Интерфейс : Установленный внешний ASPI-интерфейс
Выходной формат : Внутренние WAV-операции
Формат сэмплов : 44.100 Гц; 16 бит; стерео
TOC извлечённого CD
Трек | Старт | Длительность | Начальный сектор | Конечный сектор
---------------------------------------------------------------------
1 | 0:00.00 | 6:53.06 | 0 | 30980
2 | 6:53.06 | 7:41.51 | 30981 | 65606
3 | 14:34.57 | 4:36.16 | 65607 | 86322
4 | 19:10.73 | 6:28.06 | 86323 | 115428
5 | 25:39.04 | 6:43.18 | 115429 | 145671
6 | 32:22.22 | 4:53.69 | 145672 | 167715
7 | 37:16.16 | 10:02.52 | 167716 | 212917
8 | 47:18.68 | 3:28.74 | 212918 | 228591
9 | 50:47.67 | 5:49.21 | 228592 | 254787
Характеристики диапазона извлечения и сообщения об ошибках
Выбранный диапазон
Имя файла E:\ПРОЕКТ\Richard Hellebeek-Project 2004\Richard Hallebeek - Richard Hallebeek Project.wav
Пиковый уровень 70.7 %
Качество диапазона 100.0 %
CRC теста CB0A81A5
CRC копии CB0A81A5
Копирование... OK
Ошибок не произошло
AccurateRip: сводка
Трек 1 точность не определена (достоверность 1) [8CB7EA7D], AccurateRip вернул [09548DC4]
Трек 2 точность не определена (достоверность 1) [9AF58D09], AccurateRip вернул [75B83D57]
Трек 3 точность не определена (достоверность 1) [AE6D9251], AccurateRip вернул [96AAEBD5]
Трек 4 точность не определена (достоверность 1) [9D75DED4], AccurateRip вернул [E5048DAE]
Трек 5 точность не определена (достоверность 1) [A6F41935], AccurateRip вернул [B4E49745]
Трек 6 точность не определена (достоверность 1) [0ADAFDD7], AccurateRip вернул [DCA4AE95]
Трек 7 точность не определена (достоверность 1) [05728A06], AccurateRip вернул [EC289E5C]
Трек 8 точность не определена (достоверность 1) [F2F54563], AccurateRip вернул [9CBC825F]
Трек 9 точность не определена (достоверность 1) [97B81941], AccurateRip вернул [A0B2F5B5]
Ни один трек не прошёл проверки на точность
В вашей базе может быть иной вариант штамповки диска
Конец отчёта
Exact Audio Copy V0.99 prebeta 4 from 23. January 2008
Отчёт EAC об извлечении, выполненном 12. мая 2010, 18:52
Richard Hallebeek / Richard Hallebeek Project
Дисковод: _NEC DVD_RW ND-2510A Adapter: 1 ID: 0
Режим чтения : Достоверность
Использование точного потока : Да
Отключение кэша аудио : Да
Использование указателей C2 : Нет
Коррекция смещения при чтении : 48
Способность читать области Lead-in и Lead-out : Нет
Заполнение пропущенных сэмплов тишиной : Да
Удаление блоков с тишиной в начале и конце : Нет
При вычислениях CRC использовались нулевые сэмплы : Да
Интерфейс : Установленный внешний ASPI-интерфейс
Выходной формат : Внутренние WAV-операции
Формат сэмплов : 44.100 Гц; 16 бит; стерео
TOC извлечённого CD
Трек | Старт | Длительность | Начальный сектор | Конечный сектор
---------------------------------------------------------------------
1 | 0:00.00 | 6:53.06 | 0 | 30980
2 | 6:53.06 | 7:41.51 | 30981 | 65606
3 | 14:34.57 | 4:36.16 | 65607 | 86322
4 | 19:10.73 | 6:28.06 | 86323 | 115428
5 | 25:39.04 | 6:43.18 | 115429 | 145671
6 | 32:22.22 | 4:53.69 | 145672 | 167715
7 | 37:16.16 | 10:02.52 | 167716 | 212917
8 | 47:18.68 | 3:28.74 | 212918 | 228591
9 | 50:47.67 | 5:49.21 | 228592 | 254787
Характеристики диапазона извлечения и сообщения об ошибках
Выбранный диапазон
Имя файла E:\ПРОЕКТ\Richard Hellebeek-Project 2004\Richard Hallebeek - Richard Hallebeek Project.wav
Пиковый уровень 70.7 %
Качество диапазона 100.0 %
CRC теста CB0A81A5
CRC копии CB0A81A5
Копирование... OK
Ошибок не произошло
AccurateRip: сводка
Трек 1 точность не определена (достоверность 1) [8CB7EA7D], AccurateRip вернул [09548DC4]
Трек 2 точность не определена (достоверность 1) [9AF58D09], AccurateRip вернул [75B83D57]
Трек 3 точность не определена (достоверность 1) [AE6D9251], AccurateRip вернул [96AAEBD5]
Трек 4 точность не определена (достоверность 1) [9D75DED4], AccurateRip вернул [E5048DAE]
Трек 5 точность не определена (достоверность 1) [A6F41935], AccurateRip вернул [B4E49745]
Трек 6 точность не определена (достоверность 1) [0ADAFDD7], AccurateRip вернул [DCA4AE95]
Трек 7 точность не определена (достоверность 1) [05728A06], AccurateRip вернул [EC289E5C]
Трек 8 точность не определена (достоверность 1) [F2F54563], AccurateRip вернул [9CBC825F]
Трек 9 точность не определена (достоверность 1) [97B81941], AccurateRip вернул [A0B2F5B5]
Ни один трек не прошёл проверки на точность
В вашей базе может быть иной вариант штамповки диска
Конец отчёта
загрузка...
Правила, инструкции, FAQ!!!
Торрент  Добавлен [14 сен 2017, 19:37] Скачать торрент Магнет ссылка
Скачать торрент
[ Размер 14.66 КБ / Просмотров 15 ]

Статус
Проверен 
 
Размер  353.63 МБ
Приватный: Нет (DHT включён)
.torrent скачан  1
Как залить торрент? | Как скачать Torrent? | Ошибка в торренте? Качайте магнет  


     Отправить личное сообщение
   
Страница 1 из 1
Показать сообщения за:  Поле сортировки  
Начать новую тему Ответить на тему

   Похожие торренты   Автор   Ответы   Просмотры   Последнее сообщение 
В этой теме нет новых непрочитанных сообщений. Скачать торрент Проверен (Jazz-Rock, Fusion) Yiorgos Fakanas / feat. Mike Stern, Dave Weckl, Brett Garsed, Bob Franceschini / - Domino - 2007, APE (image+.cue), lossless

в форуме Jazz Fusion, Размер: 500.67 МБ, Здоровье: 100%

Anonymous

0
9|0

10
1

13 сен 2017, 23:53

Anonymous Перейти к последнему сообщению

В этой теме нет новых непрочитанных сообщений. Скачать торрент Проверен (Fusion, Post-Bop, Progressive Jazz, Crossover Jazz, Contemporary Jazz, Funk, World Fusion) Jonas Hellborg with Shawn Lane and Kofi Baker - Abstract Logic - 1995, FLAC (image+.cue), lossless

в форуме Jazz Fusion, Размер: 251.92 МБ, Здоровье: 100%

Anonymous

0
3|0

35
3

16 сен 2017, 11:10

Anonymous Перейти к последнему сообщению

В этой теме нет новых непрочитанных сообщений. Скачать торрент Проверен (Fusion, Progressive Rock) Virgil Donati (feat. Alex Machacek, Brett Garsed, Ruslan Sirota, Jeff Babko, Tom Kennedy, Anthony Crawford a.o.) - In This Life - 2013, FLAC (tracks+.cue), lossless

в форуме Jazz Fusion, Размер: 458.89 МБ, Здоровье: 100%

Anonymous

0
9|2

15
1

16 сен 2017, 12:03

Anonymous Перейти к последнему сообщению

В этой теме нет новых непрочитанных сообщений. Скачать торрент Проверен (Jazz-Fusion,Piano) Will Boulware/feat.Richard Bona,Billy Kilson,Eric Alexander/ - Summertime - 2007, APE (image+.cue) lossless

в форуме Jazz Fusion, Размер: 307.97 МБ, Здоровье: 0%

Anonymous

0
0|0

3
0

13 сен 2017, 22:58

Anonymous Перейти к последнему сообщению

В этой теме нет новых непрочитанных сообщений. Скачать торрент Проверен (Crossover Jazz, Fusion) Larry Coryell (feat. Billy Cobham, Bireli Lagrene, Richard Bona) - Spaces Revisited - 1997, FLAC (image+.cue), lossless

в форуме Jazz Fusion, Размер: 332.61 МБ, Здоровье: 0%

Anonymous

0
0|0

9
1

16 сен 2017, 09:34

Anonymous Перейти к последнему сообщению



Сейчас этот форум просматривают: нет зарегистрированных пользователей и гости: 0


Вы не можете начинать темы
Вы не можете отвечать на сообщения
Вы не можете редактировать свои сообщения
Вы не можете удалять свои сообщения
Вы не можете добавлять вложения

Перейти:  
Ресурс не предоставляет электронные версии произведений, а занимается лишь коллекционированием и каталогизацией ссылок, присылаемых и публикуемых на форуме нашими читателями. Если вы являетесь правообладателем какого-либо представленного материала и не желаете чтобы ссылка на него находилась в нашем каталоге, свяжитесь с нами и мы незамедлительно удалим её. Файлы для обмена на трекере предоставлены пользователями сайта, и администрация не несёт ответственности за их содержание. Просьба не заливать файлы, защищенные авторскими правами, а также файлы нелегального содержания!
cron