На всех торрентах на трекере установлена скидка на скачивание в размере 100 процентов(а).
 Возможность скачивания торрента НЕ зависит от ограничений при низком ратио, низком аплоаде, требуемом ратио или требуемом аплоаде.


Начать новую тему Ответить на тему
Статистика раздачи
Размер: 256.92 МБ | Добавлен: 30 авг 2016, 20:03 | Скачали: 0
Сидеров: 0  [0 байт/сек]    Личеров: 0  [0 байт/сек]
Пред. тема | След. тема 

Автор
Сообщение

СообщениеДобавлено: 30 авг 2016, 20:03 

Ответить с цитатой 

Aquarelle - Sous Un Arbre

Жанр: Jazz Rock/Fusion
Год выпуска диска: 1978
Страна: Canada
Аудио кодек: FLAC
Тип рипа: tracks+.cue
Битрейт аудио: lossless
Трэклист:
1.La Magie Des Sons
2.Francoise
3.Bridge
4.Sous Un Arbre
5.Aquarelle
6.Volupte
7.Esperanto
Доп. информация: Musicians

- Anne-Marie Courtemanche / vocals
- Pierre Lescaut / keyboards
- Stéphane Morency / guitar
- Pierre Bournaki / violin
- Jean-Philippe Gélinas / saxophone, flute
- Michel De Lisle / bass
- André Leclerc / drums
EAC extraction logfile from 12. January 2009, 0:09 for CD
Aquarelle / Sous Un Arbre

Used drive : TSSTcorpCD/DVDW TS-H552D Adapter: 0 ID: 0
Read mode : Secure with NO C2, accurate stream, disable cache
Read offset correction : 6
Overread into Lead-In and Lead-Out : No

Used output format : C:\Users\Pollux\Downloads\Syrup098b7\Syrup.exe (User Defined Encoder)
320 kBit/s
Additional command line options : REACT %o %s %d "%a" "%g" "%t" "%n" "%x" "%y" "%m" "%e" "%f" "%b" %r

Other options :
Fill up missing offset samples with silence : Yes
Delete leading and trailing silent blocks : No
Native Win32 interface for Win NT & 2000

Track 1
Filename I:\Eac\Aquarelle - Sous Un Arbre - 01 - La Magie Des Sons.wav

Pre-gap length 0:00:02.00

Peak level 99.9 %
Track quality 100.0 %
Test CRC DAAC0CEC
Copy CRC DAAC0CEC
Copy OK

Track 2
Filename I:\Eac\Aquarelle - Sous Un Arbre - 02 - Francoise.wav

Peak level 100.0 %
Track quality 100.0 %
Test CRC BC7DD3B0
Copy CRC BC7DD3B0
Copy OK

Track 3
Filename I:\Eac\Aquarelle - Sous Un Arbre - 03 - Bridge.wav

Peak level 97.6 %
Track quality 100.0 %
Test CRC 2F4028DD
Copy CRC 2F4028DD
Copy OK

Track 4
Filename I:\Eac\Aquarelle - Sous Un Arbre - 04 - Sous Un Arbre.wav

Peak level 97.6 %
Track quality 99.9 %
Test CRC A3129CD5
Copy CRC A3129CD5
Copy OK

Track 5
Filename I:\Eac\Aquarelle - Sous Un Arbre - 05 - Aquarelle.wav

Peak level 99.8 %
Track quality 100.0 %
Test CRC 70BC1BF8
Copy CRC 70BC1BF8
Copy OK

Track 6
Filename I:\Eac\Aquarelle - Sous Un Arbre - 06 - Volupte.wav

Peak level 97.6 %
Track quality 100.0 %
Test CRC A9CECE08
Copy CRC A9CECE08
Copy OK

Track 7
Filename I:\Eac\Aquarelle - Sous Un Arbre - 07 - Esperanto.wav

Peak level 97.6 %
Track quality 99.9 %
Test CRC D8466942
Copy CRC D8466942
Copy OK

No errors occured

End of status report
Страница на прогархивах:http://www.progarchives.com/artist.asp?id=2466
Изумительная канадская группа,жаль,что всего один альбом выпустили
Рип с винила ,найден в и-нете
загрузка...
Правила, инструкции, FAQ!!!
Торрент  Добавлен [30 авг 2016, 20:03] Скачать торрент Магнет ссылка
Скачать торрент
[ Размер 11.17 КБ / Просмотров 0 ]

Статус
Проверен 
 
Размер  256.92 МБ
Приватный: Нет (DHT включён)
.torrent скачан  0
Как залить торрент? | Как скачать Torrent? | Как смотреть и слушать онлайн?  


     Отправить личное сообщение
   
Страница 1 из 1
Показать сообщения за:  Поле сортировки  
Начать новую тему Ответить на тему

   Похожие торренты   Автор   Ответы   Просмотры   Последнее сообщение 
В этой теме нет новых непрочитанных сообщений. Скачать торрент Проверен (Jazz Rock / Progressive Rock) Aquarelle - Sous Un Arbre - 1978 (2010) [remastered japan edition], FLAC (tracks+.cue) lossless

в форуме Progressive & Art-Rock, Размер: 262.3 МБ, Здоровье: 0%

Anonymous

0
0|0

0
0

31 авг 2016, 23:31

Anonymous Перейти к последнему сообщению

В этой теме нет новых непрочитанных сообщений. Скачать торрент Проверен (Jazz Rock/Fusion) Man Doki Soulmates - Aquarelle - 2009, FLAC (tracks+.cue) lossless

в форуме Progressive & Art-Rock, Размер: 561.05 МБ, Здоровье: 0%

Anonymous

0
0|0

0
0

30 авг 2016, 18:44

Anonymous Перейти к последнему сообщению

В этой теме нет новых непрочитанных сообщений. Скачать торрент Проверен (Jazz Rock/Fusion) Aquarelle - Live a Montreux - 1979, MP3 (tracks), 320 kbps

в форуме Progressive & Art-Rock, Размер: 92.83 МБ, Здоровье: 0%

Anonymous

0
0|0

0
0

27 сен 2017, 21:05

Anonymous Перейти к последнему сообщению

В этой теме нет новых непрочитанных сообщений. Скачать торрент Проверен (Crossover Jazz, Hard Bop, Post-Bop, Fusion, Soul Jazz) Joe Sample - Rainbow Seeker - 1978, FLAC (tracks+.cue), lossless

в форуме Jazz Fusion, Размер: 237.99 МБ, Здоровье: 0%

Anonymous

0
0|0

0
0

14 сен 2017, 00:14

Anonymous Перейти к последнему сообщению

В этой теме нет новых непрочитанных сообщений. Скачать торрент Проверен (Fusion / Jazz-Rock) [CD] Oregon - In Concert [1975] - 1978, FLAC (tracks+.cue), lossless

в форуме Jazz Fusion, Размер: 219.59 МБ, Здоровье: 0%

Anonymous

0
0|0

0
0

14 сен 2017, 21:35

Anonymous Перейти к последнему сообщению



Сейчас этот форум просматривают: нет зарегистрированных пользователей и гости: 1


Вы не можете начинать темы
Вы не можете отвечать на сообщения
Вы не можете редактировать свои сообщения
Вы не можете удалять свои сообщения
Вы не можете добавлять вложения


!ВНИМАНИЕ!
 Ресурс не предоставляет электронные версии произведений, а занимается лишь коллекционированием и каталогизацией ссылок, присылаемых и публикуемых на форуме нашими читателями. Если вы являетесь правообладателем какого-либо представленного материала и не желаете чтобы ссылка на него находилась в нашем каталоге, свяжитесь с нами и мы незамедлительно удалим её. Файлы для обмена на трекере предоставлены пользователями сайта, и администрация не несёт ответственности за их содержание. Просьба не заливать файлы, защищенные авторскими правами, а также файлы нелегального содержания!