На всех торрентах на трекере установлена скидка на скачивание в размере 100 процентов(а).
 Возможность скачивания торрента НЕ зависит от ограничений при низком ратио, низком аплоаде, требуемом ратио или требуемом аплоаде.


Начать новую тему Ответить на тему
Статистика раздачи
Размер: 1.12 ГБ | Добавлен: 14 сен 2017, 19:54 | Скачали: 0
Сидеров: 0  [0 байт/сек]    Личеров: 0  [0 байт/сек]
Пред. тема | След. тема 

Автор
Сообщение

СообщениеДобавлено: 14 сен 2017, 19:54 

Ответить с цитатой 

René Engel - Дискография
Жанр: Jazz Fusion / World Fusion
Страна-производитель диска: Netherlands
Год издания диска: 1995-2002
Страна: Netherlands
Аудиокодек: FLAC (*.flac)
Тип рипа: tracks+.cue
Битрейт аудио: lossless
Продолжительность: 2:48:29
Источник (релизер): what.cd (MrHudson) / SoulSeek (Crimhead420)
Наличие сканов в содержимом раздачи: да
Spheres Of Samarkand
René Engel - Despite Opposition
#777Год издания диска: 1995
Издатель (лейбл): A-records
Номер по каталогу: ARP 73027
Продолжительность: 1:01:35
Источник (релизер): what.cd (MrHudson)
Треклист:
1. Pick Up (The Right Beat) 5:56
2. Room 22/7 5:40
3. Sikat, Nyong! 2:16
4. Jarlentji 5:30
5. Despite Opposition 6:23
6. Meeting-point McDolly (part 1) 3:47
7. Arabics 7:08
8. Dance Chance 4:47
9. Exodrome 3:20
10. Meeting-point McDolly (part 2) 4:16
11. Spring 5:35
12. Steampower 5:27
13. Free at Last 1:30
Код:
X Lossless Decoder version 20130127 (142.3)
XLD extraction logfile from 2013-02-23 16:00:10 +0100
RenГ© Engel / Despite Opposition
Used drive : MATSHITA DVD-R   UJ-898 (revision HC10)
Media type : Pressed CD
Ripper mode             : XLD Secure Ripper
Disable audio cache     : OK for the drive with a cache less than 1375KiB
Make use of C2 pointers : NO
Read offset correction  : 102
Max retry count         : 100
Gap status              : Analyzed, Appended (except HTOA)
TOC of the extracted CD
     Track |   Start  |  Length  | Start sector | End sector
    ---------------------------------------------------------
        1  | 00:00:00 | 05:55:62 |         0    |    26686
        2  | 05:55:62 | 05:39:65 |     26687    |    52176
        3  | 11:35:52 | 02:15:38 |     52177    |    62339
        4  | 13:51:15 | 05:29:45 |     62340    |    87059
        5  | 19:20:60 | 06:23:27 |     87060    |   115811
        6  | 25:44:12 | 03:47:15 |    115812    |   132851
        7  | 29:31:27 | 07:07:73 |    132852    |   164949
        8  | 36:39:25 | 04:47:35 |    164950    |   186509
        9  | 41:26:60 | 03:19:60 |    186510    |   201494
       10  | 44:46:45 | 04:15:72 |    201495    |   220691
       11  | 49:02:42 | 05:35:28 |    220692    |   245844
       12  | 54:37:70 | 05:26:57 |    245845    |   270351
       13  | 60:04:52 | 01:30:18 |    270352    |   277119
AccurateRip Summary (DiscID: 001f2ff4-0135d2a6-cb0e6e0d)
    Track 01 : OK (v2, confidence 1/1)
    Track 02 : OK (v2, confidence 1/1)
    Track 03 : OK (v2, confidence 1/1)
    Track 04 : NG (total 1 submission)
    Track 05 : OK (v2, confidence 1/1)
    Track 06 : OK (v2, confidence 1/1)
    Track 07 : OK (v2, confidence 1/1)
    Track 08 : OK (v2, confidence 1/1)
    Track 09 : NG (total 1 submission)
    Track 10 : NG (total 1 submission)
    Track 11 : NG (total 1 submission)
    Track 12 : NG (total 1 submission)
    Track 13 : OK (v2, confidence 1/1)
        ->8 tracks accurately ripped, 5 tracks not
All Tracks
    Album gain               : -5.26 dB
    Peak                     : 0.988525
    Statistics
        Read error                           : 0
        Jitter error (maybe fixed)           : 0
        Retry sector count                   : 0
        Damaged sector count                 : 0
Track 01
    Filename : /Users/Home/XLD/RenГ© Engel - Despite Opposition (1995) [FLAC]/01 Pick Up (The Right Beat).flac
    Pre-gap length : 00:02:00
    Track gain               : -6.02 dB
    Peak                     : 0.980865
    CRC32 hash (test run)    : 8EBF3385
    CRC32 hash               : 8EBF3385
    CRC32 hash (skip zero)   : FF3ED2FE
    AccurateRip v1 signature : FC235567
    AccurateRip v2 signature : E235266F
        ->Accurately ripped (v2, confidence 1/1)
    Statistics
        Read error                           : 0
        Jitter error (maybe fixed)           : 0
        Retry sector count                   : 0
        Damaged sector count                 : 0
Track 02
    Filename : /Users/Home/XLD/RenГ© Engel - Despite Opposition (1995) [FLAC]/02 Room 22пјЏ7.flac
    Pre-gap length : 00:01:55
    Track gain               : -5.72 dB
    Peak                     : 0.987793
    CRC32 hash (test run)    : 3BB3A87E
    CRC32 hash               : 3BB3A87E
    CRC32 hash (skip zero)   : 8AB820A9
    AccurateRip v1 signature : 646D4DC3
    AccurateRip v2 signature : B82A49D8
        ->Accurately ripped (v2, confidence 1/1)
    Statistics
        Read error                           : 0
        Jitter error (maybe fixed)           : 0
        Retry sector count                   : 0
        Damaged sector count                 : 0
Track 03
    Filename : /Users/Home/XLD/RenГ© Engel - Despite Opposition (1995) [FLAC]/03 Sikat, Nyong!.flac
    Pre-gap length : 00:03:47
    Track gain               : -3.41 dB
    Peak                     : 0.988525
    CRC32 hash (test run)    : B021E473
    CRC32 hash               : B021E473
    CRC32 hash (skip zero)   : 09DB704D
    AccurateRip v1 signature : 62C5896F
    AccurateRip v2 signature : 82F3A24A
        ->Accurately ripped (v2, confidence 1/1)
    Statistics
        Read error                           : 0
        Jitter error (maybe fixed)           : 0
        Retry sector count                   : 0
        Damaged sector count                 : 0
Track 04
    Filename : /Users/Home/XLD/RenГ© Engel - Despite Opposition (1995) [FLAC]/04 Jarlentji.flac
    Pre-gap length : 00:01:15
    Track gain               : -2.57 dB
    Peak                     : 0.952972
    CRC32 hash (test run)    : 611C1A71
    CRC32 hash               : 611C1A71
    CRC32 hash (skip zero)   : 1A7E017D
    AccurateRip v1 signature : 805663AE
    AccurateRip v2 signature : C5D9C507
        ->Rip may not be accurate (total 1 submission).
    Statistics
        Read error                           : 0
        Jitter error (maybe fixed)           : 0
        Retry sector count                   : 0
        Damaged sector count                 : 0
Track 05
    Filename : /Users/Home/XLD/RenГ© Engel - Despite Opposition (1995) [FLAC]/05 Despite Opposition.flac
    Pre-gap length : 00:02:60
    Track gain               : -2.19 dB
    Peak                     : 0.966187
    CRC32 hash (test run)    : 569A8426
    CRC32 hash               : 569A8426
    CRC32 hash (skip zero)   : F639624F
    AccurateRip v1 signature : B8031EC4
    AccurateRip v2 signature : 790C63E4
        ->Accurately ripped (v2, confidence 1/1)
    Statistics
        Read error                           : 0
        Jitter error (maybe fixed)           : 0
        Retry sector count                   : 0
        Damaged sector count                 : 0
Track 06
    Filename : /Users/Home/XLD/RenГ© Engel - Despite Opposition (1995) [FLAC]/06 Meeting-Point McDolly, Part I.flac
    Pre-gap length : 00:02:62
    Track gain               : -0.72 dB
    Peak                     : 0.963165
    CRC32 hash (test run)    : EDC615C9
    CRC32 hash               : EDC615C9
    CRC32 hash (skip zero)   : F15AFB79
    AccurateRip v1 signature : 76E453C0
    AccurateRip v2 signature : 592594F1
        ->Accurately ripped (v2, confidence 1/1)
    Statistics
        Read error                           : 0
        Jitter error (maybe fixed)           : 0
        Retry sector count                   : 0
        Damaged sector count                 : 0
Track 07
    Filename : /Users/Home/XLD/RenГ© Engel - Despite Opposition (1995) [FLAC]/07 Arabics.flac
    Pre-gap length : 00:03:40
    Track gain               : -4.40 dB
    Peak                     : 0.969116
    CRC32 hash (test run)    : 310C5DF2
    CRC32 hash               : 310C5DF2
    CRC32 hash (skip zero)   : CF68FF48
    AccurateRip v1 signature : F86FBCBE
    AccurateRip v2 signature : F838FD1D
        ->Accurately ripped (v2, confidence 1/1)
    Statistics
        Read error                           : 0
        Jitter error (maybe fixed)           : 0
        Retry sector count                   : 0
        Damaged sector count                 : 0
Track 08
    Filename : /Users/Home/XLD/RenГ© Engel - Despite Opposition (1995) [FLAC]/08 Dance Chance.flac
    Pre-gap length : 00:01:63
    Track gain               : -5.90 dB
    Peak                     : 0.974670
    CRC32 hash (test run)    : F279D27B
    CRC32 hash               : F279D27B
    CRC32 hash (skip zero)   : 0BCC1691
    AccurateRip v1 signature : 9D770E29
    AccurateRip v2 signature : 7E78DB78
        ->Accurately ripped (v2, confidence 1/1)
    Statistics
        Read error                           : 0
        Jitter error (maybe fixed)           : 0
        Retry sector count                   : 0
        Damaged sector count                 : 0
Track 09
    Filename : /Users/Home/XLD/RenГ© Engel - Despite Opposition (1995) [FLAC]/09 Exodrome.flac
    Pre-gap length : 00:03:63
    Track gain               : -6.51 dB
    Peak                     : 0.979279
    CRC32 hash (test run)    : 9B5571AB
    CRC32 hash               : 9B5571AB
    CRC32 hash (skip zero)   : 555652D8
    AccurateRip v1 signature : E6A91636
    AccurateRip v2 signature : 8CD86585
        ->Rip may not be accurate (total 1 submission).
    Statistics
        Read error                           : 0
        Jitter error (maybe fixed)           : 0
        Retry sector count                   : 0
        Damaged sector count                 : 0
Track 10
    Filename : /Users/Home/XLD/RenГ© Engel - Despite Opposition (1995) [FLAC]/10 Meeting-Point McDolly, Part II.flac
    Pre-gap length : 00:02:63
    Track gain               : -2.96 dB
    Peak                     : 0.986420
    CRC32 hash (test run)    : 357EA4B1
    CRC32 hash               : 357EA4B1
    CRC32 hash (skip zero)   : 5BD1192E
    AccurateRip v1 signature : B8DA66E5
    AccurateRip v2 signature : 928301E5
        ->Rip may not be accurate (total 1 submission).
    Statistics
        Read error                           : 0
        Jitter error (maybe fixed)           : 0
        Retry sector count                   : 0
        Damaged sector count                 : 0
Track 11
    Filename : /Users/Home/XLD/RenГ© Engel - Despite Opposition (1995) [FLAC]/11 Spring.flac
    Pre-gap length : 00:03:25
    Track gain               : -3.84 dB
    Peak                     : 0.981445
    CRC32 hash (test run)    : EC057D51
    CRC32 hash               : EC057D51
    CRC32 hash (skip zero)   : 5C0E1622
    AccurateRip v1 signature : EC71EE09
    AccurateRip v2 signature : F1B20016
        ->Rip may not be accurate (total 1 submission).
    Statistics
        Read error                           : 0
        Jitter error (maybe fixed)           : 0
        Retry sector count                   : 0
        Damaged sector count                 : 0
Track 12
    Filename : /Users/Home/XLD/RenГ© Engel - Despite Opposition (1995) [FLAC]/12 Steampower.flac
    Pre-gap length : 00:02:63
    Track gain               : -4.36 dB
    Peak                     : 0.973389
    CRC32 hash (test run)    : 9DAB619D
    CRC32 hash               : 9DAB619D
    CRC32 hash (skip zero)   : 548CA8D8
    AccurateRip v1 signature : 5E571BBB
    AccurateRip v2 signature : 553E2A04
        ->Rip may not be accurate (total 1 submission).
    Statistics
        Read error                           : 0
        Jitter error (maybe fixed)           : 0
        Retry sector count                   : 0
        Damaged sector count                 : 0
Track 13
    Filename : /Users/Home/XLD/RenГ© Engel - Despite Opposition (1995) [FLAC]/13 Free at Last.flac
    Pre-gap length : 00:03:25
    Track gain               : -4.16 dB
    Peak                     : 0.980255
    CRC32 hash (test run)    : 87B89CC6
    CRC32 hash               : 87B89CC6
    CRC32 hash (skip zero)   : 64B9CBEC
    AccurateRip v1 signature : C4AA6524
    AccurateRip v2 signature : DBB9AC40
        ->Accurately ripped (v2, confidence 1/1)
    Statistics
        Read error                           : 0
        Jitter error (maybe fixed)           : 0
        Retry sector count                   : 0
        Damaged sector count                 : 0
No errors occurred
End of status report
Код:
REM GENRE "Jazz Fusion / World Fusion"
REM DATE 1995
REM DISCID CB0E6E0D
REM COMMENT "X Lossless Decoder version 20130127 (142.3)"
PERFORMER "Rene Engel"
TITLE "Despite Opposition"
FILE "01 - Pick Up (The Right Beat).wav" WAVE
  TRACK 01 AUDIO
    TITLE "Pick Up (The Right Beat)"
    PERFORMER "Rene Engel"
    INDEX 01 00:00:00
  TRACK 02 AUDIO
    TITLE "Room 22/7"
    PERFORMER "Rene Engel"
    INDEX 00 05:54:07
FILE "02 - Room 22_7.wav" WAVE
    INDEX 01 00:00:00
  TRACK 03 AUDIO
    TITLE "Sikat, Nyong!"
    PERFORMER "Rene Engel"
    INDEX 00 05:36:18
FILE "03 - Sikat, Nyong.wav" WAVE
    INDEX 01 00:00:00
  TRACK 04 AUDIO
    TITLE "Jarlentji"
    PERFORMER "Rene Engel"
    INDEX 00 02:14:23
FILE "04 - Jarlentji.wav" WAVE
    INDEX 01 00:00:00
  TRACK 05 AUDIO
    TITLE "Despite Opposition"
    PERFORMER "Rene Engel"
    INDEX 00 05:26:60
FILE "05 - Despite Opposition.wav" WAVE
    INDEX 01 00:00:00
  TRACK 06 AUDIO
    TITLE "Meeting-point McDolly (part 1)"
    PERFORMER "Rene Engel"
    INDEX 00 06:20:40
FILE "06 - Meeting-point McDolly (part 1).wav" WAVE
    INDEX 01 00:00:00
  TRACK 07 AUDIO
    TITLE "Arabics"
    PERFORMER "Rene Engel"
    INDEX 00 03:43:50
FILE "07 - Arabics.wav" WAVE
    INDEX 01 00:00:00
  TRACK 08 AUDIO
    TITLE "Dance Chance"
    PERFORMER "Rene Engel"
    INDEX 00 07:06:10
FILE "08 - Dance Chance.wav" WAVE
    INDEX 01 00:00:00
  TRACK 09 AUDIO
    TITLE "Exodrome"
    PERFORMER "Rene Engel"
    INDEX 00 04:43:47
FILE "09 - Exodrome.wav" WAVE
    INDEX 01 00:00:00
  TRACK 10 AUDIO
    TITLE "Meeting-point McDolly (part 2)"
    PERFORMER "Rene Engel"
    INDEX 00 03:16:72
FILE "10 - Meeting-point McDolly (part 2).wav" WAVE
    INDEX 01 00:00:00
  TRACK 11 AUDIO
    TITLE "Spring"
    PERFORMER "Rene Engel"
    INDEX 00 04:12:47
FILE "11 - Spring.wav" WAVE
    INDEX 01 00:00:00
  TRACK 12 AUDIO
    TITLE "Steampower"
    PERFORMER "Rene Engel"
    INDEX 00 05:32:40
FILE "12 - Steampower.wav" WAVE
    INDEX 01 00:00:00
  TRACK 13 AUDIO
    TITLE "Free at Last"
    PERFORMER "Rene Engel"
    INDEX 00 05:23:32
FILE "13 - Free at Last.wav" WAVE
    INDEX 01 00:00:00
René Engel — drums (1-13), keyboards (1, 2, 4, 5, 7, 8, 9, 11, 12)
Nippy Noya — percussion (2, 4, 6, 9, 10, 11)
Frank Burks — guitar (1, 2, 4, 5, 7, 8, 11, 12)
Hessel de Vries — keyboards, keys-solo (1, 2, 4, 5, 7, 8, 11, 12)
Davy de Wit — bass (1, 2, 7, 9, 12)
Leon Vanderbosch — guitar (4, 9)
Manuel Hugas — bass (4, 5, 8, 11)
René Engel - Spheres Of Samarkand
#777Год издания диска: 1998
Издатель (лейбл): New Road Music
Номер по каталогу: NRM 980203
Продолжительность: 58:09
Источник (релизер): SoulSeek (Crimhead420)
Треклист:
1. Cullera 8:24
2. Devils Of The Desert 6:22
3. Hunting Song 4:10
4. So Deep 7:36
5. Aranjuez 6:02
6. Curaçao On My Mind 6:30
7. Spheres Of Samarkand 7:33
8. Sikat Sekali Lagi, Nyong! (part 1) 3:00
9. Fears 5:16
10. Sikat Sekali Lagi, Nyong! (part 2) 3:16
Код:
Exact Audio Copy V0.99 prebeta 3 from 28. July 2007
EAC extraction logfile from 3. January 2009, 0:20
Renй Engel / Spheres of Samarkand
Used drive  : TSSTcorpCD/DVDW TS-L532A   Adapter: 1  ID: 1
Read mode               : Secure
Utilize accurate stream : Yes
Defeat audio cache      : Yes
Make use of C2 pointers : No
Read offset correction                      : 116
Overread into Lead-In and Lead-Out          : No
Fill up missing offset samples with silence : Yes
Delete leading and trailing silent blocks   : No
Null samples used in CRC calculations       : Yes
Used interface                              : Native Win32 interface for Win NT & 2000
Gap handling                                : Appended to previous track
Used output format              : User Defined Encoder
Selected bitrate                : 1024 kBit/s
Quality                         : High
Add ID3 tag                     : No
Command line compressor         : C:\Program Files\Exact Audio Copy\FLAC\FLAC.EXE
Additional command line options : -8 -V -T "ARTIST=%a" -T "TITLE=%t" -T "ALBUM=%g" -T "DATE=%y" -T "TRACKNUMBER=%n" -T "GENRE=%m" -T "COMMENT=%e" %s -o %d
TOC of the extracted CD
     Track |   Start  |  Length  | Start sector | End sector
    ---------------------------------------------------------
        1  |  0:00.00 |  8:23.57 |         0    |    37781
        2  |  8:23.57 |  6:21.50 |     37782    |    66406
        3  | 14:45.32 |  4:10.36 |     66407    |    85192
        4  | 18:55.68 |  7:35.63 |     85193    |   119380
        5  | 26:31.56 |  6:02.35 |    119381    |   146565
        6  | 32:34.16 |  6:30.28 |    146566    |   175843
        7  | 39:04.44 |  7:32.69 |    175844    |   209812
        8  | 46:37.38 |  3:00.36 |    209813    |   223348
        9  | 49:37.74 |  5:16.37 |    223349    |   247085
       10  | 54:54.36 |  3:15.56 |    247086    |   261766
Track  1
     Filename C:\Documents and Settings\martin schotman\Mijn documenten\Renй Engel - Spheres of Samarkand - 01. Cullera .wav
     Pre-gap length  0:00:02.00
     Peak level 100.0 %
     Track quality 100.0 %
     Copy CRC BC6057E9
     Copy OK
Track  2
     Filename C:\Documents and Settings\martin schotman\Mijn documenten\Renй Engel - Spheres of Samarkand - 02. Devils of the Desert .wav
     Pre-gap length  0:00:04.00
     Peak level 100.0 %
     Track quality 100.0 %
     Copy CRC 44418591
     Copy OK
Track  3
     Filename C:\Documents and Settings\martin schotman\Mijn documenten\Renй Engel - Spheres of Samarkand - 03. Hunting Song .wav
     Pre-gap length  0:00:02.18
     Peak level 100.0 %
     Track quality 100.0 %
     Copy CRC 15164219
     Copy OK
Track  4
     Filename C:\Documents and Settings\martin schotman\Mijn documenten\Renй Engel - Spheres of Samarkand - 04. So Deep .wav
     Pre-gap length  0:00:03.20
     Peak level 96.0 %
     Track quality 100.0 %
     Copy CRC 2574140B
     Copy OK
Track  5
     Filename C:\Documents and Settings\martin schotman\Mijn documenten\Renй Engel - Spheres of Samarkand - 05. Aranjuez .wav
     Pre-gap length  0:00:04.20
     Peak level 100.0 %
     Track quality 100.0 %
     Copy CRC 86AD3FC9
     Copy OK
Track  6
     Filename C:\Documents and Settings\martin schotman\Mijn documenten\Renй Engel - Spheres of Samarkand - 06. Curaзao on my Mind .wav
     Pre-gap length  0:00:04.22
     Peak level 100.0 %
     Track quality 100.0 %
     Copy CRC BA01CC55
     Copy OK
Track  7
     Filename C:\Documents and Settings\martin schotman\Mijn documenten\Renй Engel - Spheres of Samarkand - 07. Spheres of Samarkand .wav
     Pre-gap length  0:00:04.13
     Peak level 100.0 %
     Track quality 99.9 %
     Copy CRC B2B24A71
     Copy OK
Track  8
     Filename C:\Documents and Settings\martin schotman\Mijn documenten\Renй Engel - Spheres of Samarkand - 08. Sikat Sekali Lagi, Nyong! (Part I) .wav
     Pre-gap length  0:00:04.18
     Peak level 100.0 %
     Track quality 100.0 %
     Copy CRC 13CB75E1
     Copy OK
Track  9
     Filename C:\Documents and Settings\martin schotman\Mijn documenten\Renй Engel - Spheres of Samarkand - 09. Fears .wav
     Pre-gap length  0:00:03.00
     Peak level 100.0 %
     Track quality 100.0 %
     Copy CRC 2F4F2711
     Copy OK
Track 10
     Filename C:\Documents and Settings\martin schotman\Mijn documenten\Renй Engel - Spheres of Samarkand - 10. Sikat Sekali Lagi, Nyong! (Part II) .wav
     Pre-gap length  0:00:03.21
     Peak level 100.0 %
     Track quality 100.0 %
     Copy CRC ECFB7358
     Copy OK
No errors occurred
End of status report
Код:
REM DATE 1998
REM GENRE "Jazz Fusion / World Fusion"
REM DISCID AF0DA20A
REM COMMENT "ExactAudioCopy v0.99pb3"
PERFORMER "Rene Engel"
TITLE "Spheres Of Samarkand"
FILE "01 - Cullera.wav" WAVE
  TRACK 01 AUDIO
    TITLE "Cullera"
    PERFORMER "Rene Engel"
    INDEX 01 00:00:00
  TRACK 02 AUDIO
    TITLE "Devils Of The Desert"
    PERFORMER "Rene Engel"
    INDEX 00 08:19:57
FILE "02 - Devils Of The Desert.wav" WAVE
    INDEX 01 00:00:00
  TRACK 03 AUDIO
    TITLE "Hunting Song"
    PERFORMER "Rene Engel"
    INDEX 00 06:19:36
FILE "03 - Hunting Song.wav" WAVE
    INDEX 01 00:00:00
  TRACK 04 AUDIO
    TITLE "So Deep"
    PERFORMER "Rene Engel"
    INDEX 00 04:07:21
FILE "04 - So Deep.wav" WAVE
    INDEX 01 00:00:00
  TRACK 05 AUDIO
    TITLE "Aranjuez"
    PERFORMER "Rene Engel"
    INDEX 00 07:31:48
FILE "05 - Aranjuez.wav" WAVE
    INDEX 01 00:00:00
  TRACK 06 AUDIO
    TITLE "Curacao On My Mind"
    PERFORMER "Rene Engel"
    INDEX 00 05:58:18
FILE "06 - Curacao On My Mind.wav" WAVE
    INDEX 01 00:00:00
  TRACK 07 AUDIO
    TITLE "Spheres Of Samarkand"
    PERFORMER "Rene Engel"
    INDEX 00 06:26:18
FILE "07 - Spheres Of Samarkand.wav" WAVE
    INDEX 01 00:00:00
  TRACK 08 AUDIO
    TITLE "Sikat Sekali Lagi, Nyong! (part 1)"
    PERFORMER "Rene Engel"
    INDEX 00 07:28:55
FILE "08 - Sikat Sekali Lagi, Nyong! (part 1).wav" WAVE
    INDEX 01 00:00:00
  TRACK 09 AUDIO
    TITLE "Fears"
    PERFORMER "Rene Engel"
    INDEX 00 02:57:36
FILE "09 - Fears.wav" WAVE
    INDEX 01 00:00:00
  TRACK 10 AUDIO
    TITLE "Sikat Sekali Lagi, Nyong! (part 2)"
    PERFORMER "Rene Engel"
    INDEX 00 05:13:21
FILE "10 - Sikat Sekali Lagi, Nyong! (part 2).wav" WAVE
    INDEX 01 00:00:00
René Engel — drums (1-10), keyboards (1, 2, 4, 5, 6, 7, 9)
Nippy Noya — percussion (1, 4, 5, 6, 9)
David de Marez Oyens — bass (1, 2, 5, 6, 7)
Davy de Wit — bass (4, 9)
Richard Hallebeek — guitar (1, 2, 4, 5, 6, 7, 9)
Maik Schott — keyboards (1, 2, 3, 4, 5, 6, 7, 9)
Jeroen de Rijk — percussion (1, 2, 4, 5, 6, 7)
Sabri Dereli — vocals (7)
René Engel - Nostalgia
#777Год издания диска: 2002
Издатель (лейбл): CrisCras Records
Номер по каталогу: CCR 043
Продолжительность: 48:45
Источник (релизер): SoulSeek (Crimhead420)
Треклист:
1. Adventures In Afghanistan 6:20
2. Tour De Force 5:28
3. Enschede, May 13 2000 6:45
4. Song For Mandela 6:33
5. Sikat Sekali Laki, Nyong! (part 3) 5:58
6. Nostalgia 5:48
7. Nels 6:00
8. Sikat Sekali Lagi, Nyong! (part 4) 4:07
9. Ode To Bach 1:46
Код:
Exact Audio Copy V0.99 prebeta 3 from 28. July 2007
EAC extraction logfile from 2. January 2009, 23:24
Renй Engel / Nostalgia
Used drive  : TSSTcorpCD/DVDW TS-L532A   Adapter: 1  ID: 1
Read mode               : Secure
Utilize accurate stream : Yes
Defeat audio cache      : Yes
Make use of C2 pointers : No
Read offset correction                      : 116
Overread into Lead-In and Lead-Out          : No
Fill up missing offset samples with silence : Yes
Delete leading and trailing silent blocks   : No
Null samples used in CRC calculations       : Yes
Used interface                              : Native Win32 interface for Win NT & 2000
Gap handling                                : Appended to previous track
Used output format              : User Defined Encoder
Selected bitrate                : 1024 kBit/s
Quality                         : High
Add ID3 tag                     : No
Command line compressor         : C:\Program Files\Exact Audio Copy\FLAC\FLAC.EXE
Additional command line options : -8 -V -T "ARTIST=%a" -T "TITLE=%t" -T "ALBUM=%g" -T "DATE=%y" -T "TRACKNUMBER=%n" -T "GENRE=%m" -T "COMMENT=%e" %s -o %d
TOC of the extracted CD
     Track |   Start  |  Length  | Start sector | End sector
    ---------------------------------------------------------
        1  |  0:00.00 |  6:20.29 |         0    |    28528
        2  |  6:20.29 |  5:28.20 |     28529    |    53148
        3  | 11:48.49 |  6:45.08 |     53149    |    83531
        4  | 18:33.57 |  6:33.24 |     83532    |   113030
        5  | 25:07.06 |  5:58.01 |    113031    |   139881
        6  | 31:05.07 |  5:47.60 |    139882    |   165966
        7  | 36:52.67 |  5:59.51 |    165967    |   192942
        8  | 42:52.43 |  4:06.62 |    192943    |   211454
        9  | 46:59.30 |  1:46.23 |    211455    |   219427
Track  1
     Filename C:\Documents and Settings\martin schotman\Mijn documenten\Renй Engel - Nostalgia - 01. Adventures In Afghanistan .wav
     Pre-gap length  0:00:02.00
     Peak level 96.6 %
     Track quality 100.0 %
     Copy CRC EF35D5A7
     Copy OK
Track  2
     Filename C:\Documents and Settings\martin schotman\Mijn documenten\Renй Engel - Nostalgia - 02. Tour De Force .wav
     Pre-gap length  0:00:01.60
     Peak level 96.6 %
     Track quality 100.0 %
     Copy CRC F08BB991
     Copy OK
Track  3
     Filename C:\Documents and Settings\martin schotman\Mijn documenten\Renй Engel - Nostalgia - 03. Enschede, May 13 2000 .wav
     Pre-gap length  0:00:02.60
     Peak level 96.5 %
     Track quality 99.9 %
     Copy CRC 2F162F92
     Copy OK
Track  4
     Filename C:\Documents and Settings\martin schotman\Mijn documenten\Renй Engel - Nostalgia - 04. Song For Mandela .wav
     Pre-gap length  0:00:01.60
     Peak level 96.5 %
     Track quality 100.0 %
     Copy CRC 61752791
     Copy OK
Track  5
     Filename C:\Documents and Settings\martin schotman\Mijn documenten\Renй Engel - Nostalgia - 05. Sikat Sekau Laki, Nyong! (part 3) .wav
     Pre-gap length  0:00:01.60
     Peak level 96.5 %
     Track quality 100.0 %
     Copy CRC 5E118B19
     Copy OK
Track  6
     Filename C:\Documents and Settings\martin schotman\Mijn documenten\Renй Engel - Nostalgia - 06. Nostalgia .wav
     Pre-gap length  0:00:00.60
     Peak level 96.5 %
     Track quality 100.0 %
     Copy CRC 08079E24
     Copy OK
Track  7
     Filename C:\Documents and Settings\martin schotman\Mijn documenten\Renй Engel - Nostalgia - 07. Nels .wav
     Pre-gap length  0:00:01.60
     Peak level 96.5 %
     Track quality 100.0 %
     Copy CRC F7582E56
     Copy OK
Track  8
     Filename C:\Documents and Settings\martin schotman\Mijn documenten\Renй Engel - Nostalgia - 08. Sikat Sekau Lagi, Nyong! (part 4) .wav
     Pre-gap length  0:00:01.60
     Peak level 96.5 %
     Track quality 100.0 %
     Copy CRC 5CE8E01C
     Copy OK
Track  9
     Filename C:\Documents and Settings\martin schotman\Mijn documenten\Renй Engel - Nostalgia - 09. Ode To Bach .wav
     Pre-gap length  0:00:02.60
     Peak level 51.1 %
     Track quality 100.0 %
     Copy CRC 89EF917C
     Copy OK
No errors occurred
End of status report
Код:
REM DATE 2002
REM GENRE "Jazz Fusion / World Fusion"
REM DISCID 6C0B6D09
REM COMMENT "ExactAudioCopy v0.99pb3"
PERFORMER "Rene Engel"
TITLE "Nostalgia"
FILE "01 - Adventures In Afghanistan.wav" WAVE
  TRACK 01 AUDIO
    TITLE "Adventures In Afghanistan"
    PERFORMER "Rene Engel"
    INDEX 01 00:00:00
  TRACK 02 AUDIO
    TITLE "Tour De Force"
    PERFORMER "Rene Engel"
    INDEX 00 06:18:59
FILE "02 - Tour De Force.wav" WAVE
    INDEX 01 00:00:00
  TRACK 03 AUDIO
    TITLE "Enschede, May 13 2000"
    PERFORMER "Rene Engel"
    INDEX 00 05:25:50
FILE "03 - Enschede, May 13 2000.wav" WAVE
    INDEX 01 00:00:00
  TRACK 04 AUDIO
    TITLE "Song For Mandela"
    PERFORMER "Rene Engel"
    INDEX 00 06:43:38
FILE "04 - Song For Mandela.wav" WAVE
    INDEX 01 00:00:00
  TRACK 05 AUDIO
    TITLE "Sikat Sekali Laki, Nyong! (part 3)"
    PERFORMER "Rene Engel"
    INDEX 00 06:31:54
FILE "05 - Sikat Sekali Laki, Nyong! (part 3).wav" WAVE
    INDEX 01 00:00:00
  TRACK 06 AUDIO
    TITLE "Nostalgia"
    PERFORMER "Rene Engel"
    INDEX 00 05:57:31
FILE "06 - Nostalgia.wav" WAVE
    INDEX 01 00:00:00
  TRACK 07 AUDIO
    TITLE "Nels"
    PERFORMER "Rene Engel"
    INDEX 00 05:46:15
FILE "07 - Nels.wav" WAVE
    INDEX 01 00:00:00
  TRACK 08 AUDIO
    TITLE "Sikat Sekali Lagi, Nyong! (part 4)"
    PERFORMER "Rene Engel"
    INDEX 00 05:58:06
FILE "08 - Sikat Sekali Lagi, Nyong! (part 4).wav" WAVE
    INDEX 01 00:00:00
  TRACK 09 AUDIO
    TITLE "Ode To Bach"
    PERFORMER "Rene Engel"
    INDEX 00 04:04:17
FILE "09 - Ode To Bach.wav" WAVE
    INDEX 01 00:00:00
René Engel — drums, keyboards
Nippy Noya — percussion
David de Marez Oyens — bass
Davy de Wit — bass
Richard Hallebeek — guitar
Maik Schott — keyboards

René Engel
Drum-Teacher at the Artez Conservatory and Pop Academy Enschede, The Netherlands. Performed/recorded with various artists, like Billy Cobham, Herman Brood, Shawn Lane, Nippy Noya, Jazzsick (with a.o. Mike Stern, Danny Gottlieb), Hans Dulfer, Carlo de Wijs, Jasper van 't Hof, Philip van Endert, The Buffoons, Matalex - guitarist Alex Gunia, Chris Beckers, Soul on the Rocks and many more. He won the Yamamha Best Musician Award.
René Engel Group
Dutch drummer/composer René Engel founded his «Group» in 1995 after the release of his first solo-album «Despite Opposition», followed by «Spheres of Samarkand» (1998) and «Nostalgia» (2003), which had been especially recommended by USA-magazine Fusemag, as a «fantastic, fresh-sounding fusion/world disc». His music has been characterized as a wide harmonic/melodic concept combined with a strong rhythmical impact, which includes all different styles, like rock, jazz, latin and world-music, mixed up in his typical expressive and energetic form. No typical «drummer's music», but really composed music in which all instruments have their exciting contribution, having their dominant place for showing improvisations. Together with the drums/percussion duets and solos, live it makes his music an adventurously voyage through contemporary music.
www.rene-engel.nl
24.02.2013 Рип альбома «Despite Opposition» заменен на корректный, торрент перезалит.
Правила, инструкции, FAQ!!!
Торрент  Добавлен [14 сен 2017, 19:54] Скачать торрент Магнет ссылка
Скачать торрент
[ Размер 15.81 КБ / Просмотров 41 ]

Статус
Проверен 
 
Размер  1.12 ГБ
Приватный: Нет (DHT включён)
.torrent скачан  0
Как залить торрент? | Как скачать Torrent? | Ошибка в торренте? Качайте магнет  
загрузка...


     Отправить личное сообщение
   
Страница 1 из 1
Показать сообщения за:  Поле сортировки  
Начать новую тему Ответить на тему

   Похожие торренты   Автор   Ответы   Просмотры   Последнее сообщение 
В этой теме нет новых непрочитанных сообщений. Скачать торрент Проверен (Fusion) [CD] Rene Engel - Slow Life - 2013, FLAC (tracks+.cue), lossless

в форуме Jazz Fusion, Размер: 385.33 МБ, Здоровье: 100%

Anonymous

0
3|1

12
0

14 сен 2017, 21:55

Anonymous Перейти к последнему сообщению

В этой теме нет новых непрочитанных сообщений. Скачать торрент Проверен (Turkish Pop) Görkem (Gorkem) - Aşka Engel (EP) (Aska Engel) - 2012, MP3, 160 kbps

в форуме Зарубежная музыка, Размер: 22.63 МБ, Здоровье: 0%

Anonymous

0
0|0

7
0

23 июн 2017, 19:48

Anonymous Перейти к последнему сообщению

В этой теме нет новых непрочитанных сообщений. Скачать торрент Проверен (Fusion, Post-Bop, Progressive Jazz, Crossover Jazz, Contemporary Jazz, Funk, World Fusion) Jonas Hellborg with Shawn Lane and Kofi Baker - Abstract Logic - 1995, FLAC (image+.cue), lossless

в форуме Jazz Fusion, Размер: 251.92 МБ, Здоровье: 100%

Anonymous

0
3|0

45
3

16 сен 2017, 11:10

Anonymous Перейти к последнему сообщению

В этой теме нет новых непрочитанных сообщений. Скачать торрент Проверен (Fusion/World Jazz) The Zawinul Syndicate - Live in Den Haag, July 1995 feat. John McLaughlin - 1995, FLAC (tracks+.cue), lossless

в форуме Jazz Fusion, Размер: 447.15 МБ, Здоровье: 100%

Anonymous

0
8|2

9
2

14 сен 2017, 21:44

Anonymous Перейти к последнему сообщению

В этой теме нет новых непрочитанных сообщений. Скачать торрент Проверен (Jazz Fusion, World Fusion, Modern Creative, Jazz-Rock, Jazz-Folk, Crossover, Contemporary) [WEB] Girls in Airports - Migration (2011) {Mawi Music MAWIMUSIC3, Denmark} - 2012, FLAC (tracks), lossless

в форуме Jazz Fusion, Размер: 244.36 МБ, Здоровье: 0%

Anonymous

0
0|0

42
0

16 сен 2017, 11:09

Anonymous Перейти к последнему сообщению



Сейчас этот форум просматривают: нет зарегистрированных пользователей и гости: 1


Вы не можете начинать темы
Вы не можете отвечать на сообщения
Вы не можете редактировать свои сообщения
Вы не можете удалять свои сообщения
Вы не можете добавлять вложения

Перейти:  
Ресурс не предоставляет электронные версии произведений, а занимается лишь коллекционированием и каталогизацией ссылок, присылаемых и публикуемых на форуме нашими читателями. Если вы являетесь правообладателем какого-либо представленного материала и не желаете чтобы ссылка на него находилась в нашем каталоге, свяжитесь с нами и мы незамедлительно удалим её. Файлы для обмена на трекере предоставлены пользователями сайта, и администрация не несёт ответственности за их содержание. Просьба не заливать файлы, защищенные авторскими правами, а также файлы нелегального содержания!
cron