На всех торрентах на трекере установлена скидка на скачивание в размере 100 процентов(а).
 Возможность скачивания торрента НЕ зависит от ограничений при низком ратио, низком аплоаде, требуемом ратио или требуемом аплоаде.


Начать новую тему Ответить на тему
Статистика раздачи
Размер: 142.61 МБ | Добавлен: 14 сен 2017, 00:13 | Скачали: 3
Сидеров: 99  [0 байт/сек]    Личеров: 4  [0 байт/сек]
Пред. тема | След. тема 

Автор
Сообщение

СообщениеДобавлено: 14 сен 2017, 00:13 

Ответить с цитатой 

•Dominic Miller & Neil Stacey - New Dawn•

Жанр: Jazz Fusion, Guitar Jazz
Год издания: 2002
Издатель (лейбл): Naim Audio
Аудиокодек: FLAC (*.flac)
Тип рипа: tracks+.cue
Битрейт аудио: lossless
Продолжительность: 00:43:26
Источник (релизер): indeep1
Наличие сканов в содержимом раздачи: нет
Треклист:
01. New Dawn [04:30]
02. La Belle Dame Sans Regrets [03:47]
03. El Fado [02:29]
04. La Boca [03:48]
05. Dylan [04:14]
06. David [03:59]
07. Rush Hour [03:26]
08. Promise [03:46]
09. Shape Of My Heart [03:51]
10. Another Day [03:56]
11. Eclipse [02:35]
12. Friends [03:01]

Personnel:
Dominic Miller - guitar
Neil Stacey - guitar
Код:
Exact Audio Copy V0.99 prebeta 4 from 23. January 2008
EAC extraction logfile from 26. July 2010, 23:31
Dominic Miller & Neil Stacey / New Dawn
Used drive  : HL-DT-STDVD-RAM GSA-H55N   Adapter: 0  ID: 0
Read mode               : Secure
Utilize accurate stream : Yes
Defeat audio cache      : Yes
Make use of C2 pointers : No
Read offset correction                      : 102
Overread into Lead-In and Lead-Out          : Yes
Fill up missing offset samples with silence : Yes
Delete leading and trailing silent blocks   : No
Null samples used in CRC calculations       : Yes
Used interface                              : Installed external ASPI interface
Gap handling                                : Appended to previous track
Used output format              : User Defined Encoder
Selected bitrate                : 768 kBit/s
Quality                         : High
Add ID3 tag                     : No
Command line compressor         : C:\Program Files\Exact Audio Copy\Flac\flac.exe
Additional command line options : -8 -V -T "ARTIST=%a" -T "TITLE=%t" -T "ALBUM=%g" -T "DATE=%y" -T "TRACKNUMBER=%n" -T "GENRE=%m" -T "COMMENT=EAC FLAC -8" %s
TOC of the extracted CD
     Track |   Start  |  Length  | Start sector | End sector
    ---------------------------------------------------------
        1  |  0:00.00 |  4:30.05 |         0    |    20254
        2  |  4:30.05 |  3:47.37 |     20255    |    37316
        3  |  8:17.42 |  2:29.10 |     37317    |    48501
        4  | 10:46.52 |  3:48.33 |     48502    |    65634
        5  | 14:35.10 |  4:14.65 |     65635    |    84749
        6  | 18:50.00 |  3:59.10 |     84750    |   102684
        7  | 22:49.10 |  3:26.12 |    102685    |   118146
        8  | 26:15.22 |  3:46.38 |    118147    |   135134
        9  | 30:01.60 |  3:51.27 |    135135    |   152486
       10  | 33:53.12 |  3:56.20 |    152487    |   170206
       11  | 37:49.32 |  2:35.43 |    170207    |   181874
       12  | 40:25.00 |  3:01.42 |    181875    |   195491
Track  1
     Filename H:\Rips\01 - New Dawn.wav
     Pre-gap length  0:00:02.00
     Peak level 74.3 %
     Track quality 100.0 %
     Test CRC ED0D0218
     Copy CRC ED0D0218
     Accurately ripped (confidence 14)  [DAA77AF3]
     Copy OK
Track  2
     Filename H:\Rips\02 - La Belle Dame Sans Regrets.wav
     Pre-gap length  0:00:02.20
     Peak level 55.8 %
     Track quality 100.0 %
     Test CRC A4895263
     Copy CRC A4895263
     Accurately ripped (confidence 14)  [34C158F7]
     Copy OK
Track  3
     Filename H:\Rips\03 - El Fado.wav
     Pre-gap length  0:00:01.22
     Peak level 79.2 %
     Track quality 100.0 %
     Test CRC 45A59E86
     Copy CRC 45A59E86
     Accurately ripped (confidence 15)  [6F3330A3]
     Copy OK
Track  4
     Filename H:\Rips\04 - La Boca.wav
     Pre-gap length  0:00:01.66
     Peak level 73.2 %
     Track quality 99.9 %
     Test CRC 0A79C170
     Copy CRC 0A79C170
     Accurately ripped (confidence 15)  [C24699B1]
     Copy OK
Track  5
     Filename H:\Rips\05 - Dylan.wav
     Pre-gap length  0:00:02.30
     Peak level 58.7 %
     Track quality 100.0 %
     Test CRC C2778F55
     Copy CRC C2778F55
     Accurately ripped (confidence 14)  [FB4B7F56]
     Copy OK
Track  6
     Filename H:\Rips\06 - David.wav
     Pre-gap length  0:00:02.10
     Peak level 46.6 %
     Track quality 100.0 %
     Test CRC 3AE25964
     Copy CRC 3AE25964
     Accurately ripped (confidence 14)  [F7D6B6FF]
     Copy OK
Track  7
     Filename H:\Rips\07 - Rush Hour.wav
     Pre-gap length  0:00:02.17
     Peak level 81.4 %
     Track quality 100.0 %
     Test CRC ECC679DB
     Copy CRC ECC679DB
     Accurately ripped (confidence 14)  [DC7C824E]
     Copy OK
Track  8
     Filename H:\Rips\08 - Promise.wav
     Pre-gap length  0:00:01.89
     Peak level 26.6 %
     Track quality 100.0 %
     Test CRC DAEEEBE6
     Copy CRC DAEEEBE6
     Accurately ripped (confidence 14)  [B0A08297]
     Copy OK
Track  9
     Filename H:\Rips\09 - Shape Of My Heart.wav
     Pre-gap length  0:00:02.04
     Peak level 66.2 %
     Track quality 100.0 %
     Test CRC A0F2975D
     Copy CRC A0F2975D
     Accurately ripped (confidence 14)  [8077458B]
     Copy OK
Track 10
     Filename H:\Rips\10 - Another Day.wav
     Pre-gap length  0:00:02.26
     Peak level 48.1 %
     Track quality 100.0 %
     Test CRC 526EC51C
     Copy CRC 526EC51C
     Accurately ripped (confidence 14)  [6A8F81E4]
     Copy OK
Track 11
     Filename H:\Rips\11 - Eclipse.wav
     Pre-gap length  0:00:01.42
     Peak level 43.2 %
     Track quality 100.0 %
     Test CRC B884D437
     Copy CRC B884D437
     Accurately ripped (confidence 14)  [6324A4AC]
     Copy OK
Track 12
     Filename H:\Rips\12 - Friends.wav
     Pre-gap length  0:00:02.17
     Peak level 29.6 %
     Track quality 100.0 %
     Test CRC F334E29D
     Copy CRC F334E29D
     Accurately ripped (confidence 14)  [568CB589]
     Copy OK
All tracks accurately ripped
No errors occurred
End of status report
Код:
REM GENRE Jazz
REM DATE 2002
REM DISCID A30A2E0C
REM COMMENT "ExactAudioCopy v0.99pb4"
PERFORMER "Dominic Miller & Neil Stacey"
TITLE "New Dawn"
FILE "01 - New Dawn.wav" WAVE
  TRACK 01 AUDIO
    TITLE "New Dawn"
    PERFORMER "Dominic Miller & Neil Stacey"
    INDEX 01 00:00:00
  TRACK 02 AUDIO
    TITLE "La Belle Dame Sans Regrets"
    PERFORMER "Dominic Miller & Neil Stacey"
    INDEX 00 04:27:65
FILE "02 - La Belle Dame Sans Regrets.wav" WAVE
    INDEX 01 00:00:00
  TRACK 03 AUDIO
    TITLE "El Fado"
    PERFORMER "Dominic Miller & Neil Stacey"
    INDEX 00 03:46:20
FILE "03 - El Fado.wav" WAVE
    INDEX 01 00:00:00
  TRACK 04 AUDIO
    TITLE "La Boca"
    PERFORMER "Dominic Miller & Neil Stacey"
    INDEX 00 02:27:35
FILE "04 - La Boca.wav" WAVE
    INDEX 01 00:00:00
  TRACK 05 AUDIO
    TITLE "Dylan"
    PERFORMER "Dominic Miller & Neil Stacey"
    INDEX 00 03:46:10
FILE "05 - Dylan.wav" WAVE
    INDEX 01 00:00:00
  TRACK 06 AUDIO
    TITLE "David"
    PERFORMER "Dominic Miller & Neil Stacey"
    INDEX 00 04:12:57
FILE "06 - David.wav" WAVE
    INDEX 01 00:00:00
  TRACK 07 AUDIO
    TITLE "Rush Hour"
    PERFORMER "Dominic Miller & Neil Stacey"
    INDEX 00 03:56:72
FILE "07 - Rush Hour.wav" WAVE
    INDEX 01 00:00:00
  TRACK 08 AUDIO
    TITLE "Promise"
    PERFORMER "Dominic Miller & Neil Stacey"
    INDEX 00 03:24:20
FILE "08 - Promise.wav" WAVE
    INDEX 01 00:00:00
  TRACK 09 AUDIO
    TITLE "Shape Of My Heart"
    PERFORMER "Dominic Miller & Neil Stacey"
    INDEX 00 03:44:35
FILE "09 - Shape Of My Heart.wav" WAVE
    INDEX 01 00:00:00
  TRACK 10 AUDIO
    TITLE "Another Day"
    PERFORMER "Dominic Miller & Neil Stacey"
    INDEX 00 03:49:07
FILE "10 - Another Day.wav" WAVE
    INDEX 01 00:00:00
  TRACK 11 AUDIO
    TITLE "Eclipse"
    PERFORMER "Dominic Miller & Neil Stacey"
    INDEX 00 03:54:63
FILE "11 - Eclipse.wav" WAVE
    INDEX 01 00:00:00
  TRACK 12 AUDIO
    TITLE "Friends"
    PERFORMER "Dominic Miller & Neil Stacey"
    INDEX 00 02:33:30
FILE "12 - Friends.wav" WAVE
    INDEX 01 00:00:00
Правила, инструкции, FAQ!!!
Торрент  Добавлен [14 сен 2017, 00:13] Скачать торрент Магнет ссылка
Скачать торрент
[ Размер 12.59 КБ / Просмотров 61 ]

Статус
Проверен 
 
Размер  142.61 МБ
Приватный: Нет (DHT включён)
.torrent скачан  3
Как залить торрент? | Как скачать Torrent? | Ошибка в торренте? Качайте магнет  
загрузка...


     Отправить личное сообщение
   
Страница 1 из 1
Показать сообщения за:  Поле сортировки  
Начать новую тему Ответить на тему

   Похожие торренты   Автор   Ответы   Просмотры   Последнее сообщение 
В этой теме нет новых непрочитанных сообщений. Скачать торрент Проверен (Fusion, Jazz-Pop) [CD] Dominic Miller - First Touch - 1995, FLAC (tracks), lossless

в форуме Jazz Fusion, Размер: 160.13 МБ, Здоровье: 100%

Anonymous

0
261|1

21
2

13 сен 2017, 23:32

Anonymous Перейти к последнему сообщению

В этой теме нет новых непрочитанных сообщений. Скачать торрент Проверен (Crossover Jazz, Fusion, ACT Music) Wolfgang Haffner (feat. Dominic Miller) - Heart of the Matter - 2012, WEB, FLAC (tracks), lossless

в форуме Jazz Fusion, Размер: 333.89 МБ, Здоровье: 100%

Anonymous

0
77|4

20
2

16 сен 2017, 09:39

Anonymous Перейти к последнему сообщению

В этой теме нет новых непрочитанных сообщений. Скачать торрент Проверен (Jazz Fusion / Smooth Jazz / Guitar Jazz) [CD] Larry Coryell (Jeanie Bryson, Klyde Jones, Richard Elliot, Chris Hunter, Mulgrew Miller, Ted Rosenthal) - Fallen Angel - 1993 [CTI Records], FLAC (tracks+.cue), lossless

в форуме Jazz Fusion, Размер: 316.41 МБ, Здоровье: 100%

Anonymous

0
17|4

50
1

13 сен 2017, 23:09

Anonymous Перейти к последнему сообщению

В этой теме нет новых непрочитанных сообщений. Скачать торрент Проверен (Fusion, Smooth Jazz) [CD] Novecento feat. Dominic Miller - Surrender - 2009, FLAC (image+.cue), lossless

в форуме Jazz Fusion, Размер: 279.92 МБ, Здоровье: 100%

Anonymous

0
1|0

15
0

13 сен 2017, 23:08

Anonymous Перейти к последнему сообщению

В этой теме нет новых непрочитанных сообщений. Скачать торрент Проверен (Acoustic jazz / Acoustic New Age / Fusion) Dominic Miller - November - 2010, FLAC (tracks+.cue+scans), lossless

в форуме Jazz Fusion, Размер: 306.4 МБ, Здоровье: 100%

Anonymous

0
8|2

30
1

13 сен 2017, 22:17

Anonymous Перейти к последнему сообщению



Сейчас этот форум просматривают: нет зарегистрированных пользователей и гости: 1


Вы не можете начинать темы
Вы не можете отвечать на сообщения
Вы не можете редактировать свои сообщения
Вы не можете удалять свои сообщения
Вы не можете добавлять вложения

Перейти:  
Ресурс не предоставляет электронные версии произведений, а занимается лишь коллекционированием и каталогизацией ссылок, присылаемых и публикуемых на форуме нашими читателями. Если вы являетесь правообладателем какого-либо представленного материала и не желаете чтобы ссылка на него находилась в нашем каталоге, свяжитесь с нами и мы незамедлительно удалим её. Файлы для обмена на трекере предоставлены пользователями сайта, и администрация не несёт ответственности за их содержание. Просьба не заливать файлы, защищенные авторскими правами, а также файлы нелегального содержания!
cron