На всех торрентах на трекере установлена скидка на скачивание в размере 100 процентов(а).
 Возможность скачивания торрента НЕ зависит от ограничений при низком ратио, низком аплоаде, требуемом ратио или требуемом аплоаде.


Начать новую тему Ответить на тему
Статистика раздачи
Размер: 546.36 МБ | Добавлен: 03 июл 2018, 21:55 | Скачали: 1
Сидеров: 38  [0 байт/сек]    Личеров: 6  [0 байт/сек]
Пред. тема | След. тема 

Автор
Сообщение

СообщениеДобавлено: 03 июл 2018, 21:55 

Ответить с цитатой 

Jason Charles Miller / In The Wasteland
Формат записи/Источник записи: [TR24][OF]
Наличие водяных знаков: Нет
Год издания/переиздания диска: 2018
Жанр: Rock
Продолжительность: 00:41:38
Наличие сканов в содержимом раздачи: Нет
Источник: Сеть (купить)
Треклист:

01. Hundred Pound Hammer (4:08)
02. In The Wasteland (3:37)
03. No Bridge Left Unburned (3:23)
04. Get Thee Behind Me (4:22)
05. Trunk Full of Bibles (3:47)
06. Riverbank (3:10)
07. Old Scarecrow feat Charlie Starr & Rickey Medlocke (3:01)
08. The Line (3:49)
09. Running (3:17)
10. No More Reasons (5:14)
11. Finding My Way In The Dark (3:49)
Контейнер: FLAC (*.flac)
Тип рипа: tracks
Разрядность: 24/48
Формат: PCM
Количество каналов: 2.0
Код:
foobar2000 1.3.17 / Замер динамического диапазона (DR) 1.1.1
Дата отчёта:  2018-06-16 16:55:32
--------------------------------------------------------------------------------
Анализ:   Jason Charles Miller / In The Wasteland
--------------------------------------------------------------------------------
DR         Пики         RMS           Продолжительность трека
--------------------------------------------------------------------------------
DR5       -0.28 дБ    -6.96 дБ      4:08 01-Hundred Pound Hammer
DR6       -0.28 дБ    -7.47 дБ      3:37 02-In The Wasteland
DR5       -0.28 дБ    -6.66 дБ      3:23 03-No Bridge Left Unburned
DR6       -0.28 дБ    -8.50 дБ      4:22 04-Get Thee Behind Me
DR5       -0.28 дБ    -6.46 дБ      3:47 05-Trunk Full of Bibles
DR7       -0.28 дБ    -8.19 дБ      3:10 06-Riverbank
DR7       -0.28 дБ    -7.99 дБ      3:01 07-Old Scarecrow
DR6       -0.28 дБ    -7.28 дБ      3:49 08-The Line
DR6       -0.28 дБ    -7.34 дБ      3:17 09-Running
DR6       -0.28 дБ    -7.93 дБ      5:14 10-No More Reasons
DR7       -0.28 дБ    -8.64 дБ      3:49 11-Finding My Way In The Dark
--------------------------------------------------------------------------------
Количество треков: 11
Реальные значения DR: DR6
Частота:   48000 Гц
Каналов:   2
Разрядность:   24
Битрейт:   1730 кбит/с
Кодек:   FLAC
================================================================================
загрузка...
Правила, инструкции, FAQ!!!
Торрент  Добавлен [03 июл 2018, 21:55] Скачать торрент Магнет ссылка
Скачать торрент
[ Размер 11.74 КБ / Просмотров 73 ]

Статус
Проверен 
 
Размер  546.36 МБ
Приватный: Нет (DHT включён)
.torrent скачан  1
Как залить торрент? | Как скачать Torrent? | Ошибка в торренте? Качайте магнет  


     Отправить личное сообщение
   
Страница 1 из 1
Показать сообщения за:  Поле сортировки  
Начать новую тему Ответить на тему

   Похожие торренты   Автор   Ответы   Просмотры   Последнее сообщение 
В этой теме нет новых непрочитанных сообщений. Скачать торрент Проверен (Southern Rock) Jason Charles Miller (Jason C. Miller, Godhead) - In The Wasteland - 2018, MP3, 320 kbps

в форуме Classic Rock & Hard Rock, Размер: 96.52 МБ, Здоровье: ???%

Anonymous

0
0|1

9
0

29 июн 2018, 20:28

Anonymous Перейти к последнему сообщению

В этой теме нет новых непрочитанных сообщений. Скачать торрент Проверен [TR24][OF] Jason Chan - Jason Chan Speechless (Live in Concert 2017) - 2018 (Pop)

в форуме Hi-Res stereo (Поп), Размер: 1.37 ГБ, Здоровье: 80%

Anonymous

0
4|5

68
1

23 фев 2018, 23:45

Anonymous Перейти к последнему сообщению

В этой теме нет новых непрочитанных сообщений. Скачать торрент Проверен [TR24][OF] Charles Lloyd & Jason Moran - Hagar's Song - 2013 (ECM, Post-Bop, Modern Creative)

в форуме Hi-Res stereo (Джаз и Блюз), Размер: 1.24 ГБ, Здоровье: 100%

Anonymous

0
19|5

85
2

27 авг 2016, 15:07

Anonymous Перейти к последнему сообщению

В этой теме нет новых непрочитанных сообщений. Скачать торрент Проверен (Contemporary Jazz, Crossover Jazz, Post-Bop) Jason Miles - Cozmopolitan (feat. Michael Brecker, Marcus Miller, Steve Khan, Mark Egan, Gerry Nielwood, Ricardo Silveira) - 2005, FLAC (image+.cue), lossless

в форуме Jazz Fusion, Размер: 382.16 МБ, Здоровье: 22%

Anonymous

0
12|53

41
3

16 сен 2017, 11:05

Anonymous Перейти к последнему сообщению

В этой теме нет новых непрочитанных сообщений. Скачать торрент Проверен Glenn Miller And His Orchestra - Glenn Miller Plays Selections From The Glenn Miller Story And Other Hits (Original Recording) (1956) [FLAC 2.0|24/96 (Vinyl Rip)]<Jazz>

в форуме Vinyl-Rip и Hand-Made, Размер: 456.91 МБ, Здоровье: 100%

Anonymous

0
527|17

342
14

08 фев 2015, 00:38

Anonymous Перейти к последнему сообщению



Сейчас этот форум просматривают: нет зарегистрированных пользователей и гости: 1


Вы не можете начинать темы
Вы не можете отвечать на сообщения
Вы не можете редактировать свои сообщения
Вы не можете удалять свои сообщения
Вы не можете добавлять вложения

Перейти:  
Ресурс не предоставляет электронные версии произведений, а занимается лишь коллекционированием и каталогизацией ссылок, присылаемых и публикуемых на форуме нашими читателями. Если вы являетесь правообладателем какого-либо представленного материала и не желаете чтобы ссылка на него находилась в нашем каталоге, свяжитесь с нами и мы незамедлительно удалим её. Файлы для обмена на трекере предоставлены пользователями сайта, и администрация не несёт ответственности за их содержание. Просьба не заливать файлы, защищенные авторскими правами, а также файлы нелегального содержания!
cron