На всех торрентах на трекере установлена скидка на скачивание в размере 100 процентов(а).
 Возможность скачивания торрента НЕ зависит от ограничений при низком ратио, низком аплоаде, требуемом ратио или требуемом аплоаде.


Начать новую тему Ответить на тему
Статистика раздачи
Размер: 1.37 ГБ | Добавлен: 23 фев 2018, 23:45 | Скачали: 1
Сидеров: 4  [0 байт/сек]    Личеров: 5  [0 байт/сек]
Пред. тема | След. тема 

Автор
Сообщение

СообщениеДобавлено: 23 фев 2018, 23:45 

Ответить с цитатой 

Jason Chan / Jason Chan Speechless (Live in Concert 2017)
Формат записи/Источник записи: [TR24][OF]
Наличие водяных знаков: Нет
Год издания/переиздания диска: 2018
Жанр: Pop
Издатель (лейбл): Sony Music Entertainment
Продолжительность: 02:03:10
Наличие сканов в содержимом раздачи: Нет
Источник (релизер): 7digital
Контейнер: FLAC (*.flac)
Тип рипа: tracks
Разрядность: 24/48
Формат: PCM
Количество каналов: 2.0
01. Overture
02. Ba Qi Qing Ge
03. Hui Mou Yi Xiao
04. Yi Shi Xing Tai Jian Yu
05. Yao Xin Yao Fei
06. Mian Qiang Zong Mian Zhi
07. I Miss You
08. Jiao Cha Shen Jing
09. Qing Gen Wo Zou
10. Hard to Say Goodbye
11. I Will Be Loving You
12. Jian
13. Ni Man Wo Man
14. Yi Hou
15. Hang Pai
16. Yong Jiu Bao Cun
17. Zhuan Tou
18. Mei You Ni, Wo Shen Me Dou Bu Shi
19. Wo Man Ni Men
20. Jeep
21. Bie Pa Shi Qu
22. Rang Zi Dan Fei
23. Gu Zhi
24. Yuan Liang Wo Pa Hei
25. Yue Hou Ji Fen
26. Che Shi
27. Duan Jue Lai Wang
28. Zun Yan
29. Don't Cry Baby
30. Bie Lai Wu Yang
31. Gao Bie Zhi Qian
32. Xiang Chuang
Код:
foobar2000 1.1.10 / Dynamic Range Meter 1.1.1
log date: 2018-02-13 21:55:29
--------------------------------------------------------------------------------
Analyzed: Jason Chan / Jason Chan Speechless (Live in Concert 2017)
--------------------------------------------------------------------------------
DR         Peak         RMS     Duration Track
--------------------------------------------------------------------------------
DR11      -9.36 dB   -23.65 dB      0:25 ?-Overture (Speechless Live 2017)
DR13      -0.20 dB   -15.69 dB      4:02 ?-Ba Qi Qing Ge (Speechless Live 2017)
DR13      -0.20 dB   -17.45 dB      4:07 ?-Hui Mou Yi Xiao (Speechless Live 2017)
DR13      -0.20 dB   -14.52 dB      3:21 ?-Yi Shi Xing Tai Jian Yu (Speechless Live 2017)
DR12      -0.20 dB   -15.75 dB      8:27 ?-Yao Xin Yao Fei (Speechless Live 2017)
DR12      -0.20 dB   -14.28 dB      3:17 ?-Mian Qiang Zong Mian Zhi (Speechless Live 2017)
DR12      -0.20 dB   -14.49 dB      3:44 ?-I Miss You (Speechless Live 2017)
DR14      -0.20 dB   -17.06 dB      3:12 ?-Jiao Cha Shen Jing (Speechless Live 2017)
DR13      -0.20 dB   -16.16 dB      3:03 ?-Qing Gen Wo Zou (Speechless Live 2017)
DR11      -8.56 dB   -24.40 dB      1:35 ?-Hard to Say Goodbye (Speechless Live 2017)
DR12      -0.20 dB   -15.56 dB      3:24 ?-I Will Be Loving You (Speechless Live 2017)
DR14      -0.45 dB   -18.70 dB      3:42 ?-Jian (Speechless Live 2017)
DR12      -0.20 dB   -15.55 dB      4:41 ?-Ni Man Wo Man (Speechless Live 2017)
DR12      -0.20 dB   -15.02 dB      5:14 ?-Yi Hou (Speechless Live 2017)
DR13      -0.20 dB   -16.58 dB      4:15 ?-Hang Pai (Speechless Live 2017)
DR12      -0.20 dB   -13.91 dB      3:25 ?-Yong Jiu Bao Cun (Speechless Live 2017)
DR12      -0.20 dB   -14.74 dB      3:46 ?-Zhuan Tou (Speechless Live 2017)
DR12      -0.20 dB   -15.59 dB      4:45 ?-Mei You Ni, Wo Shen Me Dou Bu Shi (Speechless Live 2017)
DR13      -1.34 dB   -16.55 dB      2:16 ?-Wo Man Ni Men (Speechless Live 2017)
DR12      -1.13 dB   -16.70 dB      2:21 ?-Jeep (Speechless Live 2017)
DR13      -0.20 dB   -15.46 dB      3:17 ?-Bie Pa Shi Qu (Speechless Live 2017)
DR12      -0.20 dB   -15.04 dB      4:41 ?-Rang Zi Dan Fei (Speechless Live 2017)
DR13      -0.20 dB   -16.45 dB      4:44 ?-Gu Zhi (Speechless Live 2017)
DR12      -0.20 dB   -14.46 dB      3:58 ?-Yuan Liang Wo Pa Hei (Speechless Live 2017)
DR12      -0.20 dB   -15.58 dB      5:12 ?-Yue Hou Ji Fen (Speechless Live 2017)
DR13      -0.20 dB   -14.73 dB      3:38 ?-Che Shi (Speechless Live 2017)
DR13      -0.20 dB   -16.20 dB      3:23 ?-Duan Jue Lai Wang (Speechless Live 2017)
DR13      -0.20 dB   -15.91 dB      4:12 ?-Zun Yan (Speechless Live 2017)
DR12      -0.20 dB   -15.28 dB      3:39 ?-Don't Cry Baby (Speechless Live 2017)
DR11      -0.20 dB   -14.47 dB      4:23 ?-Bie Lai Wu Yang (Speechless Live 2017)
DR12      -0.20 dB   -15.23 dB      4:16 ?-Gao Bie Zhi Qian (Speechless Live 2017)
DR13      -0.20 dB   -16.22 dB      5:01 ?-Xiang Chuang (Speechless Live 2017)
--------------------------------------------------------------------------------
Number of tracks:  32
Official DR value: DR12
Samplerate:        48000 Hz
Channels:          2
Bits per sample:   24
Bitrate:           1562 kbps
Codec:             FLAC
================================================================================

Раздаю до первых 5-ти скачавших, на раздачи не возвращаюсь...

загрузка...
Правила, инструкции, FAQ!!!
Торрент  Добавлен [23 фев 2018, 23:45] Скачать торрент Магнет ссылка
Скачать торрент
[ Размер 15.96 КБ / Просмотров 29 ]

Статус
Проверен 
 
Размер  1.37 ГБ
Приватный: Нет (DHT включён)
.torrent скачан  1
Как залить торрент? | Как скачать Torrent? | Ошибка в торренте? Качайте магнет  


     Отправить личное сообщение
   
Страница 1 из 1
Показать сообщения за:  Поле сортировки  
Начать новую тему Ответить на тему

   Похожие торренты   Автор   Ответы   Просмотры   Последнее сообщение 
В этой теме нет новых непрочитанных сообщений. Скачать торрент Проверен [TR24][OF] Jason Charles Miller (Jason C. Miller, Godhead) - In The Wasteland - 2018 (Rock)

в форуме Hi-Res stereo (рок), Размер: 546.36 МБ, Здоровье: 100%

Anonymous

0
38|6

15
1

03 июл 2018, 21:55

Anonymous Перейти к последнему сообщению

В этой теме нет новых непрочитанных сообщений. Скачать торрент Проверен (Southern Rock) Jason Charles Miller (Jason C. Miller, Godhead) - In The Wasteland - 2018, MP3, 320 kbps

в форуме Classic Rock & Hard Rock, Размер: 96.52 МБ, Здоровье: ???%

Anonymous

0
0|1

9
0

29 июн 2018, 20:28

Anonymous Перейти к последнему сообщению

В этой теме нет новых непрочитанных сообщений. Скачать торрент Проверен [TR24][BR] Jackie Chan - September Storm - 2004 (Soundtrack)

в форуме Классика и классика в современной обработке (многоканальная музыка), Размер: 98.44 МБ, Здоровье: 100%

Anonymous

0
2|0

36
0

01 июл 2017, 10:16

Anonymous Перейти к последнему сообщению

В этой теме нет новых непрочитанных сообщений. Скачать торрент Проверен [TR24][OF] Jackie Chan - Sing Lung - 1986/2013 (Cantopop)

в форуме Hi-Res stereo (Поп), Размер: 449.84 МБ, Здоровье: 100%

Anonymous

0
165|1

197
3

01 июл 2017, 08:17

Anonymous Перейти к последнему сообщению

В этой теме нет новых непрочитанных сообщений. Скачать торрент Проверен [TR24][OF] Jason Millard - Tall Reeds - 2017 (Ambient, Experimental, Folk)

в форуме Hi-Res stereo (Электронная музыка), Размер: 276.34 МБ, Здоровье: 100%

Anonymous

0
1|0

17
1

01 июл 2017, 09:25

Anonymous Перейти к последнему сообщению



Сейчас этот форум просматривают: нет зарегистрированных пользователей и гости: 0


Вы не можете начинать темы
Вы не можете отвечать на сообщения
Вы не можете редактировать свои сообщения
Вы не можете удалять свои сообщения
Вы не можете добавлять вложения

Перейти:  
Ресурс не предоставляет электронные версии произведений, а занимается лишь коллекционированием и каталогизацией ссылок, присылаемых и публикуемых на форуме нашими читателями. Если вы являетесь правообладателем какого-либо представленного материала и не желаете чтобы ссылка на него находилась в нашем каталоге, свяжитесь с нами и мы незамедлительно удалим её. Файлы для обмена на трекере предоставлены пользователями сайта, и администрация не несёт ответственности за их содержание. Просьба не заливать файлы, защищенные авторскими правами, а также файлы нелегального содержания!
cron