На всех торрентах на трекере установлена скидка на скачивание в размере 100 процентов(а).
 Возможность скачивания торрента НЕ зависит от ограничений при низком ратио, низком аплоаде, требуемом ратио или требуемом аплоаде.


Начать новую тему Ответить на тему
Статистика раздачи
Размер: 1.46 ГБ | Добавлен: 05 окт 2018, 20:52 | Скачали: 0
Сидеров: 34  [0 байт/сек]    Личеров: 11  [0 байт/сек]
Пред. тема | След. тема 

Автор
Сообщение

СообщениеДобавлено: 05 окт 2018, 20:52 

Ответить с цитатой 

Жажда смерти / Death Wish
Страна: США
Жанр: боевик, триллер, криминал
Год выпуска: 2018
Продолжительность: 01:46:43
Перевод: Профессиональный (дублированный) | iTunes
Субтитры: нет
Оригинальная аудиодорожка: нет
Режиссер: Элай Рот / Eli Roth
В ролях: Брюс Уиллис, Винсент Д'Онофрио, Элизабет Шу, Камила Морроне, Дин Норрис, Бо Напп, Кимберли Элиз, Лен Кариу, Джек Кеси, Ронни Джин Блевинс
Описание: Пол Керси - хирург, привыкший вытаскивать людей с того света после криминальных разборок. Но после того, как его жена и дочь становятся жертвами уличной банды, а полиция бездействует, он берет карающий меч правосудия в свои руки. Видео изобретательных убийств преступников покоряют интернет-топы, а среди жителей города расходятся слухи о неуловимом народном мстителе, которому теперь принадлежит весь город. Он мстит бодро, весело и со вкусом.
Качество видео: BDRip | Death.Wish.2018.BDREMUX.1080p.ExKinoRay
Формат видео: AVI
Видео: 720x304 (2.37:1), 23.976 fps, XviD build 73 ~1562 kbps avg, 0.30 bit/pixel
Аудио: 48 kHz, AC3 Dolby Digital, 3/2 (L,C,R,l,r) + LFE ch, ~384 kbps
Сэмпл[/spoiler]
[pre]Код:
Код:
Формат                                   : AVI
Формат/Информация                        : Audio Video Interleave
Размер файла                             : 1,46 Гбайт
Продолжительность                        : 1 ч. 46 м.
Общий поток                              : 1956 Кбит/сек
Программа кодирования                    : VirtualDubMod 1.5.10.3 | www.virtualdub-fr.org || (build 2550/release)
Библиотека кодирования                   : VirtualDubMod build 2550/release
Видео
Идентификатор                            : 0
Формат                                   : MPEG-4 Visual
Профиль формата                          : Advanced Simple@L5
Настройки формата                        : BVOP1 / Custom Matrix
Параметр BVOP формата                    : 1
Параметр QPel формата                    : Нет
Параметр GMC формата                     : Без точки перехода
Параметр матрицы формата                 : Выборочная
Идентификатор кодека                     : XVID
Идентификатор кодека/Подсказка           : XviD
Продолжительность                        : 1 ч. 46 м.
Битрейт                                  : 1563 Кбит/сек
Ширина                                   : 720 пикселей
Высота                                   : 304 пикселя
Соотношение сторон                       : 2,35:1
Частота кадров                           : 23,976 (24000/1001) кадра/сек
Цветовое пространство                    : YUV
Субдискретизация насыщенности            : 4:2:0
Битовая глубина                          : 8 бит
Тип развёртки                            : Прогрессивная
Метод сжатия                             : С потерями
Бит/(Пиксели*Кадры)                      : 0.298
Размер потока                            : 1,16 Гбайт (80%)
Библиотека кодирования                   : XviD 73
Аудио
Идентификатор                            : 1
Формат                                   : AC-3
Формат/Информация                        : Audio Coding 3
Идентификатор кодека                     : 2000
Продолжительность                        : 1 ч. 46 м.
Вид битрейта                             : Постоянный
Битрейт                                  : 384 Кбит/сек
Каналы                                   : 6 каналов
Расположение каналов                     : Front: L C R, Side: L R, LFE
Частота                                  : 48,0 КГц
Частота кадров                           : 31,250 кадров/сек (1536 SPF)
Битовая глубина                          : 16 бит
Метод сжатия                             : С потерями
Размер потока                            : 293 Мбайт (20%)
Выравнивание                             : Разделение по промежуткам
Продолжительность промежутка             : 42  мс. (1,00 видеокадр)
Время предзагрузки промежутка            : 500  мс.
ServiceKind/String                       : Complete Main


загрузка...
Правила, инструкции, FAQ!!!
Торрент  Добавлен [05 окт 2018, 20:52] Скачать торрент Магнет ссылка
Скачать торрент
[ Размер 15.04 КБ / Просмотров 4 ]

Статус
Проверен 
 
Размер  1.46 ГБ
Приватный: Нет (DHT включён)
.torrent скачан  0
Как залить торрент? | Как скачать Torrent? | Ошибка в торренте? Качайте магнет  


     Отправить личное сообщение
   
Страница 1 из 1
Показать сообщения за:  Поле сортировки  
Начать новую тему Ответить на тему

   Похожие торренты   Автор   Ответы   Просмотры   Последнее сообщение 
В этой теме нет новых непрочитанных сообщений. Скачать торрент Проверен Жажда смерти / Death Wish (Элай Рот / Eli Roth) [2018, США, боевик, триллер, криминал, HDRip] Dub (iTunes)

в форуме Боевики, Размер: 746.77 МБ, Здоровье: 100%

Anonymous

0
35|11

7
0

05 окт 2018, 20:17

Anonymous Перейти к последнему сообщению

В этой теме нет новых непрочитанных сообщений. Скачать торрент Проверен Жажда смерти / Death Wish (Элай Рот / Eli Roth) [2018, США, боевик, триллер, криминал, BDRip-AVC] Dub

в форуме Боевики, Размер: 1.48 ГБ, Здоровье: 100%

Anonymous

0
1|0

1
0

05 окт 2018, 20:46

Anonymous Перейти к последнему сообщению

В этой теме нет новых непрочитанных сообщений. Скачать торрент Проверен Бегущий в лабиринте: Лекарство от смерти / Maze Runner: The Death Cure (Уэс Болл / Wes Ball) [2018, США, фантастика, боевик, триллер, BDRip] Dub (iTunes)

в форуме Фантастика, Фэнтези, Размер: 1.46 ГБ, Здоровье: 100%

Anonymous

0
35|11

5
0

05 окт 2018, 20:21

Anonymous Перейти к последнему сообщению

В этой теме нет новых непрочитанных сообщений. Скачать торрент Проверен Бегущий в лабиринте: Лекарство от смерти / Maze Runner: The Death Cure (Уэс Болл / Wes Ball) [2018, США, фантастика, боевик, триллер, BDRip] Dub (iTunes) + Sub (Rus, Eng) + Original Eng

в форуме Фантастика, Фэнтези, Размер: 2.92 ГБ, Здоровье: 100%

Anonymous

0
48|16

5
0

05 окт 2018, 20:44

Anonymous Перейти к последнему сообщению

В этой теме нет новых непрочитанных сообщений. Скачать торрент Доказательство смерти / Death Proof (Квентин Тарантино / Quentin Tarantino) [2007, боевик, триллер, криминал, BDRip-AVC]

в форуме 720p | 1080p, Размер: 2.59 ГБ, Здоровье: 100%

Anonymous

0
3|1

144
0

17 фев 2014, 08:07

Anonymous Перейти к последнему сообщению



Сейчас этот форум просматривают: нет зарегистрированных пользователей и гости: 0


Вы не можете начинать темы
Вы не можете отвечать на сообщения
Вы не можете редактировать свои сообщения
Вы не можете удалять свои сообщения
Вы не можете добавлять вложения

Перейти:  
Ресурс не предоставляет электронные версии произведений, а занимается лишь коллекционированием и каталогизацией ссылок, присылаемых и публикуемых на форуме нашими читателями. Если вы являетесь правообладателем какого-либо представленного материала и не желаете чтобы ссылка на него находилась в нашем каталоге, свяжитесь с нами и мы незамедлительно удалим её. Файлы для обмена на трекере предоставлены пользователями сайта, и администрация не несёт ответственности за их содержание. Просьба не заливать файлы, защищенные авторскими правами, а также файлы нелегального содержания!
cron