На всех торрентах на трекере установлена скидка на скачивание в размере 100 процентов(а).
 Возможность скачивания торрента НЕ зависит от ограничений при низком ратио, низком аплоаде, требуемом ратио или требуемом аплоаде.


Начать новую тему Ответить на тему
Статистика раздачи
Размер: 1.46 ГБ | Добавлен: 21 окт 2014, 20:58 | Скачали: 3
Сидеров: 18  [0 байт/сек]    Личеров: 4  [0 байт/сек]
Пред. тема | След. тема 

Автор
Сообщение

СообщениеДобавлено: 21 окт 2014, 20:58 

Ответить с цитатой 

Избранник

Жанр: Экранизация
Год выпуска: 1991
Продолжительность: 1:34:20
Перевод:Одноголосый закадровый

Режиссёр: Михаил Калатозишвили

В ролях: Автандил Махарадзе, Нинель Чанкветадзе, Лариса Гузеева, Лука Хундадзе, Майя Багратиони, Георгий Маргвелашвили, Лео (Леван) Антадзе, Придон Гуледани, Гурам Мгалоблишвили, Давид Ахобадзе, Гоги Миротадзе, Нугзар Перошвили, Каха Толордава, Гиви Цикаридзе

Описание: По роману Проспера Мериме "Maтео Фальконе".

Сюжет Мериме перенесен на грузинскую почву во времена Гражданской войны. 1921 год. В мире и спокойствии живет с женой и сыном крестьянин Джуна. Уравновешенную жизнь крестьян нарушает приход в село Красной Армии.

Доп. информация: Производство: МЕРАНИ, КАТАРСИС (Казахстан), ГРУЗИЯ-ФИЛЬМ

Семпл: https://www.sendspace.com/file/zqbs9o

Качество видео: SATRip
Формат видео: AVI

Видео: XviD MPEG-4 ,704x400 (1.76:1) , 25 fps , 2006 kbps avg
Аудио: AC3 , 48 kHz , 192.00 kbps avg , 2/0 (L,R) ch
Complete name \Избранник 1991.avi
Format : AVI
Format/Info : Audio Video Interleave
File size : 1.46 GiB
Duration : 1h 34mn
Overall bit rate : 2 208 Kbps
Writing library : VirtualDub build 35491/release

Video
ID : 0
Format : MPEG-4 Visual
Format profile : Advanced Simple@L5
Format settings, BVOP : 2
Format settings, QPel : No
Format settings, GMC : No warppoints
Format settings, Matrix : Default (H.263)
Codec ID : XVID
Codec ID/Hint : XviD
Duration : 1h 34mn
Bit rate : 2 006 Kbps
Width : 704 pixels
Height : 400 pixels
Display aspect ratio : 16:9
Frame rate : 25.000 fps
Color space : YUV
Chroma subsampling : 4:2:0
Bit depth : 8 bits
Scan type : Progressive
Compression mode : Lossy
Bits/(Pixel*Frame) : 0.285
Stream size : 1.32 GiB (91%)
Writing library : XviD 1.2.1 (UTC 2008-12-04)

Audio
ID : 1
Format : AC-3
Format/Info : Audio Coding 3
Mode extension : CM (complete main)
Format settings, Endianness : Big
Codec ID : 2000
Duration : 1h 34mn
Bit rate mode : Constant
Bit rate : 192 Kbps
Channel(s) : 2 channels
Channel positions : Front: L R
Sampling rate : 48.0 KHz
Bit depth : 16 bits
Compression mode : Lossy
Stream size : 130 MiB (9%)
Alignment : Aligned on interleaves
Interleave, duration : 40 ms (1.00 video frame)
Interleave, preload duration : 512 ms
загрузка...
Правила, инструкции, FAQ!!!
Торрент  Добавлен [21 окт 2014, 20:58] Скачать торрент Магнет ссылка
Скачать торрент
[ Размер 15.14 КБ / Просмотров 54 ]

Статус
Проверен 
 
Размер  1.46 ГБ
Приватный: Нет (DHT включён)
.torrent скачан  3
Как залить торрент? | Как скачать Torrent? | Ошибка в торренте? Качайте магнет  


     Отправить личное сообщение
   
Страница 1 из 1
Показать сообщения за:  Поле сортировки  
Начать новую тему Ответить на тему

   Похожие торренты   Автор   Ответы   Просмотры   Последнее сообщение 
В этой теме нет новых непрочитанных сообщений. Скачать торрент Проверен Питер Пэн (Леонид Нечаев) [1987 г., Детский, сказка, экранизация, SATRip]

в форуме Детское, Семейное кино, Размер: 2.17 ГБ, Здоровье: 100%

Гость

0
39|13

188
1

10 апр 2016, 20:26

Гость Перейти к последнему сообщению

В этой теме нет новых непрочитанных сообщений. Скачать торрент Проверен Судьба барабанщика (Александр Игишев) [1976, драма, экранизация, SATRip]

в форуме Детское, Семейное кино, Размер: 3.27 ГБ, Здоровье: 100%

Гость

0
18|6

139
0

10 апр 2016, 20:26

Гость Перейти к последнему сообщению

В этой теме нет новых непрочитанных сообщений. Скачать торрент Проверен За двумя зайцами (Виктор Иванов) [1961, сатирическая комедия, экранизация, SATRip]

в форуме Кино СССР, Размер: 1.35 ГБ, Здоровье: 100%

Anonymous

0
75|18

320
5

21 окт 2014, 21:01

Anonymous Перейти к последнему сообщению

В этой теме нет новых непрочитанных сообщений. Скачать торрент Проверен Семь криков в океане (Владимир Басов) [1986, притча, фантасмагория, экранизация, SATRip]

в форуме Кино СССР, Размер: 1.41 ГБ, Здоровье: 100%

Anonymous

0
60|18

585
18

21 окт 2014, 21:01

Anonymous Перейти к последнему сообщению

В этой теме нет новых непрочитанных сообщений. Скачать торрент Проверен Попугай, говорящий на идиш (Эфраим Севела) [1990, драма, комедия, экранизация, SATRip]

в форуме Кино СССР, Размер: 1.45 ГБ, Здоровье: 100%

Anonymous

0
371|14

325
7

21 окт 2014, 20:54

Anonymous Перейти к последнему сообщению



Сейчас этот форум просматривают: нет зарегистрированных пользователей и гости: 0


Вы не можете начинать темы
Вы не можете отвечать на сообщения
Вы не можете редактировать свои сообщения
Вы не можете удалять свои сообщения
Вы не можете добавлять вложения

Перейти:  
Ресурс не предоставляет электронные версии произведений, а занимается лишь коллекционированием и каталогизацией ссылок, присылаемых и публикуемых на форуме нашими читателями. Если вы являетесь правообладателем какого-либо представленного материала и не желаете чтобы ссылка на него находилась в нашем каталоге, свяжитесь с нами и мы незамедлительно удалим её. Файлы для обмена на трекере предоставлены пользователями сайта, и администрация не несёт ответственности за их содержание. Просьба не заливать файлы, защищенные авторскими правами, а также файлы нелегального содержания!
cron