На всех торрентах на трекере установлена скидка на скачивание в размере 100 процентов(а).
 Возможность скачивания торрента НЕ зависит от ограничений при низком ратио, низком аплоаде, требуемом ратио или требуемом аплоаде.


Начать новую тему Ответить на тему
Статистика раздачи
Размер: 504.12 МБ | Добавлен: 07 окт 2017, 16:36 | Скачали: 0
Сидеров: 0  [0 байт/сек]    Личеров: 0  [0 байт/сек]
Пред. тема | След. тема 

Автор
Сообщение

СообщениеДобавлено: 07 окт 2017, 16:36 

Ответить с цитатой 

Time / Prime Time
Жанр: Italo-Disco
Страна-производитель диска: Russia
Год издания диска: 2011
Издатель (лейбл): Rare80 Records (Unofficial Release)
Номер по каталогу: RA000526
Страна: Italy
Аудиокодек: FLAC (*.flac)
Тип рипа: image+.cue
Битрейт аудио: lossless
Продолжительность: 1:16:22.39
Источник (релизер): Собственный рип
Наличие сканов в содержимом раздачи: нет
Треклист:
01. Don't Stop [0:05:38.44]
02. Selling Song [0:04:45.29]
03. Prime Time [0:06:18.60]
04. Shaker Shake [0:03:24.60]
05. The Wind Is Blowin' [0:07:04.43]
06. Sympathy For The Devil [0:05:27.03]
07. Makin' Love [0:05:09.26]
08. Reprise [0:02:28.32]
Bonus Tracks

09. Holding On To Love (Vocal Version) [0:06:48.06]
10. Love Is The Reason (Vocal Version) [0:06:17.39]
11. Shaker Shake (Vocal Version) [0:05:50.53]
12. Selling Song (Extended Version) [0:06:44.28]
13. Don't Stop (With George Aaron) (Vocal Version) [0:06:18.55]
14. Holding On To Love (Reggae Version) [0:04:06.11]
Код:
Exact Audio Copy V1.0 beta 3 from 29. August 2011
Отчёт EAC об извлечении, выполненном 19. ноября 2011, 21:31
Time /  Prime Time
Дисковод: TSSTcorpCDDVDW SH-S223C   Adapter: 1  ID: 0
Режим чтения                 : Достоверность
Использование точного потока : Да
Отключение кэша аудио        : Да
Использование указателей C2  : Нет
Коррекция смещения при чтении                     : 697
Способность читать области Lead-in и Lead-out     : Нет
Заполнение пропущенных сэмплов тишиной            : Да
Удаление блоков с тишиной в начале и конце        : Нет
При вычислениях CRC использовались нулевые сэмплы : Да
Интерфейс                                         : Встроенный Win32-интерфейс для Win NT/2000
Выходной формат          : Пользовательский кодировщик
Выбранный битрейт        : 768 kBit/s
Качество                 : Высокий
Добавление ID3-тега      : Нет
Утилита сжатия           : C:\Program Files\Exact Audio Copy\FLAC\FLAC.EXE
Дополнительные параметры : -6 -V -T "ARTIST=%artist%" -T "TITLE=%title%" -T "ALBUM=%albumtitle%" -T "DATE=%year%" -T "TRACKNUMBER=%tracknr%" -T "GENRE=%genre%" -T "COMMENT=%comment%" -T "BAND=%albuminterpret%" -T "ALBUMARTIST=%albuminterpret%" -T "COMPOSER=%composer%" %haslyrics%--tag-from-file=LYRICS="%lyricsfile%"%haslyrics% -T "DISCNUMBER=%cdnumber%" -T "TOTALDISCS=%totalcds%" -T "TOTALTRACKS=%numtracks%" %hascover%--picture="%coverfile%"%hascover% %source% -o %dest%
TOC извлечённого CD
     Трек |   Старт  | Длительность | Начальный сектор | Конечный сектор
    ---------------------------------------------------------------------
       1  |  0:00.00 |    5:38.44   |           0      |      25393
       2  |  5:38.44 |    4:45.29   |       25394      |      46797
       3  | 10:23.73 |    6:18.60   |       46798      |      75207
       4  | 16:42.58 |    3:24.60   |       75208      |      90567
       5  | 20:07.43 |    7:04.43   |       90568      |     122410
       6  | 27:12.11 |    5:27.03   |      122411      |     146938
       7  | 32:39.14 |    5:09.26   |      146939      |     170139
       8  | 37:48.40 |    2:28.32   |      170140      |     181271
       9  | 40:16.72 |    6:48.06   |      181272      |     211877
      10  | 47:05.03 |    6:17.39   |      211878      |     240191
      11  | 53:22.42 |    5:50.53   |      240192      |     266494
      12  | 59:13.20 |    6:44.28   |      266495      |     296822
      13  | 65:57.48 |    6:18.55   |      296823      |     325227
      14  | 72:16.28 |    4:06.11   |      325228      |     343688
Характеристики диапазона извлечения и сообщения об ошибках
Выбранный диапазон
     Имя файла C:\EAC\Time - Prime Time (1984 Rare80 Records – RA000526)(Lossless)\Time -  Prime Time.wav
     Пиковый уровень 100.0 %
     Скорость извлечения 3.5 X
     Качество диапазона 100.0 %
     CRC теста 002CFFCA
     CRC копии 002CFFCA
     Копирование... OK
Ошибок не произошло
AccurateRip: сводка
Трек  1  отсутствует в базе данных
Трек  2  отсутствует в базе данных
Трек  3  отсутствует в базе данных
Трек  4  отсутствует в базе данных
Трек  5  отсутствует в базе данных
Трек  6  отсутствует в базе данных
Трек  7  отсутствует в базе данных
Трек  8  отсутствует в базе данных
Трек  9  отсутствует в базе данных
Трек 10  отсутствует в базе данных
Трек 11  отсутствует в базе данных
Трек 12  отсутствует в базе данных
Трек 13  отсутствует в базе данных
Трек 14  отсутствует в базе данных
Ни одного трека нет в базе AccurateRip
Конец отчёта
==== Контрольная сумма отчёта B5F4C7F42CE07F09A9609089F18D2A3D54FDB8F48E72F1A2E57981B8CB26ED84 ====
Код:
REM GENRE "Italo Disco"
REM DATE 1984
REM DISCID BA11E60E
REM COMMENT "ExactAudioCopy v1.0b3"
PERFORMER "Time"
TITLE " Prime Time "
FILE "Time -  Prime Time.flac" WAVE
  TRACK 01 AUDIO
    TITLE "Don't Stop"
    PERFORMER "Time"
    FLAGS DCP
    INDEX 01 00:00:00
  TRACK 02 AUDIO
    TITLE "Selling Song"
    PERFORMER "Time"
    FLAGS DCP
    INDEX 01 05:38:44
  TRACK 03 AUDIO
    TITLE "Prime Time"
    PERFORMER "Time"
    FLAGS DCP
    INDEX 01 10:23:73
  TRACK 04 AUDIO
    TITLE "Shaker Shake"
    PERFORMER "Time"
    FLAGS DCP
    INDEX 01 16:42:58
  TRACK 05 AUDIO
    TITLE "The Wind Is Blowin'"
    PERFORMER "Time"
    FLAGS DCP
    INDEX 01 20:07:43
  TRACK 06 AUDIO
    TITLE "Sympathy For The Devil"
    PERFORMER "Time"
    FLAGS DCP
    INDEX 01 27:12:11
  TRACK 07 AUDIO
    TITLE "Makin' Love"
    PERFORMER "Time"
    FLAGS DCP
    INDEX 01 32:39:14
  TRACK 08 AUDIO
    TITLE "Reprise"
    PERFORMER "Time"
    FLAGS DCP
    INDEX 01 37:48:40
  TRACK 09 AUDIO
    TITLE "Holding On To Love (Vocal Version)"
    PERFORMER "Time"
    FLAGS DCP
    INDEX 01 40:16:72
  TRACK 10 AUDIO
    TITLE "Love Is The Reason (Vocal Version)"
    PERFORMER "Time"
    FLAGS DCP
    INDEX 01 47:05:03
  TRACK 11 AUDIO
    TITLE "Shaker Shake (Vocal Version)"
    PERFORMER "Time"
    FLAGS DCP
    INDEX 01 53:22:42
  TRACK 12 AUDIO
    TITLE "Selling Song (Extended Version)"
    PERFORMER "Time"
    FLAGS DCP
    INDEX 01 59:13:20
  TRACK 13 AUDIO
    TITLE "Don't Stop (With George Aaron) (Vocal Version)"
    PERFORMER "Time"
    FLAGS DCP
    INDEX 01 65:57:48
  TRACK 14 AUDIO
    TITLE "Holding On To Love (Reggae Version)"
    PERFORMER "Time"
    FLAGS DCP
    INDEX 01 72:16:28


загрузка...
Правила, инструкции, FAQ!!!
Торрент  Добавлен [07 окт 2017, 16:36] Скачать торрент Магнет ссылка
Скачать торрент
[ Размер 20.58 КБ / Просмотров 0 ]

Статус
Проверен 
 
Размер  504.12 МБ
Приватный: Нет (DHT включён)
.torrent скачан  0
Как залить торрент? | Как скачать Torrent? | Как смотреть и слушать онлайн?  


     Отправить личное сообщение
   
Страница 1 из 1
Показать сообщения за:  Поле сортировки  
Начать новую тему Ответить на тему

   Похожие торренты   Автор   Ответы   Просмотры   Последнее сообщение 
В этой теме нет новых непрочитанных сообщений. Скачать торрент Проверен (Italo-Disco) Time - Prime Time - 2004, APE (image+.cue), lossless

в форуме Зарубежная музыка, Размер: 454.36 МБ, Здоровье: 0%

Anonymous

0
0|0

0
0

01 окт 2017, 23:26

Anonymous Перейти к последнему сообщению

В этой теме нет новых непрочитанных сообщений. Скачать торрент Проверен (Italo-Disco/Synthpop) Time - Time - 1984, FLAC (image+.cue), lossless

в форуме Зарубежная музыка, Размер: 259.32 МБ, Здоровье: 16%

Anonymous

0
2|12

0
1

08 окт 2017, 18:00

Anonymous Перейти к последнему сообщению

В этой теме нет новых непрочитанных сообщений. Скачать торрент Проверен (Italo-Disco, Euro-Disco) [2xCD] Tom Hooker (Tam Harrow) - Back In Time - 2017, FLAC (image+.cue), lossless

в форуме Зарубежная музыка, Размер: 975.7 МБ, Здоровье: 0%

Anonymous

0
0|0

4
0

07 окт 2017, 16:36

Anonymous Перейти к последнему сообщению

В этой теме нет новых непрочитанных сообщений. Скачать торрент Проверен (Italo-Disco) Roy - Destiny Time - Shooting Star - 2001, FLAC (image+.cue) lossless

в форуме Зарубежная музыка, Размер: 218.59 МБ, Здоровье: 100%

Anonymous

0
5|1

0
1

02 окт 2017, 00:34

Anonymous Перейти к последнему сообщению

В этой теме нет новых непрочитанных сообщений. Скачать торрент Проверен (Italo-Disco / Disco) VA - The Very Best Of Full Time Vol.3 - 1999, APE (tracks+.cue), lossless

в форуме Зарубежная музыка, Размер: 492.26 МБ, Здоровье: 100%

Anonymous

0
2|1

2
0

02 окт 2017, 22:40

Anonymous Перейти к последнему сообщению



Сейчас этот форум просматривают: нет зарегистрированных пользователей и гости: 1


Вы не можете начинать темы
Вы не можете отвечать на сообщения
Вы не можете редактировать свои сообщения
Вы не можете удалять свои сообщения
Вы не можете добавлять вложения

Перейти:  

!ВНИМАНИЕ!
 Ресурс не предоставляет электронные версии произведений, а занимается лишь коллекционированием и каталогизацией ссылок, присылаемых и публикуемых на форуме нашими читателями. Если вы являетесь правообладателем какого-либо представленного материала и не желаете чтобы ссылка на него находилась в нашем каталоге, свяжитесь с нами и мы незамедлительно удалим её. Файлы для обмена на трекере предоставлены пользователями сайта, и администрация не несёт ответственности за их содержание. Просьба не заливать файлы, защищенные авторскими правами, а также файлы нелегального содержания!