На всех торрентах на трекере установлена скидка на скачивание в размере 100 процентов(а).
 Возможность скачивания торрента НЕ зависит от ограничений при низком ратио, низком аплоаде, требуемом ратио или требуемом аплоаде.


Начать новую тему Ответить на тему
Статистика раздачи
Размер: 581.42 МБ | Добавлен: 16 сен 2018, 18:47 | Скачали: 0
Сидеров: 0  [0 байт/сек]    Личеров: 1  [0 байт/сек]
Пред. тема | След. тема 

Автор
Сообщение

СообщениеДобавлено: 16 сен 2018, 18:47 

Ответить с цитатой 


Boris Zhivago

The Last Goodbye





• Жанр: Italo-Disco | Synthpop
• Носитель: CD
• Год издания: 2013
• Издатель (лейбл) SP Records
• Номер по каталогу: SP 0012
• Страна исполнителя (группы): RF
• Аудиокодек: FLAC (*.flac)
• Тип рипа: tracks .cue
• Продолжительность: 01:16:23
• Источник (релизер): Krevetka1972 ®
• Наличие сканов: all

01. Another Life (00:07:20)
02. Rainy Day (00:14:42)
03. In A World Of Fantasy (00:12:55)
04. In The Streets Of Moscow (00:17:55)
05. No More Love (00:13:23)
06. Twenty Years Ago (00:12:54)
07. One Day (00:12:50)
08. Do You Really Love Me (00:18:07)
09. Mona Lisa (00:12:00)
10. The Last Goodbye (00:15:52)
11. In A Land Of No Illusions (00:12:24)

Код:
foobar2000 1.3.13 / Dynamic Range Meter 1.1.1
log date: 2017-01-17 19:35:13
--------------------------------------------------------------------------------
Analyzed: Boris Zhivago / The Last Goodbye
--------------------------------------------------------------------------------
DR         Peak         RMS     Duration Track
--------------------------------------------------------------------------------
DR6       -2.02 dB    -9.04 dB      7:22 01-Another Life
DR5       -3.22 dB    -9.64 dB      6:29 02-Rainy Day
DR6       -1.99 dB    -9.19 dB      8:59 03-In A World Of Fantasy
DR5       -2.62 dB    -9.29 dB      6:43 04-In The Streets Of Moscow
DR6       -2.54 dB    -9.59 dB      6:28 05-No More Love
DR5       -2.62 dB    -9.40 dB      6:26 06-Twenty Years Ago
DR8       -0.10 dB    -9.71 dB      9:05 07-One Day
DR6       -2.17 dB    -8.99 dB      6:01 08-Do You Really Love Me
DR6       -2.14 dB    -9.04 dB      7:57 09-Mona Lisa
DR6       -2.17 dB    -9.38 dB      6:13 10-The Last Goodbye
DR6       -1.62 dB    -9.60 dB      6:40 11-In A Land Of No Illusions
--------------------------------------------------------------------------------
Number of tracks:  11
Official DR value: DR6
Samplerate:        44100 Hz
Channels:          2
Bits per sample:   16
Bitrate:           1067 kbps
Codec:             FLAC
================================================================================

Код:
Exact Audio Copy V1.1 from 23. June 2015
EAC extraction logfile from 17. January 2017, 19:18
Boris Zhivago / The Last Goodbye
Used drive  : ASUS    SDRW-08D1S-U   Adapter: 1  ID: 1
Read mode               : Secure
Utilize accurate stream : Yes
Defeat audio cache      : Yes
Make use of C2 pointers : No
Read offset correction                      : 103
Overread into Lead-In and Lead-Out          : No
Fill up missing offset samples with silence : Yes
Delete leading and trailing silent blocks   : No
Null samples used in CRC calculations       : Yes
Used interface                              : Native Win32 interface for Win NT & 2000
Gap handling                                : Appended to previous track
Used output format              : User Defined Encoder
Selected bitrate                : 1024 kBit/s
Quality                         : High
Add ID3 tag                     : No
Command line compressor         : J:\Program Files (x86)\Exact Audio Copy\Flac\flac.exe
Additional command line options : -V -6 -T "COMMENT=ripped by Krevetka1972 special for  СПАМ -T "ARTIST=%artist%" -T "TITLE=%title%" -T "ALBUM=%albumtitle%" -T "DATE=%year%" -T "TRACKNUMBER=%tracknr%" -T "GENRE=%genre%" -T "ALBUMARTIST=%albuminterpret%" %source% -o Юst%
TOC of the extracted CD
     Track |   Start  |  Length  | Start sector | End sector
    ---------------------------------------------------------
        1  |  0:00.00 |  7:22.03 |         0    |    33152
        2  |  7:22.03 |  6:28.38 |     33153    |    62290
        3  | 13:50.41 |  8:58.71 |     62291    |   102711
        4  | 22:49.37 |  6:42.59 |    102712    |   132920
        5  | 29:32.21 |  6:28.23 |    132921    |   162043
        6  | 36:00.44 |  6:26.04 |    162044    |   190997
        7  | 42:26.48 |  9:04.41 |    190998    |   231838
        8  | 51:31.14 |  6:01.03 |    231839    |   258916
        9  | 57:32.17 |  7:57.15 |    258917    |   294706
       10  | 65:29.32 |  6:13.27 |    294707    |   322708
       11  | 71:42.59 |  6:39.73 |    322709    |   352706
Track  1
     Filename G:\Boris Zhivago\2013 - The Last Goodbye (SP Records # SP 0012)\01. Boris Zhivago - Another Life.wav
     Pre-gap length  0:00:02.00
     Peak level 79.2 %
     Extraction speed 1.4 X
     Track quality 100.0 %
     Test CRC 4B8E5D62
     Copy CRC 4B8E5D62
     Accurately ripped (confidence 1)  [37D4D0B5]  (AR v1)
     Copy OK
Track  2
     Filename G:\Boris Zhivago\2013 - The Last Goodbye (SP Records # SP 0012)\02. Boris Zhivago - Rainy Day.wav
     Pre-gap length  0:00:02.00
     Peak level 69.0 %
     Extraction speed 1.6 X
     Track quality 100.0 %
     Test CRC 662C795F
     Copy CRC 662C795F
     Accurately ripped (confidence 1)  [48796B3F]  (AR v1)
     Copy OK
Track  3
     Filename G:\Boris Zhivago\2013 - The Last Goodbye (SP Records # SP 0012)\03. Boris Zhivago - In A World Of Fantasy.wav
     Pre-gap length  0:00:02.00
     Peak level 79.5 %
     Extraction speed 1.8 X
     Track quality 100.0 %
     Test CRC 7643B105
     Copy CRC 7643B105
     Track not present in AccurateRip database
     Copy OK
Track  4
     Filename G:\Boris Zhivago\2013 - The Last Goodbye (SP Records # SP 0012)\04. Boris Zhivago - In The Streets Of Moscow.wav
     Pre-gap length  0:00:02.00
     Peak level 73.9 %
     Extraction speed 2.0 X
     Track quality 100.0 %
     Test CRC 9BB9D743
     Copy CRC 9BB9D743
     Track not present in AccurateRip database
     Copy OK
Track  5
     Filename G:\Boris Zhivago\2013 - The Last Goodbye (SP Records # SP 0012)\05. Boris Zhivago - No More Love.wav
     Pre-gap length  0:00:02.00
     Peak level 74.6 %
     Extraction speed 2.1 X
     Track quality 100.0 %
     Test CRC CB08F1F5
     Copy CRC CB08F1F5
     Track not present in AccurateRip database
     Copy OK
Track  6
     Filename G:\Boris Zhivago\2013 - The Last Goodbye (SP Records # SP 0012)\06. Boris Zhivago - Twenty Years Ago.wav
     Pre-gap length  0:00:02.00
     Peak level 73.9 %
     Extraction speed 2.2 X
     Track quality 100.0 %
     Test CRC 14E082B2
     Copy CRC 14E082B2
     Track not present in AccurateRip database
     Copy OK
Track  7
     Filename G:\Boris Zhivago\2013 - The Last Goodbye (SP Records # SP 0012)\07. Boris Zhivago - One Day.wav
     Pre-gap length  0:00:02.00
     Peak level 98.8 %
     Extraction speed 2.4 X
     Track quality 100.0 %
     Test CRC BB566C4E
     Copy CRC BB566C4E
     Accurately ripped (confidence 1)  [C48A1BFA]  (AR v1)
     Copy OK
Track  8
     Filename G:\Boris Zhivago\2013 - The Last Goodbye (SP Records # SP 0012)\08. Boris Zhivago - Do You Really Love Me.wav
     Pre-gap length  0:00:02.00
     Peak level 77.8 %
     Extraction speed 2.5 X
     Track quality 100.0 %
     Test CRC 19E15116
     Copy CRC 19E15116
     Track not present in AccurateRip database
     Copy OK
Track  9
     Filename G:\Boris Zhivago\2013 - The Last Goodbye (SP Records # SP 0012)\09. Boris Zhivago - Mona Lisa.wav
     Pre-gap length  0:00:02.00
     Peak level 78.1 %
     Extraction speed 2.6 X
     Track quality 100.0 %
     Test CRC 998A1647
     Copy CRC 998A1647
     Track not present in AccurateRip database
     Copy OK
Track 10
     Filename G:\Boris Zhivago\2013 - The Last Goodbye (SP Records # SP 0012)\10. Boris Zhivago - The Last Goodbye.wav
     Pre-gap length  0:00:02.00
     Peak level 77.8 %
     Extraction speed 2.7 X
     Track quality 100.0 %
     Test CRC CDAF463D
     Copy CRC CDAF463D
     Accurately ripped (confidence 1)  [DCBEB68C]  (AR v1)
     Copy OK
Track 11
     Filename G:\Boris Zhivago\2013 - The Last Goodbye (SP Records # SP 0012)\11. Boris Zhivago - In A Land Of No Illusions.wav
     Pre-gap length  0:00:02.00
     Peak level 82.9 %
     Extraction speed 2.8 X
     Track quality 100.0 %
     Test CRC 0D26CC3A
     Copy CRC 0D26CC3A
     Track not present in AccurateRip database
     Copy OK
 4 трек(и) скопированы точно
 7 трек(и) не содержатся в базе AccurateRip
Some tracks could not be verified as accurate
No errors occurred
End of status report
---- AcoustID Plugin V1.2.0
Total fingerprints: 11
---- CUETools DB Plugin V2.1.6
[CTDB TOCID: ky.5qY025N78rej2uwdGMaBsCQU-] found
Submit result: ky.5qY025N78rej2uwdGMaBsCQU- has been confirmed
Track | CTDB Status
  1   | (1/1) Accurately ripped
  2   | (1/1) Accurately ripped
  3   | (1/1) Accurately ripped
  4   | (1/1) Accurately ripped
  5   | (1/1) Accurately ripped
  6   | (1/1) Accurately ripped
  7   | (1/1) Accurately ripped
  8   | (1/1) Accurately ripped
  9   | (1/1) Accurately ripped
 10   | (1/1) Accurately ripped
 11   | (1/1) Accurately ripped
==== Log checksum EA4AF8DB5B646CBE4415EC2B52EAEDF1A1A23BF1CBC445163248C91904909A81 ====

Код:
REM GENRE Italo-Disco
REM DATE 2013
REM DISCID 92125E0B
REM COMMENT "ExactAudioCopy v1.1"
PERFORMER "Boris Zhivago"
TITLE "The Last Goodbye"
FILE "01. Boris Zhivago - Another Life.wav" WAVE
  TRACK 01 AUDIO
    TITLE "Another Life"
    PERFORMER "Boris Zhivago"
    INDEX 01 00:00:00
  TRACK 02 AUDIO
    TITLE "Rainy Day"
    PERFORMER "Boris Zhivago"
    INDEX 00 07:20:03
FILE "02. Boris Zhivago - Rainy Day.wav" WAVE
    INDEX 01 00:00:00
  TRACK 03 AUDIO
    TITLE "In A World Of Fantasy"
    PERFORMER "Boris Zhivago"
    INDEX 00 06:26:38
FILE "03. Boris Zhivago - In A World Of Fantasy.wav" WAVE
    INDEX 01 00:00:00
  TRACK 04 AUDIO
    TITLE "In The Streets Of Moscow"
    PERFORMER "Boris Zhivago"
    INDEX 00 08:56:71
FILE "04. Boris Zhivago - In The Streets Of Moscow.wav" WAVE
    INDEX 01 00:00:00
  TRACK 05 AUDIO
    TITLE "No More Love"
    PERFORMER "Boris Zhivago"
    INDEX 00 06:40:59
FILE "05. Boris Zhivago - No More Love.wav" WAVE
    INDEX 01 00:00:00
  TRACK 06 AUDIO
    TITLE "Twenty Years Ago"
    PERFORMER "Boris Zhivago"
    INDEX 00 06:26:23
FILE "06. Boris Zhivago - Twenty Years Ago.wav" WAVE
    INDEX 01 00:00:00
  TRACK 07 AUDIO
    TITLE "One Day"
    PERFORMER "Boris Zhivago"
    INDEX 00 06:24:04
FILE "07. Boris Zhivago - One Day.wav" WAVE
    INDEX 01 00:00:00
  TRACK 08 AUDIO
    TITLE "Do You Really Love Me"
    PERFORMER "Boris Zhivago"
    INDEX 00 09:02:41
FILE "08. Boris Zhivago - Do You Really Love Me.wav" WAVE
    INDEX 01 00:00:00
  TRACK 09 AUDIO
    TITLE "Mona Lisa"
    PERFORMER "Boris Zhivago"
    INDEX 00 05:59:03
FILE "09. Boris Zhivago - Mona Lisa.wav" WAVE
    INDEX 01 00:00:00
  TRACK 10 AUDIO
    TITLE "The Last Goodbye"
    PERFORMER "Boris Zhivago"
    INDEX 00 07:55:15
FILE "10. Boris Zhivago - The Last Goodbye.wav" WAVE
    INDEX 01 00:00:00
  TRACK 11 AUDIO
    TITLE "In A Land Of No Illusions"
    PERFORMER "Boris Zhivago"
    INDEX 00 06:11:27
FILE "11. Boris Zhivago - In A Land Of No Illusions.wav" WAVE
    INDEX 01 00:00:00

Код:
-----------------------
DON'T MODIFY THIS FILE
-----------------------
PERFORMER: auCDtect Task Manager, ver. 1.6.0 RC1 build 1.6.0.1
Copyright © 2008-2010 y-soft. All rights reserved
[url=http://y-soft.org]http://y-soft.org[/url]
ANALYZER: auCDtect: CD records authenticity detector, version 0.8.2
Copyright © 2004 Oleg Berngardt. All rights reserved.
Copyright © 2004 Alexander Djourik. All rights reserved.
FILE: 11. Boris Zhivago - In A Land Of No Illusions.flac
  Size: 53332045 Hash: 1230DB0E74859ED5A8A7227761C00D0B Accuracy: -m0
  Conclusion: CDDA 100%
  Signature: BD2BE22282E74AF0BEA44EEF26AC2D6AE7E5A88B
FILE: 10. Boris Zhivago - The Last Goodbye.flac
  Size: 45238741 Hash: B16AF48687563F751DD4691353D2ABAE Accuracy: -m0
  Conclusion: CDDA 100%
  Signature: B2762AC3CFF4237F5FDC0E2209197D6A9ADEACA8
FILE: 09. Boris Zhivago - Mona Lisa.flac
  Size: 67643490 Hash: A0F11001FF480377B1A969118CC04074 Accuracy: -m0
  Conclusion: CDDA 100%
  Signature: 752B3A3B5B502AA747D60441786BDE13FB11E0E2
FILE: 08. Boris Zhivago - Do You Really Love Me.flac
  Size: 49558630 Hash: 305209685BFB2E149A7B34674DE0B410 Accuracy: -m0
  Conclusion: CDDA 100%
  Signature: A037C442BACA374262B971D9BE22508FB7A798B8
FILE: 07. Boris Zhivago - One Day.flac
  Size: 68339159 Hash: 7225C7E0C7D5C68C16CDF2A0AE3B9460 Accuracy: -m0
  Conclusion: CDDA 100%
  Signature: B0260FA4F4B1046FE9FBDB1735DA10EB50763494
FILE: 06. Boris Zhivago - Twenty Years Ago.flac
  Size: 47010455 Hash: 8605E2204DDB5FEBA3D5AB11499A07B4 Accuracy: -m0
  Conclusion: CDDA 100%
  Signature: 0A58F8C1C9737EC2F252CC983D342D645990C6FD
FILE: 05. Boris Zhivago - No More Love.flac
  Size: 45657426 Hash: 8651038660199A3B242A40C3F41E4984 Accuracy: -m0
  Conclusion: CDDA 100%
  Signature: 32F165BB9D49F5F99BA5CCD7C86964DB4F15AEF1
FILE: 04. Boris Zhivago - In The Streets Of Moscow.flac
  Size: 54003103 Hash: 8266F7359690B6ED19EBD76E020F76B3 Accuracy: -m0
  Conclusion: CDDA 100%
  Signature: C6C2ABE43B3D1BBF06E8E09691F5F369E8DB6201
FILE: 03. Boris Zhivago - In A World Of Fantasy.flac
  Size: 65972447 Hash: 5B6AC4B3B58420E66868E5B3BFEBEBF1 Accuracy: -m0
  Conclusion: CDDA 100%
  Signature: E10932775EAED3E2F6BBEC6DB90D5608D06EAF88
FILE: 02. Boris Zhivago - Rainy Day.flac
  Size: 45640492 Hash: BF000785F06955116786DC20A283F044 Accuracy: -m0
  Conclusion: CDDA 100%
  Signature: C9335E26A3E08929C90A7FE34AF09DDCD1CE9241
FILE: 01. Boris Zhivago - Another Life.flac
  Size: 54411529 Hash: DF3073CA0D6D4300AF7402038368961A Accuracy: -m0
  Conclusion: CDDA 100%
  Signature: 6EBF7FDF70A2DB80BE9A603D7EDA6A84B1298261


загрузка...
Правила, инструкции, FAQ!!!
Торрент  Добавлен [16 сен 2018, 18:47] Скачать торрент Магнет ссылка
Скачать торрент
[ Размер 13.08 КБ / Просмотров 1 ]

Статус
Проверен 
 
Размер  581.42 МБ
Приватный: Нет (DHT включён)
.torrent скачан  0
Как залить торрент? | Как скачать Torrent? | Ошибка в торренте? Качайте магнет  


     Отправить личное сообщение
   
Страница 1 из 1
Показать сообщения за:  Поле сортировки  
Начать новую тему Ответить на тему

   Похожие торренты   Автор   Ответы   Просмотры   Последнее сообщение 
В этой теме нет новых непрочитанных сообщений. Скачать торрент Boris Zhivago - The Last Goodbye (2013) [MP3|320 кб/с]<Italo-Disco,Hi NRG>

в форуме Зарубежная музыка, Размер: 180.18 МБ, Здоровье: 20%

Anonymous

0
1|5

63
1

03 мар 2014, 06:40

Anonymous Перейти к последнему сообщению

В этой теме нет новых непрочитанных сообщений. Скачать торрент Проверен (Italo-Disco | Synthpop) [CD] Boris Zhivago - Memories - 2018 FLAC (tracks+.cue), lossless

в форуме Зарубежная музыка, Размер: 550.46 МБ, Здоровье: 100%

Anonymous

0
15|5

8
0

16 сен 2018, 18:47

Anonymous Перейти к последнему сообщению

В этой теме нет новых непрочитанных сообщений. Скачать торрент Проверен (Italo-Disco | Synthpop) [CD] Boris Zhivago - Love In Russia - 2014 FLAC (tracks+.cue), lossless

в форуме Зарубежная музыка, Размер: 565.37 МБ, Здоровье: 0%

Anonymous

0
0|0

7
1

16 сен 2018, 18:47

Anonymous Перейти к последнему сообщению

В этой теме нет новых непрочитанных сообщений. Скачать торрент Проверен VA - I Love ZYX Italo Disco Collection vol.1-16 (2002-2013) [FLAC|Lossless]<Hi NRG, Italo-Disco, Synthpop, Euro-Disco>

в форуме Зарубежная музыка, Размер: 23.73 ГБ, Здоровье: 100%

Гость

0
71|34

480
13

20 июл 2015, 20:26

Гость Перейти к последнему сообщению

В этой теме нет новых непрочитанных сообщений. Скачать торрент Проверен (Disco) [CD] VA - Disco Recharge. Boris Midney (4-CD) - 2013, FLAC (tracks), lossless

в форуме Зарубежная музыка, Размер: 1.21 ГБ, Здоровье: 0%

Anonymous

0
0|0

4
0

03 окт 2017, 22:38

Anonymous Перейти к последнему сообщению



Сейчас этот форум просматривают: нет зарегистрированных пользователей и гости: 0


Вы не можете начинать темы
Вы не можете отвечать на сообщения
Вы не можете редактировать свои сообщения
Вы не можете удалять свои сообщения
Вы не можете добавлять вложения

Перейти:  
Ресурс не предоставляет электронные версии произведений, а занимается лишь коллекционированием и каталогизацией ссылок, присылаемых и публикуемых на форуме нашими читателями. Если вы являетесь правообладателем какого-либо представленного материала и не желаете чтобы ссылка на него находилась в нашем каталоге, свяжитесь с нами и мы незамедлительно удалим её. Файлы для обмена на трекере предоставлены пользователями сайта, и администрация не несёт ответственности за их содержание. Просьба не заливать файлы, защищенные авторскими правами, а также файлы нелегального содержания!
cron