На всех торрентах на трекере установлена скидка на скачивание в размере 100 процентов(а).
 Возможность скачивания торрента НЕ зависит от ограничений при низком ратио, низком аплоаде, требуемом ратио или требуемом аплоаде.


Начать новую тему Ответить на тему
Статистика раздачи
Размер: 565.37 МБ | Добавлен: 16 сен 2018, 18:47 | Скачали: 1
Сидеров: 0  [0 байт/сек]    Личеров: 0  [0 байт/сек]
Пред. тема | След. тема 

Автор
Сообщение

СообщениеДобавлено: 16 сен 2018, 18:47 

Ответить с цитатой 


Boris Zhivago

Love In Russia





• Жанр: Italo-Disco | Synthpop
• Носитель: CD
• Год издания: 2014
• Издатель (лейбл) SP Records
• Номер по каталогу: SP 0023
• Страна исполнителя (группы): RF
• Аудиокодек: FLAC (*.flac)
• Тип рипа: tracks .cue
• Продолжительность: 01:19:48
• Источник (релизер): Krevetka1972 ®
• Наличие сканов: front

01. For The Love In Your Eyes (00:06:11)
02. Lana (00:12:24)
03. From Russia With Love (00:10:31)
04. Russian Girl (00:08:40)
05. Lonely Lover (00:08:50)
06. In My Arms (00:08:51)
07. Deep In My Heart (00:09:37)
08. The Memories Of My Heart (00:10:49)
09. The Years Go By (00:07:30)
10. You & Me (00:09:52)
11. Love In Russia (00:08:58)
12. The Final Chapter (00:11:45)
13. One More Time (00:09:05)
14. Once Upon A Time (00:09:38)
15. No More Love 2014 Bonus Track (00:10:40)
16. In A World Of Fantasy 2014 Bonus Track (00:08:59)

Код:
foobar2000 1.3.13 / Dynamic Range Meter 1.1.1
log date: 2017-01-17 20:50:12
--------------------------------------------------------------------------------
Analyzed: Boris Zhivago / Love In Russia
--------------------------------------------------------------------------------
DR         Peak         RMS     Duration Track
--------------------------------------------------------------------------------
DR10      -1.63 dB   -13.89 dB      6:13 01-For The Love In Your Eyes
DR7       -2.54 dB   -10.55 dB      5:17 02-Lana
DR7       -2.73 dB   -11.22 dB      4:21 03-From Russia With Love
DR5       -2.73 dB    -9.00 dB      4:26 04-Russian Girl
DR7       -2.38 dB   -10.07 dB      4:27 05-Lonely Lover
DR7       -2.54 dB   -10.40 dB      4:50 06-In My Arms
DR6       -1.99 dB    -8.52 dB      5:26 07-Deep In My Heart
DR6       -2.54 dB    -9.21 dB      3:46 08-The Memories Of My Heart
DR7       -1.83 dB    -9.57 dB      4:57 09-The Years Go By
DR8       -2.54 dB   -11.03 dB      4:30 10-You & Me
DR7       -2.20 dB    -9.63 dB      5:54 11-Love In Russia
DR7       -3.48 dB   -11.18 dB      4:34 12-The Final Chapter
DR7       -2.56 dB    -9.91 dB      4:50 13-One More Time
DR6       -1.99 dB    -9.60 dB      5:21 14-Once Upon A Time
DR5       -3.10 dB    -9.31 dB      4:31 15-No More Love 2014 Bonus Track
DR6       -2.17 dB    -8.80 dB      6:25 16-In A World Of Fantasy 2014 Bonus Track
--------------------------------------------------------------------------------
Number of tracks:  16
Official DR value: DR7
Samplerate:        44100 Hz
Channels:          2
Bits per sample:   16
Bitrate:           1058 kbps
Codec:             FLAC
================================================================================

Код:
Exact Audio Copy V1.1 from 23. June 2015
EAC extraction logfile from 17. January 2017, 20:48
Boris Zhivago / Love In Russia
Used drive  : ASUS    SDRW-08D1S-U   Adapter: 1  ID: 1
Read mode               : Secure
Utilize accurate stream : Yes
Defeat audio cache      : Yes
Make use of C2 pointers : No
Read offset correction                      : 103
Overread into Lead-In and Lead-Out          : No
Fill up missing offset samples with silence : Yes
Delete leading and trailing silent blocks   : No
Null samples used in CRC calculations       : Yes
Used interface                              : Native Win32 interface for Win NT & 2000
Gap handling                                : Appended to previous track
Used output format              : User Defined Encoder
Selected bitrate                : 1024 kBit/s
Quality                         : High
Add ID3 tag                     : No
Command line compressor         : J:\Program Files (x86)\Exact Audio Copy\Flac\flac.exe
Additional command line options : -V -6 -T "COMMENT=ripped by Krevetka1972 special for  СПАМ -T "ARTIST=%artist%" -T "TITLE=%title%" -T "ALBUM=%albumtitle%" -T "DATE=%year%" -T "TRACKNUMBER=%tracknr%" -T "GENRE=%genre%" -T "ALBUMARTIST=%albuminterpret%" %source% -o Юst%
TOC of the extracted CD
     Track |   Start  |  Length  | Start sector | End sector
    ---------------------------------------------------------
        1  |  0:00.00 |  6:13.24 |         0    |    27998
        2  |  6:13.24 |  5:16.56 |     27999    |    51754
        3  | 11:30.05 |  4:21.26 |     51755    |    71355
        4  | 15:51.31 |  4:26.00 |     71356    |    91305
        5  | 20:17.31 |  4:26.62 |     91306    |   111317
        6  | 24:44.18 |  4:49.46 |    111318    |   133038
        7  | 29:33.64 |  5:25.61 |    133039    |   157474
        8  | 34:59.50 |  3:46.00 |    157475    |   174424
        9  | 38:45.50 |  4:57.29 |    174425    |   196728
       10  | 43:43.04 |  4:30.35 |    196729    |   217013
       11  | 48:13.39 |  5:53.65 |    217014    |   243553
       12  | 54:07.29 |  4:33.65 |    243554    |   264093
       13  | 58:41.19 |  4:50.29 |    264094    |   285872
       14  | 63:31.48 |  5:21.26 |    285873    |   309973
       15  | 68:52.74 |  4:30.49 |    309974    |   330272
       16  | 73:23.48 |  6:24.53 |    330273    |   359125
Track  1
     Filename G:\Boris Zhivago\2014 - Love In Russia (SP Records # SP 0023)\01. Boris Zhivago - For The Love In Your Eyes.wav
     Pre-gap length  0:00:02.00
     Peak level 82.9 %
     Extraction speed 1.4 X
     Track quality 100.0 %
     Test CRC 6032A732
     Copy CRC 6032A732
     Accurately ripped (confidence 1)  [C01024CB]  (AR v2)
     Copy OK
Track  2
     Filename G:\Boris Zhivago\2014 - Love In Russia (SP Records # SP 0023)\02. Boris Zhivago - Lana.wav
     Pre-gap length  0:00:02.00
     Peak level 74.6 %
     Extraction speed 1.4 X
     Track quality 99.9 %
     Test CRC A02AE122
     Copy CRC A02AE122
     Accurately ripped (confidence 1)  [352B3712]  (AR v2)
     Copy OK
Track  3
     Filename G:\Boris Zhivago\2014 - Love In Russia (SP Records # SP 0023)\03. Boris Zhivago - From Russia With Love.wav
     Pre-gap length  0:00:02.00
     Peak level 73.0 %
     Extraction speed 1.6 X
     Track quality 100.0 %
     Test CRC 816AEBA1
     Copy CRC 816AEBA1
     Accurately ripped (confidence 1)  [FD2994CC]  (AR v2)
     Copy OK
Track  4
     Filename G:\Boris Zhivago\2014 - Love In Russia (SP Records # SP 0023)\04. Boris Zhivago - Russian Girl.wav
     Pre-gap length  0:00:02.00
     Peak level 73.0 %
     Extraction speed 1.7 X
     Track quality 100.0 %
     Test CRC C420E320
     Copy CRC C420E320
     Accurately ripped (confidence 1)  [626A5892]  (AR v2)
     Copy OK
Track  5
     Filename G:\Boris Zhivago\2014 - Love In Russia (SP Records # SP 0023)\05. Boris Zhivago - Lonely Lover.wav
     Pre-gap length  0:00:02.00
     Peak level 76.0 %
     Extraction speed 1.8 X
     Track quality 100.0 %
     Test CRC 6D9292E6
     Copy CRC 6D9292E6
     Accurately ripped (confidence 1)  [C92DA0F5]  (AR v2)
     Copy OK
Track  6
     Filename G:\Boris Zhivago\2014 - Love In Russia (SP Records # SP 0023)\06. Boris Zhivago - In My Arms.wav
     Pre-gap length  0:00:02.00
     Peak level 74.6 %
     Extraction speed 1.8 X
     Track quality 100.0 %
     Test CRC E5361DCD
     Copy CRC E5361DCD
     Accurately ripped (confidence 1)  [BE598E95]  (AR v2)
     Copy OK
Track  7
     Filename G:\Boris Zhivago\2014 - Love In Russia (SP Records # SP 0023)\07. Boris Zhivago - Deep In My Heart.wav
     Pre-gap length  0:00:02.00
     Peak level 79.5 %
     Extraction speed 2.1 X
     Track quality 100.0 %
     Test CRC A14FC844
     Copy CRC A14FC844
     Accurately ripped (confidence 1)  [103510F1]  (AR v2)
     Copy OK
Track  8
     Filename G:\Boris Zhivago\2014 - Love In Russia (SP Records # SP 0023)\08. Boris Zhivago - The Memories Of My Heart.wav
     Pre-gap length  0:00:02.00
     Peak level 74.6 %
     Extraction speed 2.1 X
     Track quality 100.0 %
     Test CRC 81B2098B
     Copy CRC 81B2098B
     Accurately ripped (confidence 1)  [7E0432FE]  (AR v2)
     Copy OK
Track  9
     Filename G:\Boris Zhivago\2014 - Love In Russia (SP Records # SP 0023)\09. Boris Zhivago - The Years Go By.wav
     Pre-gap length  0:00:02.00
     Peak level 80.9 %
     Extraction speed 2.2 X
     Track quality 100.0 %
     Test CRC 0BA8B1A8
     Copy CRC 0BA8B1A8
     Accurately ripped (confidence 1)  [B6269C96]  (AR v2)
     Copy OK
Track 10
     Filename G:\Boris Zhivago\2014 - Love In Russia (SP Records # SP 0023)\10. Boris Zhivago - You & Me.wav
     Pre-gap length  0:00:02.00
     Peak level 74.6 %
     Extraction speed 2.3 X
     Track quality 100.0 %
     Test CRC F2011BFB
     Copy CRC F2011BFB
     Accurately ripped (confidence 1)  [512E8480]  (AR v2)
     Copy OK
Track 11
     Filename G:\Boris Zhivago\2014 - Love In Russia (SP Records # SP 0023)\11. Boris Zhivago - Love In Russia.wav
     Pre-gap length  0:00:02.00
     Peak level 77.6 %
     Extraction speed 2.2 X
     Track quality 99.9 %
     Test CRC 95007881
     Copy CRC 95007881
     Accurately ripped (confidence 1)  [CF3943F0]  (AR v2)
     Copy OK
Track 12
     Filename G:\Boris Zhivago\2014 - Love In Russia (SP Records # SP 0023)\12. Boris Zhivago - The Final Chapter.wav
     Pre-gap length  0:00:02.00
     Peak level 66.9 %
     Extraction speed 2.2 X
     Track quality 99.9 %
     Test CRC 300B6CBC
     Copy CRC 300B6CBC
     Accurately ripped (confidence 1)  [6B243F2D]  (AR v2)
     Copy OK
Track 13
     Filename G:\Boris Zhivago\2014 - Love In Russia (SP Records # SP 0023)\13. Boris Zhivago - One More Time.wav
     Pre-gap length  0:00:02.00
     Peak level 74.4 %
     Extraction speed 2.5 X
     Track quality 100.0 %
     Test CRC D5AF344D
     Copy CRC D5AF344D
     Accurately ripped (confidence 1)  [9140875D]  (AR v2)
     Copy OK
Track 14
     Filename G:\Boris Zhivago\2014 - Love In Russia (SP Records # SP 0023)\14. Boris Zhivago - Once Upon A Time.wav
     Pre-gap length  0:00:02.00
     Peak level 79.5 %
     Extraction speed 2.4 X
     Track quality 99.9 %
     Test CRC EDDD8C36
     Copy CRC EDDD8C36
     Accurately ripped (confidence 1)  [962106DE]  (AR v2)
     Copy OK
Track 15
     Filename G:\Boris Zhivago\2014 - Love In Russia (SP Records # SP 0023)\15. Boris Zhivago - No More Love 2014 Bonus Track.wav
     Pre-gap length  0:00:02.00
     Peak level 70.0 %
     Extraction speed 2.6 X
     Track quality 100.0 %
     Test CRC AEA80D7D
     Copy CRC AEA80D7D
     Accurately ripped (confidence 1)  [4CB2C1B8]  (AR v2)
     Copy OK
Track 16
     Filename G:\Boris Zhivago\2014 - Love In Russia (SP Records # SP 0023)\16. Boris Zhivago - In A World Of Fantasy 2014 Bonus Track.wav
     Pre-gap length  0:00:02.00
     Peak level 77.8 %
     Extraction speed 2.8 X
     Track quality 100.0 %
     Test CRC 035F45FF
     Copy CRC 035F45FF
     Accurately ripped (confidence 1)  [2285007D]  (AR v2)
     Copy OK
All tracks accurately ripped
No errors occurred
End of status report
---- AcoustID Plugin V1.2.0
Total fingerprints: 16
---- CUETools DB Plugin V2.1.6
[CTDB TOCID: iKosXaYNvnlwxvImVrHbfqYtq_g-] found
Submit result: iKosXaYNvnlwxvImVrHbfqYtq_g- has been confirmed
Track | CTDB Status
  1   | (5/5) Accurately ripped
  2   | (5/5) Accurately ripped
  3   | (5/5) Accurately ripped
  4   | (5/5) Accurately ripped
  5   | (5/5) Accurately ripped
  6   | (5/5) Accurately ripped
  7   | (5/5) Accurately ripped
  8   | (5/5) Accurately ripped
  9   | (5/5) Accurately ripped
 10   | (5/5) Accurately ripped
 11   | (5/5) Accurately ripped
 12   | (5/5) Accurately ripped
 13   | (5/5) Accurately ripped
 14   | (5/5) Accurately ripped
 15   | (5/5) Accurately ripped
 16   | (5/5) Accurately ripped
==== Log checksum 0F52C3EDD007DC0FC3668F096F177A78DFF89D88C998EE571398BFD4D06A251F ====

Код:
REM GENRE Italo-Disco
REM DATE 2014
REM DISCID E712B410
REM COMMENT "ExactAudioCopy v1.1"
PERFORMER "Boris Zhivago"
TITLE "Love In Russia"
FILE "01. Boris Zhivago - For The Love In Your Eyes.wav" WAVE
  TRACK 01 AUDIO
    TITLE "For The Love In Your Eyes"
    PERFORMER "Boris Zhivago"
    FLAGS DCP
    INDEX 01 00:00:00
  TRACK 02 AUDIO
    TITLE "Lana"
    PERFORMER "Boris Zhivago"
    FLAGS DCP
    INDEX 00 06:11:24
FILE "02. Boris Zhivago - Lana.wav" WAVE
    INDEX 01 00:00:00
  TRACK 03 AUDIO
    TITLE "From Russia With Love"
    PERFORMER "Boris Zhivago"
    FLAGS DCP
    INDEX 00 05:14:56
FILE "03. Boris Zhivago - From Russia With Love.wav" WAVE
    INDEX 01 00:00:00
  TRACK 04 AUDIO
    TITLE "Russian Girl"
    PERFORMER "Boris Zhivago"
    FLAGS DCP
    INDEX 00 04:19:26
FILE "04. Boris Zhivago - Russian Girl.wav" WAVE
    INDEX 01 00:00:00
  TRACK 05 AUDIO
    TITLE "Lonely Lover"
    PERFORMER "Boris Zhivago"
    FLAGS DCP
    INDEX 00 04:24:00
FILE "05. Boris Zhivago - Lonely Lover.wav" WAVE
    INDEX 01 00:00:00
  TRACK 06 AUDIO
    TITLE "In My Arms"
    PERFORMER "Boris Zhivago"
    FLAGS DCP
    INDEX 00 04:24:62
FILE "06. Boris Zhivago - In My Arms.wav" WAVE
    INDEX 01 00:00:00
  TRACK 07 AUDIO
    TITLE "Deep In My Heart"
    PERFORMER "Boris Zhivago"
    FLAGS DCP
    INDEX 00 04:47:46
FILE "07. Boris Zhivago - Deep In My Heart.wav" WAVE
    INDEX 01 00:00:00
  TRACK 08 AUDIO
    TITLE "The Memories Of My Heart"
    PERFORMER "Boris Zhivago"
    FLAGS DCP
    INDEX 00 05:23:61
FILE "08. Boris Zhivago - The Memories Of My Heart.wav" WAVE
    INDEX 01 00:00:00
  TRACK 09 AUDIO
    TITLE "The Years Go By"
    PERFORMER "Boris Zhivago"
    FLAGS DCP
    INDEX 00 03:44:00
FILE "09. Boris Zhivago - The Years Go By.wav" WAVE
    INDEX 01 00:00:00
  TRACK 10 AUDIO
    TITLE "You & Me"
    PERFORMER "Boris Zhivago"
    FLAGS DCP
    INDEX 00 04:55:29
FILE "10. Boris Zhivago - You & Me.wav" WAVE
    INDEX 01 00:00:00
  TRACK 11 AUDIO
    TITLE "Love In Russia"
    PERFORMER "Boris Zhivago"
    FLAGS DCP
    INDEX 00 04:28:35
FILE "11. Boris Zhivago - Love In Russia.wav" WAVE
    INDEX 01 00:00:00
  TRACK 12 AUDIO
    TITLE "The Final Chapter"
    PERFORMER "Boris Zhivago"
    FLAGS DCP
    INDEX 00 05:51:65
FILE "12. Boris Zhivago - The Final Chapter.wav" WAVE
    INDEX 01 00:00:00
  TRACK 13 AUDIO
    TITLE "One More Time"
    PERFORMER "Boris Zhivago"
    FLAGS DCP
    INDEX 00 04:31:65
FILE "13. Boris Zhivago - One More Time.wav" WAVE
    INDEX 01 00:00:00
  TRACK 14 AUDIO
    TITLE "Once Upon A Time"
    PERFORMER "Boris Zhivago"
    FLAGS DCP
    INDEX 00 04:48:29
FILE "14. Boris Zhivago - Once Upon A Time.wav" WAVE
    INDEX 01 00:00:00
  TRACK 15 AUDIO
    TITLE "No More Love 2014 Bonus Track"
    PERFORMER "Boris Zhivago"
    FLAGS DCP
    INDEX 00 05:19:26
FILE "15. Boris Zhivago - No More Love 2014 Bonus Track.wav" WAVE
    INDEX 01 00:00:00
  TRACK 16 AUDIO
    TITLE "In A World Of Fantasy 2014 Bonus Track"
    PERFORMER "Boris Zhivago"
    FLAGS DCP
    INDEX 00 04:28:49
FILE "16. Boris Zhivago - In A World Of Fantasy 2014 Bonus Track.wav" WAVE
    INDEX 01 00:00:00

Код:
-----------------------
DON'T MODIFY THIS FILE
-----------------------
PERFORMER: auCDtect Task Manager, ver. 1.6.0 RC1 build 1.6.0.1
Copyright © 2008-2010 y-soft. All rights reserved
[url=http://y-soft.org]http://y-soft.org[/url]
ANALYZER: auCDtect: CD records authenticity detector, version 0.8.2
Copyright © 2004 Oleg Berngardt. All rights reserved.
Copyright © 2004 Alexander Djourik. All rights reserved.
FILE: 16. Boris Zhivago - In A World Of Fantasy 2014 Bonus Track.flac
  Size: 50898620 Hash: ED04A3251F10FE78469D8A3A76E383EC Accuracy: -m0
  Conclusion: CDDA 100%
  Signature: E7D8868FC30F5EFF32174056E23FD0A8BD28CB11
FILE: 15. Boris Zhivago - No More Love 2014 Bonus Track.flac
  Size: 35066912 Hash: 8ED73F73B9914D78B5EDDB30C0E0359D Accuracy: -m0
  Conclusion: CDDA 100%
  Signature: 8D1D75931CE9B15B6898A94FA38E2A14FEC3ABCB
FILE: 14. Boris Zhivago - Once Upon A Time.flac
  Size: 39227730 Hash: 50752BACD6A0AD165C8AE28AA4D330E4 Accuracy: -m0
  Conclusion: CDDA 100%
  Signature: 08BF14C42C4E43F9B1B055DA19FE65FA6B469329
FILE: 13. Boris Zhivago - One More Time.flac
  Size: 33299922 Hash: B50B3C05B840676430FE5BA36AC8AFBA Accuracy: -m0
  Conclusion: CDDA 100%
  Signature: 72EC4228B2524785897DB75C6A306D96286AED71
FILE: 12. Boris Zhivago - The Final Chapter.flac
  Size: 32992317 Hash: 8309A9073BF9BDD0BF95075DFA9E590B Accuracy: -m0
  Conclusion: CDDA 100%
  Signature: 96257A5F7E9B56813ADF1B86BE4DF0A54C5EAB16
FILE: 11. Boris Zhivago - Love In Russia.flac
  Size: 43600785 Hash: 09CCC48DA432F1FCAA90E7529D521B4F Accuracy: -m0
  Conclusion: CDDA 100%
  Signature: 2D0DDB67E6B4E1F59B2EC8102004ED05E20D5C4B
FILE: 10. Boris Zhivago - You & Me.flac
  Size: 29831373 Hash: 3189F4E1CD8D736BC7E8FE241EBF5934 Accuracy: -m0
  Conclusion: CDDA 100%
  Signature: 5F89537CBA9AEDCA0871B20A4271D8AE7B9B21A9
FILE: 09. Boris Zhivago - The Years Go By.flac
  Size: 35916415 Hash: 728FA3BB5F80B41A90634561AF54A7D0 Accuracy: -m0
  Conclusion: CDDA 99%
  Signature: 72ED0991C0BD5ED1F2C7B66638DEBBB3E524AD26
FILE: 08. Boris Zhivago - The Memories Of My Heart.flac
  Size: 28061154 Hash: B06636D2FCB046A068D3B90B4D4A913A Accuracy: -m0
  Conclusion: CDDA 100%
  Signature: 0FF18F65FF4DE65CFE3ADBCC782863C7EDB0375E
FILE: 07. Boris Zhivago - Deep In My Heart.flac
  Size: 39613532 Hash: 991D7AA33C06000C28B43B1C4AA27CD2 Accuracy: -m0
  Conclusion: CDDA 100%
  Signature: D48D7D4B7011C99AE776E93554CC0F0B85086124
FILE: 06. Boris Zhivago - In My Arms.flac
  Size: 35973742 Hash: CF7F8A19A2084A49C2FD2F06C2CE75E1 Accuracy: -m0
  Conclusion: CDDA 99%
  Signature: 8B0FD8CF2BD997B2EDE04E7203BECB91F8790A55
FILE: 05. Boris Zhivago - Lonely Lover.flac
  Size: 30848844 Hash: 5B635DD42C0BAC63A662D5355632D071 Accuracy: -m0
  Conclusion: CDDA 100%
  Signature: 60D75ED7AB3C2420FE8DF036BAB42BB7DD727DCA
FILE: 04. Boris Zhivago - Russian Girl.flac
  Size: 32512898 Hash: 0063E45B9BB4FC369ECD60AF35683648 Accuracy: -m0
  Conclusion: CDDA 100%
  Signature: FF2AAC7EB07F8A3A6B053DFE8468A06F5B5E9242
FILE: 03. Boris Zhivago - From Russia With Love.flac
  Size: 32474208 Hash: B347597785C5B8218CA9FB9BD16665E7 Accuracy: -m0
  Conclusion: CDDA 100%
  Signature: 4CA0D5FA65787063B48359D397E6D0880FDBF5AD
FILE: 02. Boris Zhivago - Lana.flac
  Size: 37014054 Hash: 024E912285C5C52F94BCF55C37D0F519 Accuracy: -m0
  Conclusion: CDDA 100%
  Signature: D2C22A2CDC8E556CBCD828367B61212701E31A5E
FILE: 01. Boris Zhivago - For The Love In Your Eyes.flac
  Size: 42395338 Hash: 1A0406FFCD0CFB982A4D45EBB73165E6 Accuracy: -m0
  Conclusion: CDDA 100%
  Signature: BD9E11D6AF10992D6959DE796BAC173A873DBFC2


загрузка...
Правила, инструкции, FAQ!!!
Торрент  Добавлен [16 сен 2018, 18:47] Скачать торрент Магнет ссылка
Скачать торрент
[ Размер 13.13 КБ / Просмотров 1 ]

Статус
Проверен 
 
Размер  565.37 МБ
Приватный: Нет (DHT включён)
.torrent скачан  1
Как залить торрент? | Как скачать Torrent? | Ошибка в торренте? Качайте магнет  


     Отправить личное сообщение
   
Страница 1 из 1
Показать сообщения за:  Поле сортировки  
Начать новую тему Ответить на тему

   Похожие торренты   Автор   Ответы   Просмотры   Последнее сообщение 
В этой теме нет новых непрочитанных сообщений. Скачать торрент Проверен (Italo-Disco | Synthpop) [CD] Boris Zhivago - Memories - 2018 FLAC (tracks+.cue), lossless

в форуме Зарубежная музыка, Размер: 550.46 МБ, Здоровье: 100%

Anonymous

0
15|5

8
0

16 сен 2018, 18:47

Anonymous Перейти к последнему сообщению

В этой теме нет новых непрочитанных сообщений. Скачать торрент Проверен (Italo-Disco | Synthpop) [CD] Boris Zhivago - The Last Goodbye - 2013 FLAC (tracks+.cue), lossless

в форуме Зарубежная музыка, Размер: 581.42 МБ, Здоровье: ???%

Anonymous

0
0|1

8
0

16 сен 2018, 18:47

Anonymous Перейти к последнему сообщению

В этой теме нет новых непрочитанных сообщений. Скачать торрент Boris Zhivago - The Last Goodbye (2013) [MP3|320 кб/с]<Italo-Disco,Hi NRG>

в форуме Зарубежная музыка, Размер: 180.18 МБ, Здоровье: 20%

Anonymous

0
1|5

63
1

03 мар 2014, 06:40

Anonymous Перейти к последнему сообщению

В этой теме нет новых непрочитанных сообщений. Скачать торрент Проверен VA - I Love ZYX Italo Disco Collection vol.1-16 (2002-2013) [FLAC|Lossless]<Hi NRG, Italo-Disco, Synthpop, Euro-Disco>

в форуме Зарубежная музыка, Размер: 23.73 ГБ, Здоровье: 100%

Гость

0
71|34

480
13

20 июл 2015, 20:26

Гость Перейти к последнему сообщению

В этой теме нет новых непрочитанных сообщений. Скачать торрент Проверен VA- I Love ZYX Italo Disco Collection Vol.17 (2014) 3CD [MP3|320 кб/с]<Italo-Disco, Synthpop, Spacesynth>

в форуме Зарубежная музыка, Размер: 483.03 МБ, Здоровье: 100%

Anonymous

0
56|11

143
3

18 окт 2014, 17:12

Anonymous Перейти к последнему сообщению



Сейчас этот форум просматривают: нет зарегистрированных пользователей и гости: 1


Вы не можете начинать темы
Вы не можете отвечать на сообщения
Вы не можете редактировать свои сообщения
Вы не можете удалять свои сообщения
Вы не можете добавлять вложения

Перейти:  
Ресурс не предоставляет электронные версии произведений, а занимается лишь коллекционированием и каталогизацией ссылок, присылаемых и публикуемых на форуме нашими читателями. Если вы являетесь правообладателем какого-либо представленного материала и не желаете чтобы ссылка на него находилась в нашем каталоге, свяжитесь с нами и мы незамедлительно удалим её. Файлы для обмена на трекере предоставлены пользователями сайта, и администрация не несёт ответственности за их содержание. Просьба не заливать файлы, защищенные авторскими правами, а также файлы нелегального содержания!
cron