На всех торрентах на трекере установлена скидка на скачивание в размере 100 процентов(а).
 Возможность скачивания торрента НЕ зависит от ограничений при низком ратио, низком аплоаде, требуемом ратио или требуемом аплоаде.


Начать новую тему Ответить на тему
Статистика раздачи
Размер: 316.8 МБ | Добавлен: 16 сен 2018, 18:47 | Скачали: 0
Сидеров: 0  [0 байт/сек]    Личеров: 0  [0 байт/сек]
Пред. тема | След. тема 

Автор
Сообщение

СообщениеДобавлено: 16 сен 2018, 18:47 

Ответить с цитатой 

Sabrina (Salerno) / Grand Collection
Жанр: Italo-Disco
Носитель: CD
Страна-производитель диска (релиза): Россия
Год издания: 2006
Издатель (лейбл): Квадро-Диск
Номер по каталогу: GCR 219
Аудиокодек: APE (*.ape)
Тип рипа: image+.cue
Битрейт аудио: lossless
Продолжительность: 00:43:28
Источник (релизер): собственный рип
Наличие сканов в содержимом раздачи: да
Треклист:
01. Boys (3:57)
02. All Of Me (3:50)
03. Like A Yo-Yo (3:31)
04. My Chico (3:42)
05. Funky Girl (3:51)
06. Pirate Of Love (4:00)
07. Guys Dolls (3:52)
08. Doctor's Orders (3:22)
09. Sexy Girl (3:44)
10. Sex (4:13)
11. Boys (Summertime Love) (12" Extended Version) (5:37)
Код:
Exact Audio Copy V1.3 from 2. September 2016
Отчёт EAC об извлечении, выполненном 27. августа 2018, 19:34
Sabrina / Grand Collection
Дисковод: HL-DT-STCD-ROM GCR-8522B   Adapter: 1  ID: 1
Режим чтения                 : Достоверность
Использование точного потока : Да
Отключение кэша аудио        : Да
Использование указателей C2  : Нет
Коррекция смещения при чтении                     : -489
Способность читать области Lead-in и Lead-out     : Нет
Заполнение пропущенных сэмплов тишиной            : Да
Удаление блоков с тишиной в начале и конце        : Нет
При вычислениях CRC использовались нулевые сэмплы : Да
Интерфейс                                         : Встроенный Win32-интерфейс для Win NT/2000
Выходной формат          : Monkey's Audio (без потерь)
Выбранный битрейт        : Fast Lossless Compression
Качество                 : Высокий
Добавление ID3-тега      : Да
Утилита сжатия           : C:\Program Files\Monkey's Audio x64\MAC.exe
TOC извлечённого CD
     Трек |   Старт  | Длительность | Начальный сектор | Конечный сектор
    ---------------------------------------------------------------------
       1  |  0:00.00 |    3:56.58   |           0      |      17757
       2  |  3:56.58 |    3:48.58   |       17758      |      34915
       3  |  7:45.41 |    3:29.38   |       34916      |      50628
       4  | 11:15.04 |    3:41.17   |       50629      |      67220
       5  | 14:56.21 |    3:50.07   |       67221      |      84477
       6  | 18:46.28 |    3:59.08   |       84478      |     102410
       7  | 22:45.36 |    3:51.29   |      102411      |     119764
       8  | 26:36.65 |    3:21.14   |      119765      |     134853
       9  | 29:58.04 |    3:42.21   |      134854      |     151524
      10  | 33:40.25 |    4:12.38   |      151525      |     170462
      11  | 37:52.63 |    5:35.55   |      170463      |     195642
Характеристики диапазона извлечения и сообщения об ошибках
Выбранный диапазон
     Имя файла E:\EAC\Sabrina - Grand Collection.wav
     Пиковый уровень 97.5 %
     Скорость извлечения 2.9 X
     Качество диапазона 100.0 %
     CRC теста 37ACADE0
     CRC копии 37ACADE0
     Копирование... OK
Ошибок не произошло
AccurateRip: сводка
Трек  1  отсутствует в базе данных
Трек  2  отсутствует в базе данных
Трек  3  отсутствует в базе данных
Трек  4  отсутствует в базе данных
Трек  5  отсутствует в базе данных
Трек  6  отсутствует в базе данных
Трек  7  отсутствует в базе данных
Трек  8  отсутствует в базе данных
Трек  9  отсутствует в базе данных
Трек 10  отсутствует в базе данных
Трек 11  отсутствует в базе данных
Ни одного трека нет в базе AccurateRip
Конец отчёта
---- CUETools DB Plugin V2.1.6
[CTDB TOCID: tGDwUiNP7LuT6Z5cXFaRqLLkszM-] found
Submit result: tGDwUiNP7LuT6Z5cXFaRqLLkszM- has been confirmed
Track | CTDB Status
  1   | (1/1) Accurately ripped
  2   | (1/1) Accurately ripped
  3   | (1/1) Accurately ripped
  4   | (1/1) Accurately ripped
  5   | (1/1) Accurately ripped
  6   | (1/1) Accurately ripped
  7   | (1/1) Accurately ripped
  8   | (1/1) Accurately ripped
  9   | (1/1) Accurately ripped
 10   | (1/1) Accurately ripped
 11   | (1/1) Accurately ripped
==== Контрольная сумма отчёта 8DAE50F02CFDF3FE2D6CF0726053081B7009E8ADD3F015C715899D8F9241DC4E ====
Код:
REM DATE 2006
REM DISCID 9F0A300B
REM COMMENT "ExactAudioCopy v1.3"
PERFORMER "Sabrina"
TITLE "Grand Collection"
REM COMPOSER ""
FILE "Sabrina - Grand Collection.ape" WAVE
  TRACK 01 AUDIO
    TITLE "Boys"
    PERFORMER "Sabrina"
    REM COMPOSER ""
    INDEX 01 00:00:00
  TRACK 02 AUDIO
    TITLE "All Of Me"
    PERFORMER "Sabrina"
    REM COMPOSER ""
    INDEX 00 03:54:58
    INDEX 01 03:56:58
  TRACK 03 AUDIO
    TITLE "Like A Yo-Yo"
    PERFORMER "Sabrina"
    REM COMPOSER ""
    INDEX 00 07:43:37
    INDEX 01 07:45:41
  TRACK 04 AUDIO
    TITLE "My Chico"
    PERFORMER "Sabrina"
    REM COMPOSER ""
    INDEX 00 11:13:01
    INDEX 01 11:15:04
  TRACK 05 AUDIO
    TITLE "Funky Girl"
    PERFORMER "Sabrina"
    REM COMPOSER ""
    INDEX 00 14:54:21
    INDEX 01 14:56:21
  TRACK 06 AUDIO
    TITLE "Pirate Of Love"
    PERFORMER "Sabrina"
    REM COMPOSER ""
    INDEX 00 18:44:24
    INDEX 01 18:46:28
  TRACK 07 AUDIO
    TITLE "Guys Dolls"
    PERFORMER "Sabrina"
    REM COMPOSER ""
    INDEX 00 22:43:32
    INDEX 01 22:45:36
  TRACK 08 AUDIO
    TITLE "Doctor's Orders"
    PERFORMER "Sabrina"
    REM COMPOSER ""
    INDEX 00 26:34:61
    INDEX 01 26:36:65
  TRACK 09 AUDIO
    TITLE "Sexy Girl"
    PERFORMER "Sabrina"
    REM COMPOSER ""
    INDEX 00 29:56:00
    INDEX 01 29:58:04
  TRACK 10 AUDIO
    TITLE "Sex"
    PERFORMER "Sabrina"
    REM COMPOSER ""
    INDEX 00 33:38:21
    INDEX 01 33:40:25
  TRACK 11 AUDIO
    TITLE "Boys (Summertime Love) (12' Extended Version)"
    PERFORMER "Sabrina"
    REM COMPOSER ""
    INDEX 00 37:50:60
    INDEX 01 37:52:63
загрузка...
Правила, инструкции, FAQ!!!
Торрент  Добавлен [16 сен 2018, 18:47] Скачать торрент Магнет ссылка
Скачать торрент
[ Размер 13.22 КБ / Просмотров 1 ]

Статус
Проверен 
 
Размер  316.8 МБ
Приватный: Нет (DHT включён)
.torrent скачан  0
Как залить торрент? | Как скачать Torrent? | Ошибка в торренте? Качайте магнет  


     Отправить личное сообщение
   
Страница 1 из 1
Показать сообщения за:  Поле сортировки  
Начать новую тему Ответить на тему

   Похожие торренты   Автор   Ответы   Просмотры   Последнее сообщение 
В этой теме нет новых непрочитанных сообщений. Скачать торрент Проверен (Italo-Disco) Sabrina (Salerno) - Grand Collection - 2006, MP3, 320 kbps

в форуме Зарубежная музыка, Размер: 117.31 МБ, Здоровье: 100%

Anonymous

0
2|0

4
0

16 сен 2018, 18:41

Anonymous Перейти к последнему сообщению

В этой теме нет новых непрочитанных сообщений. Скачать торрент Проверен (Italo-Disco) Sabrina (Salerno) - Super Sabrina - 1989, APE (image+.cue), lossless

в форуме Зарубежная музыка, Размер: 235.36 МБ, Здоровье: 100%

Anonymous

0
3|1

30
1

02 окт 2017, 23:44

Anonymous Перейти к последнему сообщению

В этой теме нет новых непрочитанных сообщений. Скачать торрент (Italo-Disco) Sabrina (Salerno) - Sabrina (CD Album) - n/a, FLAC (image+.cue), lossless

в форуме Зарубежная музыка, Размер: 257.51 МБ, Здоровье: 100%

Anonymous

0
22|15

545
12

04 янв 2014, 02:06

Anonymous Перейти к последнему сообщению

В этой теме нет новых непрочитанных сообщений. Скачать торрент Проверен (Italo-Disco) Sabrina (Salerno) - Sabrina - 1987, FLAC (image+.cue), lossless

в форуме Зарубежная музыка, Размер: 343.24 МБ, Здоровье: 100%

Anonymous

0
3|1

60
2

07 окт 2017, 16:27

Anonymous Перейти к последнему сообщению

В этой теме нет новых непрочитанных сообщений. Скачать торрент Проверен (Italo-Disco) Sabrina (Salerno) - Sabrina (Japan) - 1987, FLAC (image+.cue), lossless

в форуме Зарубежная музыка, Размер: 287.9 МБ, Здоровье: 100%

Anonymous

0
29|1

68
3

08 окт 2017, 17:28

Anonymous Перейти к последнему сообщению



Сейчас этот форум просматривают: нет зарегистрированных пользователей и гости: 1


Вы не можете начинать темы
Вы не можете отвечать на сообщения
Вы не можете редактировать свои сообщения
Вы не можете удалять свои сообщения
Вы не можете добавлять вложения

Перейти:  
Ресурс не предоставляет электронные версии произведений, а занимается лишь коллекционированием и каталогизацией ссылок, присылаемых и публикуемых на форуме нашими читателями. Если вы являетесь правообладателем какого-либо представленного материала и не желаете чтобы ссылка на него находилась в нашем каталоге, свяжитесь с нами и мы незамедлительно удалим её. Файлы для обмена на трекере предоставлены пользователями сайта, и администрация не несёт ответственности за их содержание. Просьба не заливать файлы, защищенные авторскими правами, а также файлы нелегального содержания!
cron