На всех торрентах на трекере установлена скидка на скачивание в размере 100 процентов(а).
 Возможность скачивания торрента НЕ зависит от ограничений при низком ратио, низком аплоаде, требуемом ратио или требуемом аплоаде.


Начать новую тему Ответить на тему
Статистика раздачи
Размер: 443.44 МБ | Добавлен: 16 сен 2018, 18:47 | Скачали: 0
Сидеров: 0  [0 байт/сек]    Личеров: 0  [0 байт/сек]
Пред. тема | След. тема 

Автор
Сообщение

СообщениеДобавлено: 16 сен 2018, 18:47 

Ответить с цитатой 

European Maxi Single Hit Collection - Volume 28
Жанр: Italo-Disco, Europop
Носитель: CDR
Год издания: 1991
Издатель (лейбл): Discomusic Records
Страна исполнителя (группы): Hong Kong
Аудиокодек: FLAC (*.flac)
Тип рипа: image+.cue
Битрейт аудио: lossless
Продолжительность: 01:10:44
Источник (релизер): my rip
Наличие сканов в содержимом раздачи: нет
Треклист:
1. Mark Owen - Magic Love 9:20
2. Paciscopi - Love's Harmony 6:29
3. Gary Low - Non-Stop Searching 5:30
4. Sheila Stewart - Tonight 6:23
5. Cliff Turner - Moonlight affair 6:09
6. Facts & Fiction - Give Me The Night 6:11
7. Lena - Run To Me 4:35
8. Charly Danone - You Can Do It 6:09
9. Marlowe - You Break My Heart 5:34
10. Eddy Skyn - It's A Lie 5:26
11. Foolish Mind - You 4:10
12. Nick Letizia - Amici Toi 4:46
Код:
Exact Audio Copy V0.99 prebeta 5 from 4. May 2009
Отчёт EAC об извлечении, выполненном 9. апреля 2018, 17:41
Various / European Maxi Single Hit Collection vol.28
Дисковод: TEAC    CD-W552G   Adapter: 0  ID: 1
Режим чтения                 : Достоверность
Использование точного потока : Да
Отключение кэша аудио        : Да
Использование указателей C2  : Нет
Коррекция смещения при чтении                     : 6
Способность читать области Lead-in и Lead-out     : Нет
Заполнение пропущенных сэмплов тишиной            : Да
Удаление блоков с тишиной в начале и конце        : Нет
При вычислениях CRC использовались нулевые сэмплы : Да
Интерфейс                                         : Встроенный Win32-интерфейс для Win NT/2000
Выходной формат          : Пользовательский кодировщик
Выбранный битрейт        : 896 kBit/s
Качество                 : Высокий
Добавление ID3-тэга      : Нет
Утилита сжатия           : F:\Program\Exact Audio Copy\FLAC\FLAC.EXE
Дополнительные параметры : -6 -V -T "ARTIST=%a" -T "TITLE=%t" -T "ALBUM=%g" -T "DATE=%y" -T "TRACKNUMBER=%n" -T "GENRE=%m" -T "COMMENT=%e" %s -o %d
TOC извлечённого CD
     Трек |   Старт  | Длительность | Начальный сектор | Конечный сектор
    ---------------------------------------------------------------------
       1  |  0:00.00 |    9:20.20   |           0      |      42019
       2  |  9:20.20 |    6:28.60   |       42020      |      71179
       3  | 15:49.05 |    5:29.74   |       71180      |      95928
       4  | 21:19.04 |    6:23.43   |       95929      |     124696
       5  | 27:42.47 |    6:09.15   |      124697      |     152386
       6  | 33:51.62 |    6:10.62   |      152387      |     180198
       7  | 40:02.49 |    4:34.68   |      180199      |     200816
       8  | 44:37.42 |    6:09.35   |      200817      |     228526
       9  | 50:47.02 |    5:33.60   |      228527      |     253561
      10  | 56:20.62 |    5:26.41   |      253562      |     278052
      11  | 61:47.28 |    4:09.62   |      278053      |     296789
      12  | 65:57.15 |    4:46.62   |      296790      |     318301
Характеристики диапазона извлечения и сообщения об ошибках
Выбранный диапазон
     Имя файла C:\Documents and Settings\Admin\Рабочий стол\European Maxi Single Hit Collection vol.28 (1991)\Various - European Maxi Single Hit Collection vol.28.wav
     Пиковый уровень 100.0 %
     Качество диапазона 99.9 %
     CRC теста CFBCCE85
     CRC копии CFBCCE85
     Копирование... OK
Ошибок не произошло
Конец отчёта
Код:
Started at: понедельник, 09. 04. 2018. - 17:42.07
1 file found
1 -===- C:\Documents and Settings\Admin\Рабочий стол\European Maxi Single Hit Collection vol.28 (1991)\Various - European Maxi Single Hit Collection vol.28.flac
  Extracted successfully
  Conclusion: this track is MPEG with probability 95%
  Tempfile successfully deleted.
Finished at: понедельник, 09. 04. 2018. - 17:47.31 (operation time: 0:05.23)
загрузка...
Правила, инструкции, FAQ!!!
Торрент  Добавлен [16 сен 2018, 18:47] Скачать торрент Магнет ссылка
Скачать торрент
[ Размер 18.06 КБ / Просмотров 0 ]

Статус
Проверен 
 
Размер  443.44 МБ
Приватный: Нет (DHT включён)
.torrent скачан  0
Как залить торрент? | Как скачать Torrent? | Ошибка в торренте? Качайте магнет  


     Отправить личное сообщение
   
Страница 1 из 1
Показать сообщения за:  Поле сортировки  
Начать новую тему Ответить на тему

   Похожие торренты   Автор   Ответы   Просмотры   Последнее сообщение 
В этой теме нет новых непрочитанных сообщений. Скачать торрент Проверен (Italo-Disco, Europop, Hi NRG) VA - European Maxi Single Hit Collection (12 CD) - 1991, FLAC (image+.cue), lossless

в форуме Зарубежная музыка, Размер: 5.7 ГБ, Здоровье: 100%

Anonymous

0
4|3

41
1

03 окт 2017, 22:55

Anonymous Перейти к последнему сообщению

В этой теме нет новых непрочитанных сообщений. Скачать торрент Проверен (Italo-Disco, Europop) [CDR] VA - European Maxi Single Hit Collection Vol.10 - 1991, FLAC (image+.cue), lossless

в форуме Зарубежная музыка, Размер: 439.03 МБ, Здоровье: 0%

Anonymous

0
0|0

6
0

16 сен 2018, 18:47

Anonymous Перейти к последнему сообщению

В этой теме нет новых непрочитанных сообщений. Скачать торрент Проверен (Italo-Disco, Synth-pop) VA - 80's Revolution - Disco Fox Volume 4 Maxi-Single Versions - 2012, FLAC (image+.cue), lossless

в форуме Зарубежная музыка, Размер: 1.11 ГБ, Здоровье: 100%

Anonymous

0
9|4

20
3

07 окт 2017, 14:39

Anonymous Перейти к последнему сообщению

В этой теме нет новых непрочитанных сообщений. Скачать торрент Проверен (Italo-Disco, Europop, Hi-NRG, Synth-pop, Disco) VA - 80's Revolution - Italo Disco Volume 4 (2CD) - 2012, FLAC (image+.cue), lossless

в форуме Зарубежная музыка, Размер: 1.05 ГБ, Здоровье: 100%

Anonymous

0
13|8

104
6

07 окт 2017, 15:00

Anonymous Перейти к последнему сообщению

В этой теме нет новых непрочитанных сообщений. Скачать торрент Проверен (Italo-Disco, Europop, Hi NRG, Synth-pop, Disco) VA - 80's Revolution - Italo Disco Volume 5 (2CD) - 2013, FLAC (image+.cue), lossless

в форуме Зарубежная музыка, Размер: 1.04 ГБ, Здоровье: 100%

Anonymous

0
6|6

106
5

07 окт 2017, 15:00

Anonymous Перейти к последнему сообщению



Сейчас этот форум просматривают: нет зарегистрированных пользователей и гости: 0


Вы не можете начинать темы
Вы не можете отвечать на сообщения
Вы не можете редактировать свои сообщения
Вы не можете удалять свои сообщения
Вы не можете добавлять вложения

Перейти:  
Ресурс не предоставляет электронные версии произведений, а занимается лишь коллекционированием и каталогизацией ссылок, присылаемых и публикуемых на форуме нашими читателями. Если вы являетесь правообладателем какого-либо представленного материала и не желаете чтобы ссылка на него находилась в нашем каталоге, свяжитесь с нами и мы незамедлительно удалим её. Файлы для обмена на трекере предоставлены пользователями сайта, и администрация не несёт ответственности за их содержание. Просьба не заливать файлы, защищенные авторскими правами, а также файлы нелегального содержания!
cron