На всех торрентах на трекере установлена скидка на скачивание в размере 100 процентов(а).
 Возможность скачивания торрента НЕ зависит от ограничений при низком ратио, низком аплоаде, требуемом ратио или требуемом аплоаде.


Начать новую тему Ответить на тему
Статистика раздачи
Размер: 439.03 МБ | Добавлен: 16 сен 2018, 18:47 | Скачали: 0
Сидеров: 0  [0 байт/сек]    Личеров: 0  [0 байт/сек]
Пред. тема | След. тема 

Автор
Сообщение

СообщениеДобавлено: 16 сен 2018, 18:47 

Ответить с цитатой 

European Maxi Single Hit Collection Vol.10
Жанр: Italo-Disco, Europop
Носитель: CDR
Страна-производитель диска (релиза): Hong Kong
Год издания: 1991
Издатель (лейбл): Discomusic Records
Аудиокодек: FLAC (*.flac)
Тип рипа: image+.cue
Битрейт аудио: lossless
Продолжительность: 01:09:10
Источник (релизер): my rip
Наличие сканов в содержимом раздачи: нет
Треклист:
1. Danuta - Touch My Heart 5:00
2. Jim Player - Girl On The Phone 6:11
3. Twenty One - The Eyes Of Don Johnson 5:01
4. Anthony's Games - Silent Smiles 5:51
5. Mac JR. - Elephant Song 5:32
6. Michael Paul Hill - She's My Queen 5:47
7. Careen Connection - Psychodelic Terror 4:52
8. 1000 Ohm - The Claim 4:31
9. Side Walk - Take Away The Rain 6:04
10. Partenaire Particulier - Elle Est Partie 4:51
11. Tony Esposito - Kalimba De Luna 4:50
12. Dan Eller - Gimme A Little Sign 4:10
13, X-Ray Connection - Get Ready 6:10
Код:
Exact Audio Copy V0.99 prebeta 5 from 4. May 2009
Отчёт EAC об извлечении, выполненном 8. августа 2018, 23:47
Various / European Maxi Single Hit Collection vol.10 (1991)
Дисковод: TEAC    CD-W552G   Adapter: 0  ID: 1
Режим чтения                 : Достоверность
Использование точного потока : Да
Отключение кэша аудио        : Да
Использование указателей C2  : Нет
Коррекция смещения при чтении                     : 6
Способность читать области Lead-in и Lead-out     : Нет
Заполнение пропущенных сэмплов тишиной            : Да
Удаление блоков с тишиной в начале и конце        : Нет
При вычислениях CRC использовались нулевые сэмплы : Да
Интерфейс                                         : Встроенный Win32-интерфейс для Win NT/2000
Выходной формат          : Пользовательский кодировщик
Выбранный битрейт        : 896 kBit/s
Качество                 : Высокий
Добавление ID3-тэга      : Нет
Утилита сжатия           : F:\Program\Exact Audio Copy\FLAC\FLAC.EXE
Дополнительные параметры : -6 -V -T "ARTIST=%a" -T "TITLE=%t" -T "ALBUM=%g" -T "DATE=%y" -T "TRACKNUMBER=%n" -T "GENRE=%m" -T "COMMENT=%e" %s -o %d
TOC извлечённого CD
     Трек |   Старт  | Длительность | Начальный сектор | Конечный сектор
    ---------------------------------------------------------------------
       1  |  0:00.00 |    5:04.70   |           0      |      22869
       2  |  5:04.70 |    6:17.34   |       22870      |      51178
       3  | 11:22.29 |    4:51.07   |       51179      |      73010
       4  | 16:13.36 |    5:58.68   |       73011      |      99928
       5  | 22:12.29 |    4:40.13   |       99929      |     120941
       6  | 26:52.42 |    5:55.54   |      120942      |     147620
       7  | 32:48.21 |    4:59.73   |      147621      |     170118
       8  | 37:48.19 |    4:36.58   |      170119      |     190876
       9  | 42:25.02 |    6:11.23   |      190877      |     218724
      10  | 48:36.25 |    4:56.39   |      218725      |     240963
      11  | 53:32.64 |    4:57.33   |      240964      |     263271
      12  | 58:30.22 |    4:15.56   |      263272      |     282452
      13  | 62:46.03 |    6:23.07   |      282453      |     311184
Характеристики диапазона извлечения и сообщения об ошибках
Выбранный диапазон
     Имя файла C:\Documents and Settings\Admin\Рабочий стол\European Maxi Single Hit Collection vol.10 (1991)\Various - European Maxi Single Hit Collection vol.10 (1991).wav
     Пиковый уровень 100.0 %
     Качество диапазона 99.9 %
     CRC теста FC3F9CB1
     CRC копии FC3F9CB1
     Копирование... OK
Ошибок не произошло
Конец отчёта
Код:
Started at: четверг, 09. 08. 2018. - 0:00.31
1 file found
1 -===- C:\Documents and Settings\Admin\Рабочий стол\European Maxi Single Hit Collection vol.10 (1991)\Various - European Maxi Single Hit Collection vol.10 (1991).flac
  Extracted successfully
  Conclusion: this track is MPEG with probability 95%
  Tempfile successfully deleted.
Finished at: четверг, 09. 08. 2018. - 0:05.35 (operation time: 0:05.03)
загрузка...
Правила, инструкции, FAQ!!!
Торрент  Добавлен [16 сен 2018, 18:47] Скачать торрент Магнет ссылка
Скачать торрент
[ Размер 17.93 КБ / Просмотров 0 ]

Статус
Проверен 
 
Размер  439.03 МБ
Приватный: Нет (DHT включён)
.torrent скачан  0
Как залить торрент? | Как скачать Torrent? | Ошибка в торренте? Качайте магнет  


     Отправить личное сообщение
   
Страница 1 из 1
Показать сообщения за:  Поле сортировки  
Начать новую тему Ответить на тему

   Похожие торренты   Автор   Ответы   Просмотры   Последнее сообщение 
В этой теме нет новых непрочитанных сообщений. Скачать торрент Проверен (Italo-Disco, Europop, Hi NRG) VA - European Maxi Single Hit Collection (12 CD) - 1991, FLAC (image+.cue), lossless

в форуме Зарубежная музыка, Размер: 5.7 ГБ, Здоровье: 100%

Anonymous

0
4|3

41
1

03 окт 2017, 22:55

Anonymous Перейти к последнему сообщению

В этой теме нет новых непрочитанных сообщений. Скачать торрент Проверен (Italo-Disco, Europop) [CDR] VA - European Maxi Single Hit Collection - Volume 28 - 1991, FLAC (image+.cue), lossless

в форуме Зарубежная музыка, Размер: 443.44 МБ, Здоровье: 0%

Anonymous

0
0|0

8
0

16 сен 2018, 18:47

Anonymous Перейти к последнему сообщению

В этой теме нет новых непрочитанных сообщений. Скачать торрент Проверен (Italo-Disco, Synth-pop) VA - Italo Disco Vol.1 Maxi-Single Versions - 2009, FLAC (image+.cue), lossless

в форуме Зарубежная музыка, Размер: 1.09 ГБ, Здоровье: 100%

Anonymous

0
7|6

47
2

07 окт 2017, 14:48

Anonymous Перейти к последнему сообщению

В этой теме нет новых непрочитанных сообщений. Скачать торрент Проверен (Italo-Disco, Synth-pop) VA - Disco Fox Vol.1 Maxi-Single Versions - 2010, FLAC (image+.cue), lossless

в форуме Зарубежная музыка, Размер: 1.1 ГБ, Здоровье: 100%

Anonymous

0
4|4

30
1

07 окт 2017, 15:04

Anonymous Перейти к последнему сообщению

В этой теме нет новых непрочитанных сообщений. Скачать торрент Проверен (Italo-Disco, Synth-pop) VA - 80's Revolution - Disco Fox Volume 4 Maxi-Single Versions - 2012, FLAC (image+.cue), lossless

в форуме Зарубежная музыка, Размер: 1.11 ГБ, Здоровье: 100%

Anonymous

0
9|4

20
3

07 окт 2017, 14:39

Anonymous Перейти к последнему сообщению



Сейчас этот форум просматривают: нет зарегистрированных пользователей и гости: 1


Вы не можете начинать темы
Вы не можете отвечать на сообщения
Вы не можете редактировать свои сообщения
Вы не можете удалять свои сообщения
Вы не можете добавлять вложения

Перейти:  
Ресурс не предоставляет электронные версии произведений, а занимается лишь коллекционированием и каталогизацией ссылок, присылаемых и публикуемых на форуме нашими читателями. Если вы являетесь правообладателем какого-либо представленного материала и не желаете чтобы ссылка на него находилась в нашем каталоге, свяжитесь с нами и мы незамедлительно удалим её. Файлы для обмена на трекере предоставлены пользователями сайта, и администрация не несёт ответственности за их содержание. Просьба не заливать файлы, защищенные авторскими правами, а также файлы нелегального содержания!
cron