На всех торрентах на трекере установлена скидка на скачивание в размере 100 процентов(а).
 Возможность скачивания торрента НЕ зависит от ограничений при низком ратио, низком аплоаде, требуемом ратио или требуемом аплоаде.


Начать новую тему Ответить на тему
Статистика раздачи
Размер: 1.46 ГБ | Добавлен: 11 июн 2018, 09:30 | Скачали: 0
Сидеров: 0  [0 байт/сек]    Личеров: 0  [0 байт/сек]
Пред. тема | След. тема 

Автор
Сообщение

СообщениеДобавлено: 11 июн 2018, 09:30 

Ответить с цитатой 


Исчезновение Сидни Холла / The Vanishing of Sidney Hall

«It's all about beginnings»


Страна: США
Жанр: драма, детектив
Год выпуска: 2017
Продолжительность: 02:00:32
Перевод: Профессиональный (многоголосый закадровый) iTunes
Субтитры: нет
Оригинальная аудиодорожка: нет
Режиссер: Шон Кристенсен / Shawn Christensen
В ролях: Эль Фаннинг, Логан Лерман, Янина Гаванкар, Мишель Монахэн, Кайл Чандлер, Нэйтан Лейн, Маргарет Куэлли, Блейк Дженнер, Тим Блейк Нельсон, Яхья Абдул-Матин II
Описание: Будучи подростком, парень по имени Сидни Холл решает написать книгу, которая изменит его жизнь и перевернет представление о целом поколении. Ему это удается. Долгое время эта книга бьет все рекорды продаж. Героями бестселлера стали люди, которые окружали парня в течение всей его жизни. Сидни Холл становится лучшим писателем современности. Но однажды писатель решил сжечь все свои книги, а вскоре после этого он и сам исчезает. Долгие годы его никто не видел. За его поиски берется человек, который любой ценой хочет встретиться с неординарным писателем...


Качество видео: BDRip / The.Vanishing.Of.Sidney.Hall.2017.1080p.BluRay.REMUX.AVC.DTS-HD.MA.5.1-FGT
Формат видео: AVI
Видео: XviD build 67, 720x304 (2.35:1), 23.976 fps, ~1344 kbps avg, 0.256 bit/pixel
Аудио: 48 kHz, AC3 Dolby Digital, 3/2 (L,C,R,l,r) + LFE ch, ~384 kbps avg
Код:
Код:
Код:
Complete name               : D:\Раздача\Исчезновение Сидни Холла (2017) BDRip_ivanes20031987.avi
Format                      : AVI
Format/Info                 : Audio Video Interleave
File size                   : 1.46 GiB
Duration                    : 2 h 0 min
Overall bit rate            : 1 737 kb/s
Writing application         : VirtualDubMod 1.5.10.3 (build 2550/release)
Writing library             : VirtualDubMod build 2550/release
Video
ID                          : 0
Format                      : MPEG-4 Visual
Format profile              : Advanced Simple@L5
Format settings, BVOP       : 1
Format settings, QPel       : No
Format settings, GMC        : No warppoints
Format settings, Matrix     : Custom
Codec ID                    : XVID
Codec ID/Hint               : XviD
Duration                    : 2 h 0 min
Bit rate                    : 1 344 kb/s
Width                       : 720 pixels
Height                      : 304 pixels
Display aspect ratio        : 2.35:1
Frame rate                  : 23.976 (24000/1001) FPS
Color space                 : YUV
Chroma subsampling          : 4:2:0
Bit depth                   : 8 bits
Scan type                   : Progressive
Compression mode            : Lossy
Bits/(Pixel*Frame)          : 0.256
Stream size                 : 1.13 GiB (77%)
Writing library             : XviD 67
Audio
ID                          : 1
Format                      : AC-3
Format/Info                 : Audio Coding 3
Format settings, Endianness : Big
Codec ID                    : 2000
Duration                    : 2 h 0 min
Bit rate mode               : Constant
Bit rate                    : 384 kb/s
Channel(s)                  : 6 channels
Channel positions           : Front: L C R, Side: L R, LFE
Sampling rate               : 48.0 kHz
Frame rate                  : 31.250 FPS (1536 SPF)
Bit depth                   : 16 bits
Compression mode            : Lossy
Stream size                 : 331 MiB (22%)
Alignment                   : Split accross interleaves
Interleave, duration        : 42  ms (1.00 video frame)
Interleave, preload duratio : 500  ms
Service kind                : Complete Main

Правила, инструкции, FAQ!!!
Торрент  Добавлен [11 июн 2018, 09:30] Скачать торрент Магнет ссылка
Скачать торрент
[ Размер 15.23 КБ / Просмотров 12 ]

Статус
Проверен 
 
Размер  1.46 ГБ
Приватный: Нет (DHT включён)
.torrent скачан  0
Как залить торрент? | Как скачать Torrent? | Ошибка в торренте? Качайте магнет  


     Отправить личное сообщение
   
Страница 1 из 1
Показать сообщения за:  Поле сортировки  
Начать новую тему Ответить на тему

   Похожие торренты   Автор   Ответы   Просмотры   Последнее сообщение 
В этой теме нет новых непрочитанных сообщений. Скачать торрент Проверен Исчезновение Сидни Холла / The Vanishing of Sidney Hall (Шон Кристенсен / Shawn Christensen) [2017, США, драма, детектив, BDRip] MVO (iTunes) + Sub (Rus, Eng) + Original Eng

в форуме Фильмы 2016-2017, Размер: 2.18 ГБ, Здоровье: 100%

Anonymous

0
35|11

11
0

11 июн 2018, 09:31

Anonymous Перейти к последнему сообщению

В этой теме нет новых непрочитанных сообщений. Скачать торрент Проверен Исчезновение Сидни Холла / The Vanishing of Sidney Hall (2017) BDRip | L2

в форуме Детективы, Размер: 1.46 ГБ, Здоровье: 100%

Гость

0
3|0

87
1

28 мар 2018, 21:07

Гость Перейти к последнему сообщению

В этой теме нет новых непрочитанных сообщений. Скачать торрент Проверен Исчезновение на 7-й улице / Vanishing on 7th Street (Брэд Андерсон / Brad Anderson) [2010, ужасы, триллер, детектив, BDRip, 480p] DUB, Original + sub (eng)

в форуме Фильмы для iPod, iPhone, iPad, Размер: 1.06 ГБ, Здоровье: 100%

Гость

0
14|4

102
0

11 май 2015, 01:32

Гость Перейти к последнему сообщению

В этой теме нет новых непрочитанных сообщений. Скачать торрент Джейн Доу: Исчезновение / Jane Doe: Vanishing act (Джеймс Э. Контнер) [2005 г., Детектив, SATRip]

в форуме Детективы, Размер: 856.22 МБ, Здоровье: 100%

Anonymous

0
15|4

257
4

10 фев 2014, 13:06

Anonymous Перейти к последнему сообщению

В этой теме нет новых непрочитанных сообщений. Скачать торрент Признайте меня виновным / Find Me Guilty (Сидни Люмет / Sidney Lumet) [2006 г., Драма, комедия, криминал, BDRip]

в форуме Драмы, Мелодрамы, Размер: 1.63 ГБ, Здоровье: 100%

Anonymous

0
1|0

19
0

02 апр 2014, 08:24

Anonymous Перейти к последнему сообщению



Сейчас этот форум просматривают: нет зарегистрированных пользователей и гости: 0


Вы не можете начинать темы
Вы не можете отвечать на сообщения
Вы не можете редактировать свои сообщения
Вы не можете удалять свои сообщения
Вы не можете добавлять вложения

Перейти:  
Ресурс не предоставляет электронные версии произведений, а занимается лишь коллекционированием и каталогизацией ссылок, присылаемых и публикуемых на форуме нашими читателями. Если вы являетесь правообладателем какого-либо представленного материала и не желаете чтобы ссылка на него находилась в нашем каталоге, свяжитесь с нами и мы незамедлительно удалим её. Файлы для обмена на трекере предоставлены пользователями сайта, и администрация не несёт ответственности за их содержание. Просьба не заливать файлы, защищенные авторскими правами, а также файлы нелегального содержания!
cron