На всех торрентах на трекере установлена скидка на скачивание в размере 100 процентов(а).
 Возможность скачивания торрента НЕ зависит от ограничений при низком ратио, низком аплоаде, требуемом ратио или требуемом аплоаде.


Начать новую тему Ответить на тему
Статистика раздачи
Размер: 2.37 ГБ | Добавлен: 23 окт 2016, 14:54 | Скачали: 3
Сидеров: 7  [0 байт/сек]    Личеров: 2  [0 байт/сек]
Пред. тема | След. тема 

Автор
Сообщение

СообщениеДобавлено: 23 окт 2016, 14:54 

Ответить с цитатой 

Insomnium & Screamer. Rock Hard Festival 2014

Жанр: Melodic death metal/Doom metal/Progressive metal/Heavy-metal
Продолжительность: 00:33:10
Год выпуска: 2014

Описание: Выступления финского melodic death metal бэнда Insomnium и шведского heavy-metal бэнда Screamer на рок фестивале Rock Hard Festival на сцене Amphitheater Gelsenkirchen в одноименном немецком городе 2014 jun07-08

Доп. информация: Собственная запись со спутникового канала WDR 2014 jun22
Down With the Sun
Revelation
Unsung
Keep on Walking
No Sleep 'til Hamilton
Rock Bottom
Screamer
Качество: HDTV 720p
Контейнер: TS
Видео кодек: H.264
Аудио кодек: AC3
Видео: Mpeg4 AVC, 1280x720, 8900 kbps, 50 fps Progressive
Аудио: AC3, 448 kbps, 48 kHz, stereo
Аудио 2: MP2, 192 kbps, 48 kHz, stereo
Аудио 3: MP2, 192 kbps, 48 kHz, stereo
Код:
General
ID                                       : 0 (0x0)
Complete name                            : D:\Downloads\Insomnium & Screamer. Rock Hard Festival 2014.ts
Format                                   : MPEG-TS
File size                                : 2.37 GiB
Duration                                 : 33mn 10s
Overall bit rate mode                    : Variable
Overall bit rate                         : 10.2 Mbps

Video
ID                                       : 301 (0x12D)
Menu ID                                  : 1 (0x1)
Format                                   : AVC
Format/Info                              : Advanced Video Codec
Format profile                           : High@L4.0
Format settings, CABAC                   : Yes
Format settings, ReFrames                : 4 frames
Format settings, GOP                     : M=6, N=32
Codec ID                                 : 27
Duration                                 : 33mn 10s
Bit rate                                 : 8 896 Kbps
Width                                    : 1 280 pixels
Height                                   : 720 pixels
Display aspect ratio                     : 16:9
Frame rate                               : 50.000 fps
Color space                              : YUV
Chroma subsampling                       : 4:2:0
Bit depth                                : 8 bits
Scan type                                : Progressive
Bits/(Pixel*Frame)                       : 0.193
Stream size                              : 2.06 GiB (87%)

Audio #1
ID                                       : 302 (0x12E)
Menu ID                                  : 1 (0x1)
Format                                   : AC-3
Format/Info                              : Audio Coding 3
Mode extension                           : CM (complete main)
Format settings, Endianness              : Big
Codec ID                                 : 129
Duration                                 : 33mn 10s
Bit rate mode                            : Constant
Bit rate                                 : 448 Kbps
Channel(s)                               : 2 channels
Channel positions                        : Front: L R
Sampling rate                            : 48.0 KHz
Bit depth                                : 16 bits
Compression mode                         : Lossy
Stream size                              : 106 MiB (4%)

Audio #2
ID                                       : 303 (0x12F)
Menu ID                                  : 1 (0x1)
Format                                   : MPEG Audio
Format version                           : Version 1
Format profile                           : Layer 2
Codec ID                                 : 3
Duration                                 : 33mn 10s
Bit rate mode                            : Constant
Bit rate                                 : 192 Kbps
Channel(s)                               : 2 channels
Sampling rate                            : 48.0 KHz
Compression mode                         : Lossy
Stream size                              : 45.6 MiB (2%)

Audio #3
ID                                       : 304 (0x130)
Menu ID                                  : 1 (0x1)
Format                                   : MPEG Audio
Format version                           : Version 1
Format profile                           : Layer 2
Codec ID                                 : 3
Duration                                 : 33mn 10s
Bit rate mode                            : Constant
Bit rate                                 : 192 Kbps
Channel(s)                               : 2 channels
Sampling rate                            : 48.0 KHz
Compression mode                         : Lossy
Stream size                              : 45.6 MiB (2%)
загрузка...
Правила, инструкции, FAQ!!!
Торрент  Добавлен [23 окт 2016, 14:54] Скачать торрент Магнет ссылка
Скачать торрент
[ Размер 12.34 КБ / Просмотров 121 ]

Статус
Проверен 
 
Размер  2.37 ГБ
Приватный: Нет (DHT включён)
.torrent скачан  3
Как залить торрент? | Как скачать Torrent? | Ошибка в торренте? Качайте магнет  


     Отправить личное сообщение
   
Страница 1 из 1
Показать сообщения за:  Поле сортировки  
Начать новую тему Ответить на тему

   Похожие торренты   Автор   Ответы   Просмотры   Последнее сообщение 
В этой теме нет новых непрочитанных сообщений. Скачать торрент Проверен Orphaned Land. Rock Hard Festival 2014 [2014, Folk metal/Oriental metal/Progressive Metal/Death-Doom, HDTV 720p]

в форуме Концерты (HD-Video), Размер: 1.49 ГБ, Здоровье: 100%

Anonymous

0
5|2

74
2

23 окт 2016, 11:15

Anonymous Перейти к последнему сообщению

В этой теме нет новых непрочитанных сообщений. Скачать торрент Проверен Kvelertak & Heaven Shall Burn - Rock am Ring 2014 [2014, Hardcore punk/Black metal/Hard rock/Heavy metal/Death metal/Metalcore/Deathcore/Melodic death metal, HDTV 720p]

в форуме Концерты (HD-Video), Размер: 6.12 ГБ, Здоровье: 100%

Anonymous

0
2|0

120
0

23 окт 2016, 12:38

Anonymous Перейти к последнему сообщению

В этой теме нет новых непрочитанных сообщений. Скачать торрент Проверен Triptykon. Rock Hard Festival 2014 [2014, Doom metal/Black metal/Avant-garde metal, HDTV 720p]

в форуме Концерты (HD-Video), Размер: 2.71 ГБ, Здоровье: 100%

Anonymous

0
8|1

58
2

23 окт 2016, 14:46

Anonymous Перейти к последнему сообщению

В этой теме нет новых непрочитанных сообщений. Скачать торрент Проверен Sacred Reich - Rock Hard Festival 2014 [2014, Thrash metal/Groove metal/Heavy metal, HDTV 720p]

в форуме Концерты (HD-Video), Размер: 2.83 ГБ, Здоровье: 80%

Anonymous

0
4|5

143
0

26 апр 2015, 22:40

Anonymous Перейти к последнему сообщению

В этой теме нет новых непрочитанных сообщений. Скачать торрент Проверен Annihilator. Rock Hard Festival 2014 [2014, Thrash metal/Speed metal/Progressive metal, HDTV 720p]

в форуме Концерты (HD-Video), Размер: 1.94 ГБ, Здоровье: 26%

Anonymous

0
4|15

79
2

23 окт 2016, 16:32

Anonymous Перейти к последнему сообщению



Сейчас этот форум просматривают: нет зарегистрированных пользователей и гости: 1


Вы не можете начинать темы
Вы не можете отвечать на сообщения
Вы не можете редактировать свои сообщения
Вы не можете удалять свои сообщения
Вы не можете добавлять вложения

Перейти:  
Ресурс не предоставляет электронные версии произведений, а занимается лишь коллекционированием и каталогизацией ссылок, присылаемых и публикуемых на форуме нашими читателями. Если вы являетесь правообладателем какого-либо представленного материала и не желаете чтобы ссылка на него находилась в нашем каталоге, свяжитесь с нами и мы незамедлительно удалим её. Файлы для обмена на трекере предоставлены пользователями сайта, и администрация не несёт ответственности за их содержание. Просьба не заливать файлы, защищенные авторскими правами, а также файлы нелегального содержания!
cron