На всех торрентах на трекере установлена скидка на скачивание в размере 100 процентов(а).
 Возможность скачивания торрента НЕ зависит от ограничений при низком ратио, низком аплоаде, требуемом ратио или требуемом аплоаде.


Начать новую тему Ответить на тему
Статистика раздачи
Размер: 1.9 ГБ | Добавлен: 17 мар 2013, 22:39 | Скачали: 0
Сидеров: 0  [0 байт/сек]    Личеров: 0  [0 байт/сек]
Пред. тема | След. тема 

Автор
Сообщение

СообщениеДобавлено: 17 мар 2013, 22:39 

Ответить с цитатой 

Название: Инкассатор
Оригинальное название: Armored
Год выхода: 2009
Жанр: Боевик, криминал
Режиссер: Нимрод Антал

В фильме снимались: Жан Рено, Мэтт Диллон, Лоуренс Фишборн, Амори Ноласко, Фред Уорд, Майло Вентимилья, Скит Ульрих, Коламбус Шорт, Андре Кинни, Эндрю Фисцелла

Вкратце: Тай Хэккет, участник боевых действий в Ираке, возвращается после службы домой, ему нужны средства к существованию и он ищет работу, также Тай должен заботиться о младшем брате. Он находит работу инкассатора, в это время брата собираются забрать в приют, так как по мнению органов опёки, мальчик нуждается в лучшей заботе. Старый друг семьи Майк предлагает украсть перевозимые деньги, Хэккет после долгих сомнений соглашается , но без жертв и трупов, однако всё пошло не так и теперь Тай старается предотвратить кражу денег и исключить новые жертвы. Начинается борьба одного ветерана против нескольких убийц…




Страна: США, Buckaroo Entertainment
Продолжительность: 01:27:53
Перевод: Профессиональный многоголосый
Субтитры: Русские, английские
Дата релиза: 17.03.2013

Формат: mkv
Кодек: H.264
Качество: BDRip (AVC) (Blu-Ray Remux (1080p))
Видео: MPEG-4 AVC, 2199 Кбит/с, 1024x426
Звук: Русский, английский (AC3, 6 ch, 448 Кбит/с)
Общее
Уникальный идентификатор : 197473873683278384651895951908702020754 (0x949015AC05496CF3B46EF0563F506492)
Полное имя : D:1Inkassator.2009.x264.BDRip.(AVC).ExKinoRay.mkv
Формат : Matroska
Размер файла : 1,90 Гбайт
Продолжительность : 1 ч. 27 м.
Общий поток : 3097 Кбит/сек
Название фильма : Inkassator.2009.x264.BDRip.(AVC).ExKinoRay
Дата кодирования : UTC 2013-03-17 15:29:48
Программа кодирования : mkvmerge v4.0.0 ('The Stars were mine') сборка от Jun 6 2010 16:18:42
Библиотека кодирования : libebml v1.0.0 + libmatroska v1.0.0

Видео
Идентификатор : 1
Формат : AVC
Формат/Информация : Advanced Video Codec
Профиль формата : High@L4.1
Параметр CABAC формата : Да
Параметр ReFrames формата : 8 кадров
Идентификатор кодека : V_MPEG4/ISO/AVC
Продолжительность : 1 ч. 27 м.
Битрейт : 2199 Кбит/сек
Ширина : 1024 пикс.
Высота : 426 пикс.
Соотношение сторон : 2,40:1
Частота кадров : 23,976 кадр/сек
Цветовое пространство : YUV
Подвыборка цветности : 4:2:0
Битовая глубина : 8 бит
Тип развёртки : Прогрессивная
Бит/(Пиксели*Кадры) : 0.210
Размер потока : 1,31 Гбайт (69%)
Заголовок : Rip by Enigma-Vladislav71
Библиотека кодирования : x264 core 129 r2245 bc13772
Настройки программы : cabac=1 / ref=8 / deblock=1:-2:-2 / analyse=0x3:0x133 / me=umh / subme=11 / psy=1 / psy_rd=1.00:0.00 / mixed_ref=1 / me_range=48 / chroma_me=1 / trellis=2 / 8x8dct=1 / cqm=0 / deadzone=21,11 / fast_pskip=0 / chroma_qp_offset=-2 / threads=3 / lookahead_threads=1 / sliced_threads=0 / nr=0 / decimate=0 / interlaced=0 / bluray_compat=0 / constrained_intra=0 / bframes=8 / b_pyramid=2 / b_adapt=2 / b_bias=0 / direct=3 / weightb=1 / open_gop=0 / weightp=2 / keyint=240 / keyint_min=23 / scenecut=40 / intra_refresh=0 / rc_lookahead=40 / rc=2pass / mbtree=1 / bitrate=2199 / ratetol=1.0 / qcomp=0.60 / qpmin=10 / qpmax=51 / qpstep=4 / cplxblur=20.0 / qblur=0.5 / ip_ratio=1.40 / aq=2:1.00
Язык : English

Аудио #1
Идентификатор : 2
Формат : AC-3
Формат/Информация : Audio Coding 3
Расширение режима : CM (complete main)
Идентификатор кодека : A_AC3
Продолжительность : 1 ч. 27 м.
Вид битрейта : Постоянный
Битрейт : 448 Кбит/сек
Каналы : 6 каналов
Расположение каналов : Front: L C R, Side: L R, LFE
Частота : 48,0 КГц
Битовая глубина : 16 бит
Метод сжатия : С потерями
Размер потока : 282 Мбайт (14%)
Язык : Russian

Аудио #2
Идентификатор : 3
Формат : AC-3
Формат/Информация : Audio Coding 3
Расширение режима : CM (complete main)
Идентификатор кодека : A_AC3
Продолжительность : 1 ч. 27 м.
Вид битрейта : Постоянный
Битрейт : 448 Кбит/сек
Каналы : 6 каналов
Расположение каналов : Front: L C R, Side: L R, LFE
Частота : 48,0 КГц
Битовая глубина : 16 бит
Метод сжатия : С потерями
Размер потока : 282 Мбайт (14%)
Язык : English

Текст #1
Идентификатор : 4
Формат : UTF-8
Идентификатор кодека : S_TEXT/UTF8
Идентификатор кодека/Информация : UTF-8 Plain Text
Язык : Russian

Текст #2
Идентификатор : 5
Формат : UTF-8
Идентификатор кодека : S_TEXT/UTF8
Идентификатор кодека/Информация : UTF-8 Plain Text
Язык : English

Меню
00:00:00.000 : en:01
00:05:03.135 : en:02
00:12:45.513 : en:03
00:18:42.037 : en:04
00:21:11.269 : en:05
00:27:07.083 : en:06
00:33:28.965 : en:07
00:40:50.447 : en:08
00:47:17.208 : en:09
00:52:54.504 : en:10
00:58:24.876 : en:11
01:02:26.993 : en:12
01:07:37.511 : en:13
01:13:15.349 : en:14
01:17:38.153 : en:15
01:21:42.354 : en:16




загрузка...
Правила, инструкции, FAQ!!!
Торрент  Добавлен [17 мар 2013, 22:39] Скачать торрент
Скачать торрент
[ Размер 19.58 КБ / Просмотров 12 ]

Статус  
 
Размер  1.9 ГБ
Приватный: Нет (DHT включён)
.torrent скачан  0
Как залить торрент? | Как скачать Torrent? | Как смотреть и слушать онлайн?  


     Отправить личное сообщение
   
Страница 1 из 1
Показать сообщения за:  Поле сортировки  
Начать новую тему Ответить на тему

   Похожие торренты   Автор   Ответы   Просмотры   Последнее сообщение 
В этой теме нет новых непрочитанных сообщений. Скачать торрент Проверен [iPod] Инкассатор / Armored (Нимрод Антал / Nimrod Antal) [2009 г., Боевик, триллер, драма, DVDRip]

в форуме Фильмы для iPod, iPhone, iPad, Размер: 411.59 МБ, Здоровье: 100%

Anonymous

0
1|0

31
0

11 май 2015, 01:30

Anonymous Перейти к последнему сообщению

В этой теме нет новых непрочитанных сообщений. Скачать торрент Проверен Metallica: Сквозь невозможное / Metallica: Through the Never (Нимрод Антал / Nimrod Antal) [2013, США, Thrash Metal, BDRip 720p]

в форуме Концерты (HD-Video), Размер: 6.92 ГБ, Здоровье: 100%

Anonymous

0
58|12

122
11

03 май 2015, 22:14

Anonymous Перейти к последнему сообщению

В этой теме нет новых непрочитанных сообщений. Скачать торрент Проверен [iPad] Форсаж 4 / Fast & Furious (Джастин Лин / Justin Lin) [2009 г., боевик, триллер, драма, криминал, BDRip]

в форуме Фильмы для iPod, iPhone, iPad, Размер: 2.89 ГБ, Здоровье: 100%

Гость

0
23|8

81
0

11 май 2015, 01:31

Гость Перейти к последнему сообщению

В этой теме нет новых непрочитанных сообщений. Скачать торрент Проверен Бугай 3Д / Boogie, el aceitoso 3D (Густаво Кова / Gustavo Cova) [2009, мультфильм, боевик, криминал, BDrip-AVC] Half OverUnder / Вертикальная анаморфная стереопара

в форуме 3D Мультфильмы, Размер: 5.42 ГБ, Здоровье: 0%

Anonymous

0
0|0

14
0

07 сен 2016, 17:34

Anonymous Перейти к последнему сообщению

В этой теме нет новых непрочитанных сообщений. Скачать торрент Проверен Бугай 3Д / Boogie, el aceitoso 3D (Густаво Кова / Gustavo Cova) [2009, Мексика, Аргентина, мультфильм, боевик, криминал, BDrip-AVC] Half SideBySide / Горизонтальная анаморфная стереопара

в форуме 3D Мультфильмы, Размер: 5.84 ГБ, Здоровье: 0%

Anonymous

0
0|0

8
0

07 сен 2016, 18:17

Anonymous Перейти к последнему сообщению



Сейчас этот форум просматривают: нет зарегистрированных пользователей и гости: 1


Вы не можете начинать темы
Вы не можете отвечать на сообщения
Вы не можете редактировать свои сообщения
Вы не можете удалять свои сообщения
Вы не можете добавлять вложения

Перейти:  

!ВНИМАНИЕ!
 Ресурс не предоставляет электронные версии произведений, а занимается лишь коллекционированием и каталогизацией ссылок, присылаемых и публикуемых на форуме нашими читателями. Если вы являетесь правообладателем какого-либо представленного материала и не желаете чтобы ссылка на него находилась в нашем каталоге, свяжитесь с нами и мы незамедлительно удалим её. Файлы для обмена на трекере предоставлены пользователями сайта, и администрация не несёт ответственности за их содержание. Просьба не заливать файлы, защищенные авторскими правами, а также файлы нелегального содержания!