На всех торрентах на трекере установлена скидка на скачивание в размере 100 процентов(а).
 Возможность скачивания торрента НЕ зависит от ограничений при низком ратио, низком аплоаде, требуемом ратио или требуемом аплоаде.


Начать новую тему Ответить на тему
Статистика раздачи
Размер: 3.05 ГБ | Добавлен: 15 май 2018, 07:31 | Скачали: 4
Сидеров: 275  [0 байт/сек]    Личеров: 34  [0 байт/сек]
Пред. тема | След. тема 

Автор
Сообщение

СообщениеДобавлено: 14 окт 2017, 17:10 

Ответить с цитатой 

Игорь Тальков - Дискография (1984-1991)

Жанр: Авторская песня
Год издания: 2001

Кодек: FLAC

Продолжительность: 07:39:14

CD1: Родина моя 01:01:49
CD2: Сцена 00:59:04
CD3: Призвание 01:00:32
CD4: Этот мир 00:56:36
CD5: Моя любовь (Часть I) 00:40:11
CD6: Моя любовь (Часть II) 00:53:19
CD7: Суд (Часть I) 00:56:31
CD8: Суд (Часть II) 01:11:08

Ремастеринг изданных ранее записей, вышедший в 2001 году


#777Тальков Игорь Владимирович родился 4 ноября 1956 года. Родители Игоря были репресссированы и познакомились в зоне, а брат Игоря - Владимир вообще там и родился. После освобождения отцу Игоря восстанавливали прописку в Москве, но жилья не предоставляли и поэтому Игорь вырос в подмосковном Щекино...

В 1975 году, когда Игорю было 18 лет, на площади в Туле он высказал все что думает о Брежневе. Его затаскали по разным инстанциям, КГБ, собирались посадить. Выручил его друг Анатолий Кондратьев, известный велогонщик, очень популярный в то время в Туле. Игорь играл с ним вместе в одной группе. Удалось избежать суда, потом Талькова отправили в армию, где он служил в стройбате, в подмосковном Нахабине Красногорского р-на.

В 1980 году в Москве Игоря пригласил выступить на дискотеке директор клуба "Найка" после той дискотеки к Игорю подбежал директор клуба совершенно бледный, и начал лепетать: "Что ты наделал! Ты соображаешь что ты спел? Ну ты меня убил!" Больше до 1987 года у Игоря не было возможности публично выступать и только после песни "Чистые пруды" Талькову дали сцену.

Игорь собирает аудиторию под "Чистые пруды", а поет свои остро социальные песни.

Он становиться известным и очень популярным в народе. Его творчество вызывает самые разные эмоции - радость, печаль, негодование, но никогда - равнодушие. В его песнях - боль за униженную гордость народа, страдания человека, осознающего глубину трагедии своей земли. И отсюда, возможно, сценический образ только что вернувшегося с поля боя, понесшего огромные потери, но не покоренного русского воина-защитника...Однако его социальные песни тогда (как и сейчас) редко можно было увидеть по ЦТ.

Тальков снимается в фильмах "Князь Серебряный" и "За последней чертой", где играет, как ни странно предводителя банды рэкетиров. Интересная деталь, по сюжету главный герой - бывший боксер Дремов (Е.Сидихин) в конце фильма врывается на бандитскую "малину" и расстреливает в упор всех своих обидчиков, в том числе и Талькова. Этот сюжет снимался 6 октября 1990 года, а ровно через год 6 октября 1991 года Игоря убивают по-настоящему. (Кстати, съемочная команда пораженная этим фактом, сняла продолжения фильма, который называется "Операция "Люцифер".) Брат Талькова Владимир снимается в фильмах "За последней чертой" и в фильме "Охота на сутенера", в котором также звучат песни Талькова "Спасательный круг", "Фатальная колесница"...

Но звездный час Талькова так и не настал, он был убит в момент "прыжка с трамплина".

6 октября 1991 года шоу-бизнесмен Сергей Лисовский устраивает концерт в питерском дворце "Юбилейный". Перед представлением к Талькову зашел телохранитель Азизы Малахов и попросил Талькова выступить после Азизы. Певец не согласился. Завязалась драка, оба достали газовые пистолеты, вывалились в коридор. Здесь Талькова ждал кто-то третий. Одним профессиональным выстрелом Игорь был смертельно ранен. Трагедию наблюдала целая толпа его коллег: Андрей Державин, Олег Газманов, Михаил Муромов, дуэт "Академия". Малахов ударился в бега, но его быстро поймали, но доказать ничего не смогли и так же быстро отпустили.

Каким-то образом подозрение пало на директора Талькова-Валерия Шляйфмана. Благо, Шляйфман бросив жену благополучно улизнул в Израиль. Дело застряло. Некоторые политические организации объявили во всем мировое масонство, сравнив убийство Талькова с убийством Есенина. Похоже, что следователей такая версия вполне устраивает.

В музыкальной тусовке сегодня все чаще склоняются к мысли что Игоря убрал человек из КГБ. Тому несколько подтверждений. Вскоре после убийства один высокий чин с Лубянки хвалился в узком кругу, что его повысили в звании именно за эту операцию. Но интересно и то, что с КГБ был плотно завязан и Малахов. Он занимался кикбоксингом на Малой Бронной, где в обычной школе возле кафе "Три цапли" арендовали зал офицеры 9-го управления КГБ. А человеком из КГБ во дворце спорта мог быть кто угодно, даже обыкновенный осветитель. Есть информация, что ореховский авторитет Сергей Тимофеев (Сильвестр) обещал наказать виновных. Наказать не успел: случилась его странная смерть в шестисотом мерседесе, говорят он хотел забрать свои деньги из AWWA...
Треклист:
#7771. Родина моя
2. Россия
3. Бывший подъесаул
4. Господа - демократы
5. КПСС
6. Война
7. Дядя
8. Бал сатаны
9. Я вернусь
10. Господин президент
11. Бывший подъесаул (первый вариант фонограммы)
12. Родина моя (записано на концерте в ДК МИСИС)
Exact Audio Copy V0.99 prebeta 4 from 23. January 2008

Отчёт EAC об извлечении, выполненном 2. марта 2009, 3:30

Игорь Тальков / Родина моя

Дисковод: PLEXTOR CD-R PX-W5224A Adapter: 1 ID: 0

Режим чтения : Достоверность
Использование точного потока : Да
Отключение кэша аудио : Да
Использование указателей C2 : Нет

Коррекция смещения при чтении : 30
Способность читать области Lead-in и Lead-out : Нет
Заполнение пропущенных сэмплов тишиной : Да
Удаление блоков с тишиной в начале и конце : Нет
При вычислениях CRC использовались нулевые сэмплы : Да
Интерфейс : Встроенный Win32-интерфейс для Win NT/2000

Выходной формат : Внутренние WAV-операции
Формат сэмплов : 44.100 Гц; 16 бит; стерео

TOC извлечённого CD

Трек | Старт | Длительность | Начальный сектор | Конечный сектор
---------------------------------------------------------------------
1 | 0:00.00 | 6:53.62 | 0 | 31036
2 | 6:53.62 | 7:15.44 | 31037 | 63705
3 | 14:09.31 | 6:00.26 | 63706 | 90731
4 | 20:09.57 | 3:51.07 | 90732 | 108063
5 | 24:00.64 | 3:45.08 | 108064 | 124946
6 | 27:45.72 | 3:51.52 | 124947 | 142323
7 | 31:37.49 | 5:07.67 | 142324 | 165415
8 | 36:45.41 | 4:54.13 | 165416 | 187478
9 | 41:39.54 | 6:22.01 | 187479 | 216129
10 | 48:01.55 | 3:46.01 | 216130 | 233080
11 | 51:47.56 | 5:43.36 | 233081 | 258841
12 | 57:31.17 | 4:18.10 | 258842 | 278201

Характеристики диапазона извлечения и сообщения об ошибках

Выбранный диапазон

Имя файла C:\Игорь Тальков\Таль\Родина моя\Игорь Тальков - Родина моя.wav

Пиковый уровень 98.8 %
Качество диапазона 100.0 %
CRC копии F5FCC0BE
Копирование... OK

Ошибок не произошло

Конец отчёта
AUDIOCHECKER v1.2 - by Dester -
~~~~~~~~~~~~~~~~~

01 -===- D:\My3a4ka\Игорь Тальков - Дискография (2001) [flac]\1. Родина моя\(01) [Игорь Тальков] Родина моя.flac
Extracted successfully
Conclusion: This track looks like CDDA with probability 100%

02 -===- D:\My3a4ka\Игорь Тальков - Дискография (2001) [flac]\1. Родина моя\(02) [Игорь Тальков] Россия.flac
Extracted successfully
Conclusion: This track looks like CDDA with probability 100%

03 -===- D:\My3a4ka\Игорь Тальков - Дискография (2001) [flac]\1. Родина моя\(03) [Игорь Тальков] Бывший подъесаул.flac
Extracted successfully
Conclusion: This track looks like CDDA with probability 99%

04 -===- D:\My3a4ka\Игорь Тальков - Дискография (2001) [flac]\1. Родина моя\(04) [Игорь Тальков] Господа - демократы.flac
Extracted successfully
Conclusion: This track looks like CDDA with probability 100%

05 -===- D:\My3a4ka\Игорь Тальков - Дискография (2001) [flac]\1. Родина моя\(05) [Игорь Тальков] КПСС.flac
Extracted successfully
Conclusion: This track looks like CDDA with probability 100%

06 -===- D:\My3a4ka\Игорь Тальков - Дискография (2001) [flac]\1. Родина моя\(06) [Игорь Тальков] Война.flac
Extracted successfully
Conclusion: This track looks like CDDA with probability 100%

07 -===- D:\My3a4ka\Игорь Тальков - Дискография (2001) [flac]\1. Родина моя\(07) [Игорь Тальков] Дядя.flac
Extracted successfully
Conclusion: This track looks like CDDA with probability 100%

08 -===- D:\My3a4ka\Игорь Тальков - Дискография (2001) [flac]\1. Родина моя\(08) [Игорь Тальков] Бал сатаны.flac
Extracted successfully
Conclusion: This track looks like CDDA with probability 100%

09 -===- D:\My3a4ka\Игорь Тальков - Дискография (2001) [flac]\1. Родина моя\(09) [Игорь Тальков] Я вернусь.flac
Extracted successfully
Conclusion: This track looks like CDDA with probability 100%

10 -===- D:\My3a4ka\Игорь Тальков - Дискография (2001) [flac]\1. Родина моя\(10) [Игорь Тальков] Господин президент.flac
Extracted successfully
Conclusion: This track looks like CDDA with probability 99%

11 -===- D:\My3a4ka\Игорь Тальков - Дискография (2001) [flac]\1. Родина моя\(11) [Игорь Тальков] Бывший подъесаул (первый вариант фонограммы).flac
Extracted successfully
Conclusion: This track looks like CDDA with probability 99%

12 -===- D:\My3a4ka\Игорь Тальков - Дискография (2001) [flac]\1. Родина моя\(12) [Игорь Тальков] Родина моя (концертная запись).flac
Extracted successfully
Conclusion: This track looks like CDDA with probability 100%
#7771. Сцена
2. Люди с забинтованными лбами
3. Метаморфоза - 1
4. Век Мамай
5. Совки
6. Стоп!.. Думаю себе!
7. Кремлевская стена
8. Метаморфоза - 2
9. Глобус
10. Баллада об афганце (концертный вариант)
11. Памяти В.Цоя
12. Этот путь (инструментальная пьеса)
13. Собрание в ЖЭКе (записано на концерте в ДК МИСИС)
14. Сцена (записано на концерте в ДК МИСИС)
Exact Audio Copy V0.99 prebeta 4 from 23. January 2008

Отчёт EAC об извлечении, выполненном 2. марта 2009, 1:59

Игорь Тальков / Сцена

Дисковод: PLEXTOR CD-R PX-W5224A Adapter: 1 ID: 0

Режим чтения : Достоверность
Использование точного потока : Да
Отключение кэша аудио : Да
Использование указателей C2 : Нет

Коррекция смещения при чтении : 30
Способность читать области Lead-in и Lead-out : Нет
Заполнение пропущенных сэмплов тишиной : Да
Удаление блоков с тишиной в начале и конце : Нет
При вычислениях CRC использовались нулевые сэмплы : Да
Интерфейс : Встроенный Win32-интерфейс для Win NT/2000

Выходной формат : Внутренние WAV-операции
Формат сэмплов : 44.100 Гц; 16 бит; стерео

TOC извлечённого CD

Трек | Старт | Длительность | Начальный сектор | Конечный сектор
---------------------------------------------------------------------
1 | 0:00.00 | 3:50.30 | 0 | 17279
2 | 3:50.30 | 6:19.39 | 17280 | 45743
3 | 10:09.69 | 3:42.05 | 45744 | 62398
4 | 13:51.74 | 3:36.08 | 62399 | 78606
5 | 17:28.07 | 3:17.29 | 78607 | 93410
6 | 20:45.36 | 3:16.50 | 93411 | 108160
7 | 24:02.11 | 2:38.66 | 108161 | 120076
8 | 26:41.02 | 3:43.39 | 120077 | 136840
9 | 30:24.41 | 6:56.00 | 136841 | 168040
10 | 37:20.41 | 3:39.09 | 168041 | 184474
11 | 40:59.50 | 5:00.56 | 184475 | 207030
12 | 46:00.31 | 3:35.31 | 207031 | 223186
13 | 49:35.62 | 6:42.67 | 223187 | 253403
14 | 56:18.54 | 2:46.13 | 253404 | 265866

Характеристики диапазона извлечения и сообщения об ошибках

Выбранный диапазон

Имя файла C:\Игорь Тальков\Таль\Сцена\Игорь Тальков - Сцена.wav

Пиковый уровень 100.0 %
Качество диапазона 100.0 %
CRC копии 41C8E5EB
Копирование... OK

Ошибок не произошло

Конец отчёта
AUDIOCHECKER v1.2 - by Dester -
~~~~~~~~~~~~~~~~~

01 -===- D:\My3a4ka\Игорь Тальков - Дискография (2001) [flac]\2. Сцена\(01) [Игорь Тальков] Сцена.flac
Extracted successfully
Conclusion: This track looks like CDDA with probability 100%

02 -===- D:\My3a4ka\Игорь Тальков - Дискография (2001) [flac]\2. Сцена\(02) [Игорь Тальков] Люди с забинтованными лбами.flac
Extracted successfully
Conclusion: This track looks like CDDA with probability 100%

03 -===- D:\My3a4ka\Игорь Тальков - Дискография (2001) [flac]\2. Сцена\(03) [Игорь Тальков] Метаморфоза-1.flac
Extracted successfully
Conclusion: This track looks like CDDA with probability 100%

04 -===- D:\My3a4ka\Игорь Тальков - Дискография (2001) [flac]\2. Сцена\(04) [Игорь Тальков] Век Мамай.flac
Extracted successfully
Conclusion: This track looks like CDDA with probability 100%

05 -===- D:\My3a4ka\Игорь Тальков - Дискография (2001) [flac]\2. Сцена\(05) [Игорь Тальков] Совки.flac
Extracted successfully
Conclusion: This track looks like CDDA with probability 100%

06 -===- D:\My3a4ka\Игорь Тальков - Дискография (2001) [flac]\2. Сцена\(06) [Игорь Тальков] Стоп!..Думай себе!.flac
Extracted successfully
Conclusion: This track looks like CDDA with probability 100%

07 -===- D:\My3a4ka\Игорь Тальков - Дискография (2001) [flac]\2. Сцена\(07) [Игорь Тальков] Кремлёвская стена.flac
Extracted successfully
Conclusion: This track looks like CDDA with probability 99%

08 -===- D:\My3a4ka\Игорь Тальков - Дискография (2001) [flac]\2. Сцена\(08) [Игорь Тальков] Метоморфоза-2.flac
Extracted successfully
Conclusion: This track looks like CDDA with probability 99%

09 -===- D:\My3a4ka\Игорь Тальков - Дискография (2001) [flac]\2. Сцена\(09) [Игорь Тальков] Глобус.flac
Extracted successfully
Conclusion: This track looks like CDDA with probability 99%

10 -===- D:\My3a4ka\Игорь Тальков - Дискография (2001) [flac]\2. Сцена\(10) [Игорь Тальков] Баллада об афганце (концертная запись).flac
Extracted successfully
Conclusion: This track looks like CDDA with probability 58%

11 -===- D:\My3a4ka\Игорь Тальков - Дискография (2001) [flac]\2. Сцена\(11) [Игорь Тальков] Памяти Виктора Цоя.flac
Extracted successfully
Conclusion: This track looks like CDDA with probability 100%

12 -===- D:\My3a4ka\Игорь Тальков - Дискография (2001) [flac]\2. Сцена\(12) [Игорь Тальков] Этот путь (инструментал).flac
Extracted successfully
Conclusion: This track looks like CDDA with probability 100%

13 -===- D:\My3a4ka\Игорь Тальков - Дискография (2001) [flac]\2. Сцена\(13) [Игорь Тальков] Собрание в ЖЭКе (концертная запись).flac
Extracted successfully
Conclusion: This track looks like CDDA with probability 100%

14 -===- D:\My3a4ka\Игорь Тальков - Дискография (2001) [flac]\2. Сцена\(14) [Игорь Тальков] Сцена (концертная запись).flac
Extracted successfully
Conclusion: This track looks like CDDA with probability 99%
#7771. Чистые пруды
2. Маленький город
3. Рыжий
4. Мой брат
5. Призвание
6. Примерный мальчик
7. Друзья-товарищи
8. Чудак
9. Поздно
10. В океане непонимания
11. Гармония
12. Этот путь
13. Посвящение И.Саруханову (Музыкальное послание на вечер
"И.Саруханов приглашает друзей" в Олимпийской деревне)
Exact Audio Copy V0.99 prebeta 4 from 23. January 2008

Отчёт EAC об извлечении, выполненном 2. марта 2009, 1:45

Игорь Тальков / Призвание

Дисковод: PLEXTOR CD-R PX-W5224A Adapter: 1 ID: 0

Режим чтения : Достоверность
Использование точного потока : Да
Отключение кэша аудио : Да
Использование указателей C2 : Нет

Коррекция смещения при чтении : 30
Способность читать области Lead-in и Lead-out : Нет
Заполнение пропущенных сэмплов тишиной : Да
Удаление блоков с тишиной в начале и конце : Нет
При вычислениях CRC использовались нулевые сэмплы : Да
Интерфейс : Встроенный Win32-интерфейс для Win NT/2000

Выходной формат : Внутренние WAV-операции
Формат сэмплов : 44.100 Гц; 16 бит; стерео

TOC извлечённого CD

Трек | Старт | Длительность | Начальный сектор | Конечный сектор
---------------------------------------------------------------------
1 | 0:00.00 | 5:44.45 | 0 | 25844
2 | 5:44.45 | 5:02.26 | 25845 | 48520
3 | 10:46.71 | 5:16.19 | 48521 | 72239
4 | 16:03.15 | 5:17.01 | 72240 | 96015
5 | 21:20.16 | 6:50.71 | 96016 | 126836
6 | 28:11.12 | 3:20.14 | 126837 | 141850
7 | 31:31.26 | 3:19.56 | 141851 | 156831
8 | 34:51.07 | 5:38.53 | 156832 | 182234
9 | 40:29.60 | 4:06.18 | 182235 | 200702
10 | 44:36.03 | 3:55.12 | 200703 | 218339
11 | 48:31.15 | 4:41.46 | 218340 | 239460
12 | 53:12.61 | 5:48.08 | 239461 | 265568
13 | 59:00.69 | 1:31.41 | 265569 | 272434

Характеристики диапазона извлечения и сообщения об ошибках

Выбранный диапазон

Имя файла C:\Игорь Тальков\Таль\Призвание\Игорь Тальков - Призвание.wav

Пиковый уровень 99.9 %
Качество диапазона 99.9 %
CRC копии D1BD108F
Копирование... OK

Ошибок не произошло

Конец отчёта
AUDIOCHECKER v1.2 - by Dester -
~~~~~~~~~~~~~~~~~

01 -===- D:\My3a4ka\Игорь Тальков - Дискография (2001) [flac]\3. Призвание\(01) [Игорь Тальков] Чистые пруды.flac
Extracted successfully
Conclusion: This track looks like CDDA with probability 100%

02 -===- D:\My3a4ka\Игорь Тальков - Дискография (2001) [flac]\3. Призвание\(02) [Игорь Тальков] Маленький город.flac
Extracted successfully
Conclusion: This track looks like CDDA with probability 100%

03 -===- D:\My3a4ka\Игорь Тальков - Дискография (2001) [flac]\3. Призвание\(03) [Игорь Тальков] Рыжий.flac
Extracted successfully
Conclusion: This track looks like CDDA with probability 100%

04 -===- D:\My3a4ka\Игорь Тальков - Дискография (2001) [flac]\3. Призвание\(04) [Игорь Тальков] Мой брат.flac
Extracted successfully
Conclusion: This track looks like CDDA with probability 100%

05 -===- D:\My3a4ka\Игорь Тальков - Дискография (2001) [flac]\3. Призвание\(05) [Игорь Тальков] Призвание.flac
Extracted successfully
Conclusion: This track looks like CDDA with probability 100%

06 -===- D:\My3a4ka\Игорь Тальков - Дискография (2001) [flac]\3. Призвание\(06) [Игорь Тальков] Примерный мальчик.flac
Extracted successfully
Conclusion: This track looks like CDDA with probability 100%

07 -===- D:\My3a4ka\Игорь Тальков - Дискография (2001) [flac]\3. Призвание\(07) [Игорь Тальков] Друзья - товарищи.flac
Extracted successfully
Conclusion: This track looks like CDDA with probability 100%

08 -===- D:\My3a4ka\Игорь Тальков - Дискография (2001) [flac]\3. Призвание\(08) [Игорь Тальков] Чудак.flac
Extracted successfully
Conclusion: This track looks like CDDA with probability 100%

09 -===- D:\My3a4ka\Игорь Тальков - Дискография (2001) [flac]\3. Призвание\(09) [Игорь Тальков] Поздно.flac
Extracted successfully
Conclusion: This track looks like CDDA with probability 100%

10 -===- D:\My3a4ka\Игорь Тальков - Дискография (2001) [flac]\3. Призвание\(10) [Игорь Тальков] В океане непонимания.flac
Extracted successfully
Conclusion: This track looks like CDDA with probability 100%

11 -===- D:\My3a4ka\Игорь Тальков - Дискография (2001) [flac]\3. Призвание\(11) [Игорь Тальков] Гармония.flac
Extracted successfully
Conclusion: This track looks like CDDA with probability 100%

12 -===- D:\My3a4ka\Игорь Тальков - Дискография (2001) [flac]\3. Призвание\(12) [Игорь Тальков] Этот путь.flac
Extracted successfully
Conclusion: This track looks like CDDA with probability 100%

13 -===- D:\My3a4ka\Игорь Тальков - Дискография (2001) [flac]\3. Призвание\(13) [Игорь Тальков] Посвящение И.Саруханову.flac
Extracted successfully
Conclusion: This track looks like CDDA with probability 100%
#7771. Ностальгия
2. Фатальная колесница
3. Маленькая планета
4. Океан непонимания
5. Уеду!
6. Спасательный круг
7. Мистер `Х`
8. Саквояж
9. Звезда
10.Солнце уходит на запад
11.Этот мир
Exact Audio Copy V0.99 prebeta 4 from 23. January 2008

Отчёт EAC об извлечении, выполненном 2. марта 2009, 3:11

Игорь Тальков / Этот мир

Дисковод: PLEXTOR CD-R PX-W5224A Adapter: 1 ID: 0

Режим чтения : Достоверность
Использование точного потока : Да
Отключение кэша аудио : Да
Использование указателей C2 : Нет

Коррекция смещения при чтении : 30
Способность читать области Lead-in и Lead-out : Нет
Заполнение пропущенных сэмплов тишиной : Да
Удаление блоков с тишиной в начале и конце : Нет
При вычислениях CRC использовались нулевые сэмплы : Да
Интерфейс : Встроенный Win32-интерфейс для Win NT/2000

Выходной формат : Внутренние WAV-операции
Формат сэмплов : 44.100 Гц; 16 бит; стерео

TOC извлечённого CD

Трек | Старт | Длительность | Начальный сектор | Конечный сектор
---------------------------------------------------------------------
1 | 0:00.00 | 5:26.72 | 0 | 24521
2 | 5:26.72 | 6:22.07 | 24522 | 53178
3 | 11:49.04 | 4:50.72 | 53179 | 75000
4 | 16:40.01 | 4:36.43 | 75001 | 95743
5 | 21:16.44 | 4:14.03 | 95744 | 114796
6 | 25:30.47 | 4:39.70 | 114797 | 135791
7 | 30:10.42 | 4:38.06 | 135792 | 156647
8 | 34:48.48 | 3:58.27 | 156648 | 174524
9 | 38:47.00 | 6:08.45 | 174525 | 202169
10 | 44:55.45 | 7:14.55 | 202170 | 234774
11 | 52:10.25 | 4:26.49 | 234775 | 254773

Характеристики диапазона извлечения и сообщения об ошибках

Выбранный диапазон

Имя файла C:\Игорь Тальков\Таль\Этот мир\Игорь Тальков - Этот мир.wav

Пиковый уровень 98.8 %
Качество диапазона 99.9 %
CRC копии C8C73E06
Копирование... OK

Ошибок не произошло

Конец отчёта
AUDIOCHECKER v1.2 - by Dester -
~~~~~~~~~~~~~~~~~

01 -===- D:\My3a4ka\Игорь Тальков - Дискография (2001) [flac]\4. Этот мир\(01) [Игорь Тальков] Ностальгия.flac
Extracted successfully
Conclusion: This track looks like CDDA with probability 100%

02 -===- D:\My3a4ka\Игорь Тальков - Дискография (2001) [flac]\4. Этот мир\(02) [Игорь Тальков] Фатальная колесница.flac
Extracted successfully
Conclusion: This track looks like CDDA with probability 100%

03 -===- D:\My3a4ka\Игорь Тальков - Дискография (2001) [flac]\4. Этот мир\(03) [Игорь Тальков] Маленькая планета.flac
Extracted successfully
Conclusion: This track looks like CDDA with probability 100%

04 -===- D:\My3a4ka\Игорь Тальков - Дискография (2001) [flac]\4. Этот мир\(04) [Игорь Тальков] Океан непонимания.flac
Extracted successfully
Conclusion: This track looks like CDDA with probability 100%

05 -===- D:\My3a4ka\Игорь Тальков - Дискография (2001) [flac]\4. Этот мир\(05) [Игорь Тальков] Уеду!.flac
Extracted successfully
Conclusion: This track looks like CDDA with probability 100%

06 -===- D:\My3a4ka\Игорь Тальков - Дискография (2001) [flac]\4. Этот мир\(06) [Игорь Тальков] Спасательный круг.flac
Extracted successfully
Conclusion: This track looks like CDDA with probability 100%

07 -===- D:\My3a4ka\Игорь Тальков - Дискография (2001) [flac]\4. Этот мир\(07) [Игорь Тальков] Мистер ''X''.flac
Extracted successfully
Conclusion: This track looks like CDDA with probability 100%

08 -===- D:\My3a4ka\Игорь Тальков - Дискография (2001) [flac]\4. Этот мир\(08) [Игорь Тальков] Саквояж.flac
Extracted successfully
Conclusion: This track looks like CDDA with probability 100%

09 -===- D:\My3a4ka\Игорь Тальков - Дискография (2001) [flac]\4. Этот мир\(09) [Игорь Тальков] Звезда.flac
Extracted successfully
Conclusion: This track looks like CDDA with probability 100%

10 -===- D:\My3a4ka\Игорь Тальков - Дискография (2001) [flac]\4. Этот мир\(10) [Игорь Тальков] Солнце уходит на запад.flac
Extracted successfully
Conclusion: This track looks like CDDA with probability 100%

11 -===- D:\My3a4ka\Игорь Тальков - Дискография (2001) [flac]\4. Этот мир\(11) [Игорь Тальков] Этот мир.flac
Extracted successfully
Conclusion: This track looks like CDDA with probability 100%
Часть первая

#7771. Моя любовь
2. Ты опоздала
3. Летний дождь
4. Самый лучший день
5. Память
6. Праздник
7. Самый лучший день (первый вариант фонограммы)
Exact Audio Copy V0.99 prebeta 4 from 23. January 2008

Отчёт EAC об извлечении, выполненном 2. марта 2009, 2:40

Тальков / Моя любовь 1 часть

Дисковод: PLEXTOR CD-R PX-W5224A Adapter: 1 ID: 0

Режим чтения : Достоверность
Использование точного потока : Да
Отключение кэша аудио : Да
Использование указателей C2 : Нет

Коррекция смещения при чтении : 30
Способность читать области Lead-in и Lead-out : Нет
Заполнение пропущенных сэмплов тишиной : Да
Удаление блоков с тишиной в начале и конце : Нет
При вычислениях CRC использовались нулевые сэмплы : Да
Интерфейс : Встроенный Win32-интерфейс для Win NT/2000

Выходной формат : Внутренние WAV-операции
Формат сэмплов : 44.100 Гц; 16 бит; стерео

TOC извлечённого CD

Трек | Старт | Длительность | Начальный сектор | Конечный сектор
---------------------------------------------------------------------
1 | 0:00.00 | 6:27.06 | 0 | 29030
2 | 6:27.06 | 5:10.28 | 29031 | 52308
3 | 11:37.34 | 8:38.73 | 52309 | 91231
4 | 20:16.32 | 4:43.14 | 91232 | 112470
5 | 24:59.46 | 5:45.37 | 112471 | 138382
6 | 30:45.08 | 5:11.51 | 138383 | 161758
7 | 35:56.59 | 4:15.04 | 161759 | 180887

Характеристики диапазона извлечения и сообщения об ошибках

Выбранный диапазон

Имя файла C:\Игорь Тальков\Таль\Моя любовь_1\Тальков - Моя любовь 1 часть.wav

Пиковый уровень 98.8 %
Качество диапазона 100.0 %
CRC копии 27B27947
Копирование... OK

Ошибок не произошло

Конец отчёта
AUDIOCHECKER v1.2 - by Dester -
~~~~~~~~~~~~~~~~~

1 -===- D:\My3a4ka\Игорь Тальков - Дискография (2001) [flac]\5. Моя любовь\5.1. Первая часть\(01) [Тальков] Моя любовь.flac
Extracted successfully
Conclusion: This track looks like CDDA with probability 100%

2 -===- D:\My3a4ka\Игорь Тальков - Дискография (2001) [flac]\5. Моя любовь\5.1. Первая часть\(02) [Тальков] Ты опоздала.flac
Extracted successfully
Conclusion: This track looks like CDDA with probability 100%

3 -===- D:\My3a4ka\Игорь Тальков - Дискография (2001) [flac]\5. Моя любовь\5.1. Первая часть\(03) [Тальков] Летний дождь.flac
Extracted successfully
Conclusion: This track looks like CDDA with probability 100%

4 -===- D:\My3a4ka\Игорь Тальков - Дискография (2001) [flac]\5. Моя любовь\5.1. Первая часть\(04) [Тальков] Самый лучший день.flac
Extracted successfully
Conclusion: This track looks like CDDA with probability 100%

5 -===- D:\My3a4ka\Игорь Тальков - Дискография (2001) [flac]\5. Моя любовь\5.1. Первая часть\(05) [Тальков] Память.flac
Extracted successfully
Conclusion: This track looks like CDDA with probability 100%

6 -===- D:\My3a4ka\Игорь Тальков - Дискография (2001) [flac]\5. Моя любовь\5.1. Первая часть\(06) [Тальков] Праздник.flac
Extracted successfully
Conclusion: This track looks like CDDA with probability 100%

7 -===- D:\My3a4ka\Игорь Тальков - Дискография (2001) [flac]\5. Моя любовь\5.1. Первая часть\(07) [Тальков] Самый лучший день (первый вариант фонограммы).flac
Extracted successfully
Conclusion: This track looks like CDDA with probability 100%


Часть вторая

#7771. Love You (Я тебя люблю)
2. У твоего окна
3. Замкнутый круг
4. Таня
5. Моя любовь
6. Память / Когда засыпает город (записано на концерте в 1984 г.)
7. Разговоры ни о чем (записано на концерте в 1984 г.)
8. Таня (первый вариант фонограммы)
9. Моя любовь (записано на концерте в ДК МИСИС)
10.Три дома
Exact Audio Copy V0.99 prebeta 4 from 23. January 2008

Отчёт EAC об извлечении, выполненном 2. марта 2009, 2:23

Тальков Игорь / Моя любовь

Дисковод: PLEXTOR CD-R PX-W5224A Adapter: 1 ID: 0

Режим чтения : Достоверность
Использование точного потока : Да
Отключение кэша аудио : Да
Использование указателей C2 : Нет

Коррекция смещения при чтении : 30
Способность читать области Lead-in и Lead-out : Нет
Заполнение пропущенных сэмплов тишиной : Да
Удаление блоков с тишиной в начале и конце : Нет
При вычислениях CRC использовались нулевые сэмплы : Да
Интерфейс : Встроенный Win32-интерфейс для Win NT/2000

Выходной формат : Внутренние WAV-операции
Формат сэмплов : 44.100 Гц; 16 бит; стерео

TOC извлечённого CD

Трек | Старт | Длительность | Начальный сектор | Конечный сектор
---------------------------------------------------------------------
1 | 0:00.00 | 6:00.11 | 0 | 27010
2 | 6:00.11 | 5:43.32 | 27011 | 52767
3 | 11:43.43 | 6:14.09 | 52768 | 80826
4 | 17:57.52 | 4:51.01 | 80827 | 102652
5 | 22:48.53 | 5:25.58 | 102653 | 127085
6 | 28:14.36 | 4:35.05 | 127086 | 147715
7 | 32:49.41 | 5:47.73 | 147716 | 173813
8 | 38:37.39 | 5:29.18 | 173814 | 198506
9 | 44:06.57 | 4:56.11 | 198507 | 220717
10 | 49:02.68 | 4:16.11 | 220718 | 239928

Характеристики диапазона извлечения и сообщения об ошибках

Выбранный диапазон

Имя файла C:\Игорь Тальков\Таль\Моя любовь_2\Тальков Игорь - Моя любовь.wav

Пиковый уровень 99.0 %
Качество диапазона 100.0 %
CRC копии 64208B5F
Копирование... OK

Ошибок не произошло

Конец отчёта
AUDIOCHECKER v1.2 - by Dester -
~~~~~~~~~~~~~~~~~

01 -===- D:\My3a4ka\Игорь Тальков - Дискография (2001) [flac]\5. Моя любовь\5.2. Bторая часть\(01) [Игорь Тальков] Love You (Я тебя люблю).flac
Extracted successfully
Conclusion: This track looks like CDDA with probability 100%

02 -===- D:\My3a4ka\Игорь Тальков - Дискография (2001) [flac]\5. Моя любовь\5.2. Bторая часть\(02) [Игорь Тальков] У твоего окна.flac
Extracted successfully
Conclusion: This track looks like CDDA with probability 100%

03 -===- D:\My3a4ka\Игорь Тальков - Дискография (2001) [flac]\5. Моя любовь\5.2. Bторая часть\(03) [Игорь Тальков] Замкнутый круг.flac
Extracted successfully
Conclusion: This track looks like CDDA with probability 100%

04 -===- D:\My3a4ka\Игорь Тальков - Дискография (2001) [flac]\5. Моя любовь\5.2. Bторая часть\(04) [Игорь Тальков] Таня.flac
Extracted successfully
Conclusion: This track looks like CDDA with probability 99%

05 -===- D:\My3a4ka\Игорь Тальков - Дискография (2001) [flac]\5. Моя любовь\5.2. Bторая часть\(05) [Игорь Тальков] Моя любовь.flac
Extracted successfully
Conclusion: This track looks like CDDA with probability 100%

06 -===- D:\My3a4ka\Игорь Тальков - Дискография (2001) [flac]\5. Моя любовь\5.2. Bторая часть\(06) [Игорь Тальков] Память - Когда засыпает город (концерт 1984 г.).flac
Extracted successfully
Conclusion: This track looks like CDDA with probability 100%

07 -===- D:\My3a4ka\Игорь Тальков - Дискография (2001) [flac]\5. Моя любовь\5.2. Bторая часть\(07) [Игорь Тальков] Разговоры ни о чем (концерт 1984 г.).flac
Extracted successfully
Conclusion: This track looks like CDDA with probability 100%

08 -===- D:\My3a4ka\Игорь Тальков - Дискография (2001) [flac]\5. Моя любовь\5.2. Bторая часть\(08) [Игорь Тальков] Таня (первый вариант фонограммы).flac
Extracted successfully
Conclusion: This track looks like CDDA with probability 100%

09 -===- D:\My3a4ka\Игорь Тальков - Дискография (2001) [flac]\5. Моя любовь\5.2. Bторая часть\(09) [Игорь Тальков] Моя любовь (концертная запись).flac
Extracted successfully
Conclusion: This track looks like CDDA with probability 100%

10 -===- D:\My3a4ka\Игорь Тальков - Дискография (2001) [flac]\5. Моя любовь\5.2. Bторая часть\(10) [Игорь Тальков] Три дома.flac
Extracted successfully
Conclusion: This track looks like CDDA with probability 100%
Часть первая

#7771. Памяти В.Цоя
2. Родина моя
3. КПСС
4. Революционная ламбада
5. Чижик-пыжик
6. Метаморфоза
7. Кремлевская стена
8. Стоп!.. Думаю себе
9. Полугласность
10.Господа-демократы
11.Бывший подъесаул
Exact Audio Copy V0.99 prebeta 4 from 23. January 2008

Отчёт EAC об извлечении, выполненном 2. марта 2009, 0:59

Игорь Тальков / СУД первая часть

Дисковод: PLEXTOR CD-R PX-W5224A Adapter: 1 ID: 0

Режим чтения : Достоверность
Использование точного потока : Да
Отключение кэша аудио : Да
Использование указателей C2 : Нет

Коррекция смещения при чтении : 30
Способность читать области Lead-in и Lead-out : Нет
Заполнение пропущенных сэмплов тишиной : Да
Удаление блоков с тишиной в начале и конце : Нет
При вычислениях CRC использовались нулевые сэмплы : Да
Интерфейс : Встроенный Win32-интерфейс для Win NT/2000

Выходной формат : Внутренние WAV-операции
Формат сэмплов : 44.100 Гц; 16 бит; стерео

TOC извлечённого CD

Трек | Старт | Длительность | Начальный сектор | Конечный сектор
---------------------------------------------------------------------
1 | 0:00.00 | 11:26.55 | 0 | 51504
2 | 11:26.55 | 5:58.04 | 51505 | 78358
3 | 17:24.59 | 3:01.31 | 78359 | 91964
4 | 20:26.15 | 1:31.58 | 91965 | 98847
5 | 21:57.73 | 3:11.25 | 98848 | 113197
6 | 25:09.23 | 4:13.15 | 113198 | 132187
7 | 29:22.38 | 5:14.40 | 132188 | 155777
8 | 34:37.03 | 3:40.18 | 155778 | 172295
9 | 38:17.21 | 1:26.45 | 172296 | 178790
10 | 39:43.66 | 7:11.11 | 178791 | 211126
11 | 46:55.02 | 9:36.12 | 211127 | 254338

Характеристики диапазона извлечения и сообщения об ошибках

Выбранный диапазон

Имя файла C:\Игорь Тальков\Таль\Суд_1\Игорь Тальков - СУД первая часть.wav

Пиковый уровень 98.8 %
Качество диапазона 100.0 %
CRC копии 41A2308B
Копирование... OK

Ошибок не произошло

Конец отчёта
AUDIOCHECKER v1.2 - by Dester -
~~~~~~~~~~~~~~~~~

01 -===- D:\My3a4ka\Игорь Тальков - Дискография (2001) [flac]\6. Суд\6.1. Первая часть\(01) [Игорь Тальков] Памяти Виктора Цоя.flac
Extracted successfully
Conclusion: This track looks like CDDA with probability 92%

02 -===- D:\My3a4ka\Игорь Тальков - Дискография (2001) [flac]\6. Суд\6.1. Первая часть\(02) [Игорь Тальков] Родина моя.flac
Extracted successfully
Conclusion: This track looks like CDDA with probability 100%

03 -===- D:\My3a4ka\Игорь Тальков - Дискография (2001) [flac]\6. Суд\6.1. Первая часть\(03) [Игорь Тальков] КПСС.flac
Extracted successfully
Conclusion: This track looks like CDDA with probability 100%

04 -===- D:\My3a4ka\Игорь Тальков - Дискография (2001) [flac]\6. Суд\6.1. Первая часть\(04) [Игорь Тальков] Революционная ламбада.flac
Extracted successfully
Conclusion: This track looks like CDDA with probability 100%

05 -===- D:\My3a4ka\Игорь Тальков - Дискография (2001) [flac]\6. Суд\6.1. Первая часть\(05) [Игорь Тальков] Чижик-пыжик.flac
Extracted successfully
Conclusion: This track looks like CDDA with probability 100%

06 -===- D:\My3a4ka\Игорь Тальков - Дискография (2001) [flac]\6. Суд\6.1. Первая часть\(06) [Игорь Тальков] Метаморфоза.flac
Extracted successfully
Conclusion: This track looks like CDDA with probability 100%

07 -===- D:\My3a4ka\Игорь Тальков - Дискография (2001) [flac]\6. Суд\6.1. Первая часть\(07) [Игорь Тальков] Кремлевская стена.flac
Extracted successfully
Conclusion: This track looks like CDDA with probability 99%

08 -===- D:\My3a4ka\Игорь Тальков - Дискография (2001) [flac]\6. Суд\6.1. Первая часть\(08) [Игорь Тальков] Стоп!..Думаю себе....flac
Extracted successfully
Conclusion: This track looks like CDDA with probability 100%

09 -===- D:\My3a4ka\Игорь Тальков - Дискография (2001) [flac]\6. Суд\6.1. Первая часть\(09) [Игорь Тальков] Полугласность.flac
Extracted successfully
Conclusion: This track looks like CDDA with probability 100%

10 -===- D:\My3a4ka\Игорь Тальков - Дискография (2001) [flac]\6. Суд\6.1. Первая часть\(10) [Игорь Тальков] Господа-демократы.flac
Extracted successfully
Conclusion: This track looks like CDDA with probability 99%

11 -===- D:\My3a4ka\Игорь Тальков - Дискография (2001) [flac]\6. Суд\6.1. Первая часть\(11) [Игорь Тальков] Бывший подъесаул.flac
Extracted successfully
Conclusion: This track looks like CDDA with probability 100%


Часть вторая

#7771. Россия
2. Я вернусь
3. Бал сатаны
4. Чистые пруды
5. Звезда
6. Самы лучший день
7. Летний дождь
8. Океан непонимания
9. Уеду! (представление группы "Спасательный круг")
Exact Audio Copy V0.99 prebeta 4 from 23. January 2008

Отчёт EAC об извлечении, выполненном 2. марта 2009, 0:43

Игорь Тальков / СУД. (Вторая часть)

Дисковод: PLEXTOR CD-R PX-W5224A Adapter: 1 ID: 0

Режим чтения : Достоверность
Использование точного потока : Да
Отключение кэша аудио : Да
Использование указателей C2 : Нет

Коррекция смещения при чтении : 30
Способность читать области Lead-in и Lead-out : Нет
Заполнение пропущенных сэмплов тишиной : Да
Удаление блоков с тишиной в начале и конце : Нет
При вычислениях CRC использовались нулевые сэмплы : Да
Интерфейс : Встроенный Win32-интерфейс для Win NT/2000

Выходной формат : Внутренние WAV-операции
Формат сэмплов : 44.100 Гц; 16 бит; стерео

TOC извлечённого CD

Трек | Старт | Длительность | Начальный сектор | Конечный сектор
---------------------------------------------------------------------
1 | 0:00.00 | 12:27.04 | 0 | 56028
2 | 12:27.04 | 6:40.31 | 56029 | 86059
3 | 19:07.35 | 10:16.35 | 86060 | 132294
4 | 29:23.70 | 7:26.05 | 132295 | 165749
5 | 36:50.00 | 5:53.33 | 165750 | 192257
6 | 42:43.33 | 5:29.50 | 192258 | 216982
7 | 48:13.08 | 9:59.35 | 216983 | 261942
8 | 58:12.43 | 4:35.00 | 261943 | 282567
9 | 62:47.43 | 8:21.19 | 282568 | 320161

Характеристики диапазона извлечения и сообщения об ошибках

Выбранный диапазон

Имя файла C:\Игорь Тальков\Таль\Суд_2\Игорь Тальков - СУД. (Вторая часть).wav

Пиковый уровень 100.0 %
Качество диапазона 100.0 %
CRC копии 53243BD6
Копирование... OK

Ошибок не произошло

Конец отчёта
AUDIOCHECKER v1.2 - by Dester -
~~~~~~~~~~~~~~~~~

1 -===- D:\My3a4ka\Игорь Тальков - Дискография (2001) [flac]\6. Суд\6.2. Bторая часть\(01) [Игорь Тальков] Россия.flac
Extracted successfully
Conclusion: This track looks like CDDA with probability 100%

2 -===- D:\My3a4ka\Игорь Тальков - Дискография (2001) [flac]\6. Суд\6.2. Bторая часть\(02) [Игорь Тальков] Я вернусь.flac
Extracted successfully
Conclusion: This track looks like CDDA with probability 99%

3 -===- D:\My3a4ka\Игорь Тальков - Дискография (2001) [flac]\6. Суд\6.2. Bторая часть\(03) [Игорь Тальков] Бал Сатаны.flac
Extracted successfully
Conclusion: This track looks like CDDA with probability 100%

4 -===- D:\My3a4ka\Игорь Тальков - Дискография (2001) [flac]\6. Суд\6.2. Bторая часть\(04) [Игорь Тальков] Чистые пруды.flac
Extracted successfully
Conclusion: This track looks like CDDA with probability 100%

5 -===- D:\My3a4ka\Игорь Тальков - Дискография (2001) [flac]\6. Суд\6.2. Bторая часть\(05) [Игорь Тальков] Звезда.flac
Extracted successfully
Conclusion: This track looks like CDDA with probability 100%

6 -===- D:\My3a4ka\Игорь Тальков - Дискография (2001) [flac]\6. Суд\6.2. Bторая часть\(06) [Игорь Тальков] Самый лучший день.flac
Extracted successfully
Conclusion: This track looks like CDDA with probability 99%

7 -===- D:\My3a4ka\Игорь Тальков - Дискография (2001) [flac]\6. Суд\6.2. Bторая часть\(07) [Игорь Тальков] Летний дождь.flac
Extracted successfully
Conclusion: This track looks like CDDA with probability 100%

8 -===- D:\My3a4ka\Игорь Тальков - Дискография (2001) [flac]\6. Суд\6.2. Bторая часть\(08) [Игорь Тальков] Океан непонимания.flac
Extracted successfully
Conclusion: This track looks like CDDA with probability 100%

9 -===- D:\My3a4ka\Игорь Тальков - Дискография (2001) [flac]\6. Суд\6.2. Bторая часть\(09) [Игорь Тальков] Уеду!.flac
Extracted successfully
Conclusion: This track looks like CDDA with probability 100%
До полной коллекции (НЕ дискографии) не хватает 2х изданий: «Лирика» и «Лучшие песни», НО! все песни, находящиеся в недостающих альбомах есть в этой раздаче, поэтому не держу их на жестком диске
Время раздачи: 02:00-12:00 мск

загрузка...
Правила, инструкции, FAQ!!!
Торрент  Добавлен [15 май 2018, 07:31] Скачать торрент Магнет ссылка
Скачать торрент
[ Размер 31.23 КБ / Просмотров 267 ]

Статус
Обновлён Bionik (15 май 2018, 07:32)
 
Размер  3.05 ГБ
Приватный: Нет (DHT включён)
.torrent скачан  4
Как залить торрент? | Как скачать Torrent? | Ошибка в торренте? Качайте магнет  


     Отправить личное сообщение
   
Страница 1 из 1
Показать сообщения за:  Поле сортировки  
Начать новую тему Ответить на тему

   Похожие торренты   Автор   Ответы   Просмотры   Последнее сообщение 
В этой теме нет новых непрочитанных сообщений. Скачать торрент Проверен Игорь Тальков - Россия (1991) Russia/ЛадЪ [FLAC 2.0 24/192|Image (Vinyl-Rip)]<Авторская песня, Pop, Rock>

в форуме Vinyl-Rip и Hand-Made, Размер: 1.44 ГБ, Здоровье: 100%

Anonymous

0
21|12

235
12

07 фев 2015, 23:45

Anonymous Перейти к последнему сообщению

В этой теме нет новых непрочитанных сообщений. Скачать торрент Проверен Игорь Тальков - Лучшие песни (2008) [DTS|Lossless]<Авторская песня>

в форуме DTS CD / SACD-R, Размер: 616.11 МБ, Здоровье: 100%

Anonymous

0
217|18

444
53

08 дек 2014, 22:13

Anonymous Перейти к последнему сообщению

В этой теме нет новых непрочитанных сообщений. Скачать торрент Проверен Игорь Тальков - Лучшие песни 2 (2008) [DTS|Lossless]<Авторская песня>

в форуме DTS CD / SACD-R, Размер: 610.67 МБ, Здоровье: 100%

Anonymous

0
257|13

557
75

08 дек 2014, 22:13

Anonymous Перейти к последнему сообщению

В этой теме нет новых непрочитанных сообщений. Скачать торрент Проверен (Шансон, Авторская песня) Михаил Кленов (Кунцман) - Дискография (3 альбома) [1991-1996] MP3, 320 kbps

в форуме Шансон|Авторская песня, Размер: 343.74 МБ, Здоровье: 100%

Anonymous

0
46|23

163
13

05 ноя 2016, 19:06

Anonymous Перейти к последнему сообщению

В этой теме нет новых непрочитанных сообщений. Скачать торрент Проверен (Шансон(авторская песня)) Аронов Игорь - Песни - 199..........., MP3, 320 kbps

в форуме Шансон|Авторская песня, Размер: 184.09 МБ, Здоровье: 100%

Anonymous

0
1|1

106
2

05 ноя 2016, 17:11

Anonymous Перейти к последнему сообщению



Сейчас этот форум просматривают: нет зарегистрированных пользователей и гости: 0


Вы не можете начинать темы
Вы не можете отвечать на сообщения
Вы не можете редактировать свои сообщения
Вы не можете удалять свои сообщения
Вы не можете добавлять вложения

Перейти:  
Ресурс не предоставляет электронные версии произведений, а занимается лишь коллекционированием и каталогизацией ссылок, присылаемых и публикуемых на форуме нашими читателями. Если вы являетесь правообладателем какого-либо представленного материала и не желаете чтобы ссылка на него находилась в нашем каталоге, свяжитесь с нами и мы незамедлительно удалим её. Файлы для обмена на трекере предоставлены пользователями сайта, и администрация не несёт ответственности за их содержание. Просьба не заливать файлы, защищенные авторскими правами, а также файлы нелегального содержания!
cron