На всех торрентах на трекере установлена скидка на скачивание в размере 100 процентов(а).
 Возможность скачивания торрента НЕ зависит от ограничений при низком ратио, низком аплоаде, требуемом ратио или требуемом аплоаде.


Начать новую тему Ответить на тему
Статистика раздачи
Размер: 1.18 ГБ | Добавлен: 11 май 2015, 01:31 | Скачали: 0
Сидеров: 20  [0 байт/сек]    Личеров: 6  [0 байт/сек]
Пред. тема | След. тема 

Автор
Сообщение

СообщениеДобавлено: 11 май 2015, 01:31 

Ответить с цитатой 

ИДИ И СМОТРИ
COME AND SEE
Страна: СССР
Год выпуска: 1985
Жанр: Военная драма
Продолжительность: 02:16:34
Перевод : Не требуется
Количество серий: 2x2
Субтитры: русские, английские, немецкие, французские, итальянские, португальские, шведские
Режиссёр: Элем Климов

В ролях: Алексей Кравченко, Любомирас Лауцявичюс, Владас Багдонас, Виктор Лоренц, Евгений Тиличеев, Александр Берда, Игорь Гневашев, Василий Домрачев, Пётр Меркурьев, Анатолий Сливников, Георгий Строков, Олег Шапко, Виктор Манаев...
Описание: Режиссёр воссоздал жуткую атмосферу оккупации, «будни» плана «Ост», предполагавшего культурное опустошение Белоруссии и физическое уничтожение значительной части её населения. Жестокое обращение с жителями вызвало в Белоруссии ответную реакцию — широкое партизанское движение, ответом на которое стало ещё большее ожесточение немцев. Сцена уничтожения деревни, по всей видимости, является изображением наиболее известного такого случая, имевшего место в реальности, — массового убийства жителей деревни Хатынь.

Авторы касаются тем, которые были редки в советском военном кинематографе, — направленной на оккупированное население немецкой пропаганды, антисемитизма.

Доп. информация:
Ограничение по возрасту — 18 лет в России.В 2009 году журналисты TimeOut London и Квентин Тарантино назвали картину «Иди и смотри» лучшим фильмом, посвященным Второй мировой войне, хотя в интервью, сделанном ранее, Тарантино говорил, что еще не смотрел этот фильм.[*]Вышедший на экраны в конце 80-х фильм был настолько жестоким, что во время премьерных показов у кинотеатров дежурили кареты скорой помощи, время от времени увозя слишком впечатлительных зрителей.

Качество: DVDRip
Формат: *.mov
Видео кодек: H.264
Аудио кодек: ААС
Разрешение: 480x368
Другие параметры видео: 896 кбит/с; 23.976 кадров/с;
Аудио 1: 165 кбит/с; 2 канала; 48 KHz - английский
Аудио 2: 165 кбит/с; 2 канала; 48 KHz - белорусский
Вшитая обложка: есть
Доп. теги (режиссёр, актёры и т.д.): прописаны
General
Complete name : D:\Фільми\Мої роздачі на rutracker\Come and see [1985]_iPhone_480x368\Idi i smotri [part1].mov
Format : MPEG-4
Format profile : QuickTime
Codec ID : qt
File size : 564 MiB
Duration : 1h 3mn
Overall bit rate : 1 237 Kbps
Movie name : Иди и смотри / Come and See ( 1 )
Performer : Алексей Кравченко, Любомирас Лауцявичюс, Владас Багдонас, Виктор Лоренц, Евгений Тиличеев, Александр Берда, Игорь Гневашев, Василий Домрачев, Пётр Меркурьев, Анатолий Сливников, Георгий Строков, Олег Шапко, Виктор Манаев...
Genre : Военная драма
Encoded date : 1985
Tagged date : UTC 2010-12-13 11:34:47
Writing application : HandBrake 0.9.4 2009112300
Writing library : Apple QuickTime
Cover : Yes
iTunMOVI : <?xml version="1.0" encoding="UTF-8"?> / <!DOCTYPE plist PUBLIC "-/Apple/DTD PLIST 1.0/EN" "http://www.apple.com/DTDs/PropertyList-1.0.dtd"> / <plist version="1.0"> / <dict> / <key>cast</key> / <array> / <dict> / <key>name</key> / <string>Алексей Кравченко</string> / </dict> / <dict> / <key>name</key> / <string>Любомирас Лауцявичюс</string> / </dict> / <dict> / <key>name</key> / <string>Владас Багдонас</string> / </dict> / <dict> / <key>name</key> / <string>Виктор Лоренц</string> / </dict> / <dict> / <key>name</key> / <string>Евгений Тиличеев</string> / </dict> / <dict> / <key>name</key> / <string>Александр Берда</string> / </dict> / <dict> / <key>name</key> / <string>Игорь Гневашев</string> / </dict> / <dict> / <key>name</key> / <string>Василий Домрачев</string> / </dict> / <dict> / <key>name</key> / <string>Пётр Меркурьев</string> / </dict> / <dict> / <key>name</key> / <string>Анатолий Сливников</string> / </dict> / <dict> / <key>name</key> / <string>Георгий Строков</string> / </dict> / <dict> / <key>name</key> / <string>Олег Шапко</string> / </dict> / <dict> / <key>name</key> / <string>Виктор Манаев...</string> / </dict> / </array> / <key>directors</key> / <array> / <dict> / <key>name</key> / <string>Элем Климов</string> / </dict> / </array> / <key>screenwriters</key> / <array> / <dict> / <key>name</key> / <string>Алесь Адамович</string> / </dict> / <dict> / <key>name</key> / <string>Элем Климов</string> / </dict> / </array> / </dict> / </plist>
desc : Белоруссия, 1943 год. Раздобыв винтовку, деревенский парнишка Флера приходит в партизанский отряд. Командир отряда Косач, чтобы уберечь подростка, оставляет его при хозвзводе и пока не предполагает, какие испытания предстоят пережить людям в этом "тылу"..
ldes : Режиссёр воссоздал жуткую атмосферу оккупации, «будни» плана «Ост», предполагавшего культурное опустошение Белоруссии и физическое уничтожение значительной части её населения. Жестокое обращение с жителями вызвало в Белоруссии ответную реакцию — широкое партизанское движение, ответом на которое стало ещё большее ожесточение немцев. Сцена уничтожения деревни, по всей видимости, является изображением наиболее известного такого случая, имевшего место в реальности, — массового убийства жителей деревни Хатынь.
stik : 9

Video
ID : 1
Format : AVC
Format/Info : Advanced Video Codec
Format profile : Baseline@L3.0
Format settings, CABAC : No
Format settings, ReFrames : 5 frames
Codec ID : avc1
Codec ID/Info : Advanced Video Coding
Duration : 1h 3mn
Bit rate mode : Variable
Bit rate : 896 Kbps
Width : 480 pixels
Height : 368 pixels
Display aspect ratio : 4:3
Frame rate mode : Variable
Frame rate : 23.976 fps
Minimum frame rate : 23.974 fps
Maximum frame rate : 23.981 fps
Color space : YUV
Chroma subsampling : 4:2:0
Bit depth : 8 bits
Scan type : Progressive
Bits/(Pixel*Frame) : 0.212
Stream size : 410 MiB (73%)
Writing library : x264 core 79
Encoding settings : cabac=0 / ref=5 / deblock=1:0:0 / analyse=0x1:0x131 / me=umh / subme=6 / psy=1 / psy_rd=0.0:0.0 / mixed_ref=0 / me_range=16 / chroma_me=1 / trellis=0 / 8x8dct=0 / cqm=0 / deadzone=21,11 / chroma_qp_offset=0 / threads=1 / nr=0 / decimate=1 / mbaff=0 / constrained_intra=0 / bframes=0 / wpredp=0 / keyint=240 / keyint_min=24 / scenecut=40 / rc_lookahead=40 / rc=abr / mbtree=1 / bitrate=896 / ratetol=1.0 / qcomp=0.60 / qpmin=10 / qpmax=51 / qpstep=4 / ip_ratio=1.40 / aq=1:1.00
Language : English
Encoded date : UTC 2010-12-12 17:04:41
Tagged date : UTC 2010-12-13 11:34:47
Color primaries : BT.601-6 525, BT.1358 525, BT.1700 NTSC, SMPTE 170M
Transfer characteristics : BT.709-5, BT.1361
Matrix coefficients : BT.601-6 525, BT.1358 525, BT.1700 NTSC, SMPTE 170M

Audio #1
ID : 9
Format : AAC
Format/Info : Advanced Audio Codec
Format version : Version 4
Format profile : LC
Codec ID : 40
Duration : 1h 3mn
Bit rate mode : Variable
Bit rate : 165 Kbps
Channel(s) : 2 channels
Channel positions : Front: L R
Sampling rate : 48.0 KHz
Compression mode : Lossy
Stream size : 75.5 MiB (13%)
Language : English
Encoded date : UTC 2010-12-12 22:19:47
Tagged date : UTC 2010-12-13 11:34:47

Audio #2
ID : 10
Format : AAC
Format/Info : Advanced Audio Codec
Format version : Version 4
Format profile : LC
Codec ID : 40
Duration : 1h 3mn
Bit rate mode : Variable
Bit rate : 165 Kbps
Channel(s) : 2 channels
Channel positions : Front: L R
Sampling rate : 48.0 KHz
Compression mode : Lossy
Stream size : 75.5 MiB (13%)
Language : 32
Encoded date : UTC 2010-12-12 22:20:33
Tagged date : UTC 2010-12-13 11:34:47

Text #1
ID : 2
Format : Timed text
Muxing mode : sbtl
Codec ID : tx3g
Duration : 1h 3mn
Bit rate mode : Variable
Bit rate : 27 bps
Stream size : 12.5 KiB (0%)
Language : English
Encoded date : UTC 2010-12-12 17:04:41
Tagged date : UTC 2010-12-13 11:34:47

Text #2
ID : 3
Format : Timed text
Muxing mode : sbtl
Codec ID : tx3g
Duration : 1h 3mn
Bit rate mode : Variable
Bit rate : 29 bps
Stream size : 13.7 KiB (0%)
Language : French
Encoded date : UTC 2010-12-12 17:04:41
Tagged date : UTC 2010-12-13 11:34:47

Text #3
ID : 4
Format : Timed text
Muxing mode : sbtl
Codec ID : tx3g
Duration : 1h 3mn
Bit rate mode : Variable
Bit rate : 24 bps
Stream size : 11.0 KiB (0%)
Language : German
Encoded date : UTC 2010-12-12 17:04:41
Tagged date : UTC 2010-12-13 11:34:47

Text #4
ID : 5
Format : Timed text
Muxing mode : sbtl
Codec ID : tx3g
Duration : 1h 3mn
Bit rate mode : Variable
Bit rate : 26 bps
Stream size : 11.9 KiB (0%)
Language : 3
Encoded date : UTC 2010-12-12 17:04:41
Tagged date : UTC 2010-12-13 11:34:47

Text #5
ID : 6
Format : Timed text
Muxing mode : sbtl
Codec ID : tx3g
Duration : 1h 3mn
Bit rate mode : Variable
Bit rate : 25 bps
Stream size : 11.4 KiB (0%)
Language : 8
Encoded date : UTC 2010-12-12 17:04:41
Tagged date : UTC 2010-12-13 11:34:47

Text #6
ID : 7
Format : Timed text
Muxing mode : sbtl
Codec ID : tx3g
Duration : 1h 3mn
Bit rate mode : Variable
Bit rate : 34 bps
Stream size : 15.7 KiB (0%)
Language : 32
Encoded date : UTC 2010-12-12 17:04:41
Tagged date : UTC 2010-12-13 11:34:47

Text #7
ID : 8
Format : Timed text
Muxing mode : sbtl
Codec ID : tx3g
Duration : 1h 3mn
Bit rate mode : Variable
Bit rate : 25 bps
Stream size : 11.8 KiB (0%)
Language : 5
Encoded date : UTC 2010-12-12 17:04:41
Tagged date : UTC 2010-12-13 11:34:47
Правила, инструкции, FAQ!!!
Торрент  Добавлен [11 май 2015, 01:31] Скачать торрент Магнет ссылка
Скачать торрент
[ Размер 12.42 КБ / Просмотров 6 ]

Статус
Проверен 
 
Размер  1.18 ГБ
Приватный: Нет (DHT включён)
.torrent скачан  0
Как залить торрент? | Как скачать Torrent? | Ошибка в торренте? Качайте магнет  
загрузка...


     Отправить личное сообщение
   
Страница 1 из 1
Показать сообщения за:  Поле сортировки  
Начать новую тему Ответить на тему

   Похожие торренты   Автор   Ответы   Просмотры   Последнее сообщение 
В этой теме нет новых непрочитанных сообщений. Скачать торрент Проверен Иди и смотри (Элем Климов) [1985 г., Драма, DVDRip]

в форуме Кино СССР, Размер: 1.46 ГБ, Здоровье: 100%

Anonymous

0
93|30

91
2

21 окт 2014, 20:58

Anonymous Перейти к последнему сообщению

В этой теме нет новых непрочитанных сообщений. Скачать торрент Проверен [iPhone] Добро пожаловать, или посторонним вход воспрещен (Элем Климов) [1964 г., Комедия, DVDRip]

в форуме Фильмы для iPod, iPhone, iPad, Размер: 389.3 МБ, Здоровье: 100%

Anonymous

0
7|1

85
0

12 май 2015, 00:11

Anonymous Перейти к последнему сообщению

В этой теме нет новых непрочитанных сообщений. Скачать торрент Проверен [iPhone] Земляничная поляна / Smultronstallet (Ингмар Бергман / Ingmar Bergman) [1957, Драма] [Rus + Eng., Sub., DVDRip - AVC., 480x368]

в форуме Фильмы для iPod, iPhone, iPad, Размер: 667.81 МБ, Здоровье: 100%

Anonymous

0
2|0

21
0

24 дек 2017, 22:31

Anonymous Перейти к последнему сообщению

В этой теме нет новых непрочитанных сообщений. Скачать торрент Проверен [iPhone] Блокада: Лужский рубеж - фильм первый (Михаил Ершов) [1974, Драма, Военный][DVDRip - AVC., 480x368]

в форуме Фильмы для iPod, iPhone, iPad, Размер: 772.56 МБ, Здоровье: 100%

Anonymous

0
4|0

73
1

24 дек 2017, 23:04

Anonymous Перейти к последнему сообщению

В этой теме нет новых непрочитанных сообщений. Скачать торрент Проверен Смотрите - небо! (Элем Климов) [1962 г., короткометражный, детский, DVDRip]

в форуме Детское, Семейное кино, Размер: 718.08 МБ, Здоровье: 100%

Anonymous

0
22|6

93
1

10 апр 2016, 20:13

Anonymous Перейти к последнему сообщению



Сейчас этот форум просматривают: нет зарегистрированных пользователей и гости: 1


Вы не можете начинать темы
Вы не можете отвечать на сообщения
Вы не можете редактировать свои сообщения
Вы не можете удалять свои сообщения
Вы не можете добавлять вложения

Перейти:  
Ресурс не предоставляет электронные версии произведений, а занимается лишь коллекционированием и каталогизацией ссылок, присылаемых и публикуемых на форуме нашими читателями. Если вы являетесь правообладателем какого-либо представленного материала и не желаете чтобы ссылка на него находилась в нашем каталоге, свяжитесь с нами и мы незамедлительно удалим её. Файлы для обмена на трекере предоставлены пользователями сайта, и администрация не несёт ответственности за их содержание. Просьба не заливать файлы, защищенные авторскими правами, а также файлы нелегального содержания!
cron