На всех торрентах на трекере установлена скидка на скачивание в размере 100 процентов(а).
 Возможность скачивания торрента НЕ зависит от ограничений при низком ратио, низком аплоаде, требуемом ратио или требуемом аплоаде.


Начать новую тему Ответить на тему
Статистика раздачи
Размер: 322.59 МБ | Добавлен: 30 июл 2016, 10:08 | Скачали: 1
Сидеров: 3  [0 байт/сек]    Личеров: 1  [0 байт/сек]
Пред. тема | След. тема 

Автор
Сообщение

СообщениеДобавлено: 30 июл 2016, 10:08 

Ответить с цитатой 

Год: 2009
Жанр: Melodic Hard Rock
Продолжительность: 0:48:58

Кодек: APE
Битрейт: Lossless
Тип рипа: image + .cue

Треклист:
01. Alive Again (vocals Joe Lynn Turner)
02. Heal The Broken Hearted (vocals Paul Rodgers)
03. Hot To Cold (vocals Deanna Johnston & Joe Lynn Turner)
04. French Quarter (instrumental feat. Keith Emerson)
05. 33 West Street (instrumental feat. Paul Reed Smith)
06. The South Summit (vocals Duke Fame)
07. Rada's Theme (instrumental)
08. The Vine (vocals Jimi Jamison)
09. In These Eyes (vocals Keith St. John)
10. Vermilion Border (instrumental)
11. I've Been Leavin' You (vocals Andrew Black)
12. Somewhere (Theme From West Side Story) (instrumental)
13. Hidden Track
Howard M. Leese - гитарист, продюсер и музыкальный режиссёр. Играл с группой Heart с 1975 по 1997. В настоящее время записывается и выступает соло, а также с The Paul Rodgers Band и Bad Company.
https:/en.wikipedia.org/wiki/Howard_Leese
Код:
Код:
Отчёт EAC об извлечении, выполненном 25. октября 2009, 17:18 для диска:
Howard Leese / Secret Weapon

Дисковод: PIONEER DVD-RW  DVR-215D   Adapter: 3  ID: 0
Режим чтения: Достоверный (C2: нет, Точный поток: да, Отключение кэша: да)
Коррекция смещения при чтении: 48
Способность читать области Lead-in и Lead-out : Нет

Выходной формат: Внутренние WAV-операции
                     44.100 Гц; 16 бит; стерео

Другие параметры:
    Заполнение пропущенных сэмплов тишиной : Да
    Удаление блоков с тишиной в начале и конце : Нет
    Встроенный Win32-интерфейс для Win NT/2000

Характеристики диапазона извлечения и сообщения об ошибках
Выбранный диапазон
     Имя файла E:\обработать\Howard Leese - 2009 - Secret Weapon\Howard Leese - Secret Weapon.wav

     Пиковый уровень 99.8 %
     Качество диапазона 99.9 %
     CRC 8C5C7B48
     Копирование... OK

Ошибок не произошло

Конец отчёта
Код:
Код:
REM DATE 2009
REM DISCID AA0B790D
REM COMMENT "ExactAudioCopy v0.95b4"
PERFORMER "Howard Leese"
TITLE "Secret Weapon"
FILE "Howard Leese - Secret Weapon.ape" WAVE
  TRACK 01 AUDIO
    TITLE "Alive Again"
    PERFORMER "Howard Leese"
    FLAGS DCP
    INDEX 01 00:00:00
  TRACK 02 AUDIO
    TITLE "Heal The Broken Hearted"
    PERFORMER "Howard Leese"
    FLAGS DCP
    INDEX 01 05:40:18
  TRACK 03 AUDIO
    TITLE "Hot To Cold"
    PERFORMER "Howard Leese"
    FLAGS DCP
    INDEX 01 08:38:59
  TRACK 04 AUDIO
    TITLE "French Quarter"
    PERFORMER "Howard Leese"
    FLAGS DCP
    INDEX 01 12:27:13
  TRACK 05 AUDIO
    TITLE "33 West Street"
    PERFORMER "Howard Leese"
    FLAGS DCP
    INDEX 01 13:08:66
  TRACK 06 AUDIO
    TITLE "The South Summit"
    PERFORMER "Howard Leese"
    FLAGS DCP
    INDEX 01 17:28:15
  TRACK 07 AUDIO
    TITLE "Rada's Theme"
    PERFORMER "Howard Leese"
    FLAGS DCP
    INDEX 01 22:27:02
  TRACK 08 AUDIO
    TITLE "The Vine"
    PERFORMER "Howard Leese"
    FLAGS DCP
    INDEX 01 25:22:39
  TRACK 09 AUDIO
    TITLE "In These Eyes"
    PERFORMER "Howard Leese"
    FLAGS DCP
    INDEX 01 29:30:20
  TRACK 10 AUDIO
    TITLE "Vermilion Border"
    PERFORMER "Howard Leese"
    FLAGS DCP
    INDEX 01 33:46:53
  TRACK 11 AUDIO
    TITLE "I've Been Leavin' You"
    PERFORMER "Howard Leese"
    FLAGS DCP
    INDEX 01 39:15:59
  TRACK 12 AUDIO
    TITLE "Somewhere"
    PERFORMER "Howard Leese"
    FLAGS DCP
    INDEX 01 44:04:25
  TRACK 13 AUDIO
    TITLE "---"
    PERFORMER "Howard Leese"
    FLAGS DCP
    INDEX 01 47:03:53
Код:
Код:
-----------------------

DON'T MODIFY THIS FILE

-----------------------

PERFORMER: auCDtect Task Manager, ver. 1.6.0 RC1 build 1.6.0.1
Copyright (c) 2008-2010 y-soft. All rights reserved
http:/y-soft.org

ANALYZER: auCDtect: CD records authenticity detector, version 0.8.2
Copyright (c) 2004 Oleg Berngardt. All rights reserved.
Copyright (c) 2004 Alexander Djourik. All rights reserved.

FILE: Howard Leese - Secret Weapon.ape
  Size: 336387660 Hash: A115CB0838BE74A017C2FCAFB9769AB4 Accuracy: -m0
  Conclusion: CDDA 100%
  Signature: DF6EBA0FB18CED42A9161A47902A093465F602B7
#777
загрузка...
Правила, инструкции, FAQ!!!
Торрент  Добавлен [30 июл 2016, 10:08] Скачать торрент Магнет ссылка
Скачать торрент
[ Размер 13.7 КБ / Просмотров 15 ]

Статус
Проверен 
 
Размер  322.59 МБ
Приватный: Нет (DHT включён)
.torrent скачан  1
Как залить торрент? | Как скачать Torrent? | Ошибка в торренте? Качайте магнет  


     Отправить личное сообщение
   
Страница 1 из 1
Показать сообщения за:  Поле сортировки  
Начать новую тему Ответить на тему

   Похожие торренты   Автор   Ответы   Просмотры   Последнее сообщение 
В этой теме нет новых непрочитанных сообщений. Скачать торрент Проверен (melodic rock / blues rock) Howard Leese (ex - Heart) - 2009 - Secret Weapon - 2009, APE (image+.cue), lossless

в форуме Classic Rock & Hard Rock, Размер: 333.39 МБ, Здоровье: 100%

Anonymous

0
7|3

27
0

05 сен 2016, 20:26

Anonymous Перейти к последнему сообщению

В этой теме нет новых непрочитанных сообщений. Скачать торрент Проверен Howard Leese - Secret Weapon (2009) [MP3|320 kbps]<Hard Rock>

в форуме Рок, Панк, Метал, Альтернатива, Размер: 124.93 МБ, Здоровье: 100%

Anonymous

0
513|15

53
1

29 июл 2014, 21:49

Anonymous Перейти к последнему сообщению

В этой теме нет новых непрочитанных сообщений. Скачать торрент Проверен (Hard Rock | Melodic Hard Rock) Howard Leese (ex - Heart) - Secret Weapon, 2009, MP3, 320 kbps

в форуме Classic Rock & Hard Rock, Размер: 118.25 МБ, Здоровье: 100%

Anonymous

0
7|3

28
2

14 ноя 2016, 18:23

Anonymous Перейти к последнему сообщению

В этой теме нет новых непрочитанных сообщений. Скачать торрент Проверен (Melodic Hard Rock) [CD] Paganini - Weapon of Love - 1985, FLAC (image+.cue), lossless

в форуме Classic Rock & Hard Rock, Размер: 231.07 МБ, Здоровье: 100%

Anonymous

0
1|0

36
2

04 сен 2016, 00:00

Anonymous Перейти к последнему сообщению

В этой теме нет новых непрочитанных сообщений. Скачать торрент Проверен (Melodic Hard Rock) Tara's Secret - Vertigo - 2009, MP3 (tracks), 320 kbps

в форуме AOR (Melodic Hard Rock, Arena rock), Размер: 131.91 МБ, Здоровье: 100%

Anonymous

0
6|2

46
2

08 окт 2016, 12:11

Anonymous Перейти к последнему сообщению



Сейчас этот форум просматривают: нет зарегистрированных пользователей и гости: 0


Вы не можете начинать темы
Вы не можете отвечать на сообщения
Вы не можете редактировать свои сообщения
Вы не можете удалять свои сообщения
Вы не можете добавлять вложения

Перейти:  
Ресурс не предоставляет электронные версии произведений, а занимается лишь коллекционированием и каталогизацией ссылок, присылаемых и публикуемых на форуме нашими читателями. Если вы являетесь правообладателем какого-либо представленного материала и не желаете чтобы ссылка на него находилась в нашем каталоге, свяжитесь с нами и мы незамедлительно удалим её. Файлы для обмена на трекере предоставлены пользователями сайта, и администрация не несёт ответственности за их содержание. Просьба не заливать файлы, защищенные авторскими правами, а также файлы нелегального содержания!
cron