На всех торрентах на трекере установлена скидка на скачивание в размере 100 процентов(а).
 Возможность скачивания торрента НЕ зависит от ограничений при низком ратио, низком аплоаде, требуемом ратио или требуемом аплоаде.


Начать новую тему Ответить на тему
Статистика раздачи
Размер: 9.04 ГБ | Добавлен: 07 сен 2016, 18:23 | Скачали: 0
Сидеров: 44  [0 байт/сек]    Личеров: 13  [0 байт/сек]
Пред. тема | След. тема 

Автор
Сообщение

СообщениеДобавлено: 07 сен 2016, 18:23 

Ответить с цитатой 


Название: Холодное сердце
Оригинальное название: Frozen
Год выпуска: 2013
Страна: США / Walt Disney Animation Studios, Walt Disney Pictures
Жанр: мультфильм, мюзикл, фэнтези, комедия, мелодрама, приключения, семейный
Продолжительность: 01:42:13
Перевод: Профессиональный (дублированный)
Субтитры: русские, английские
Оригинальная аудиодорожка: английский
Режиссер: Крис Бак / Chris Buck, Дженнифер Ли / Jennifer Lee

В ролях: Кристен Белл, Идина Мензел, Джонатан Грофф, Джош Гад, Сантино Фонтана, Алан Тьюдик, Киаран Хайндс, Крис Уильямс, Стивен Дж. Андерсон, Майа Уилсон.

Описание: Когда древнее предсказание сбывается и королевство погружается в объятия вечной зимы, трое бесстрашных героев — принцесса Анна, отважный Кристофф и его верный олень Свен — отправляются в горы, чтобы найти сестру Анны, Эльзу, которая может снять со страны леденящее заклятие. По пути их ждет множество увлекательных сюрпризов и захватывающих приключений: встреча с мистическими троллями, знакомство с очаровательным снеговиком по имени Олаф, горные вершины покруче Эвереста и магия в каждой снежинке. Анне и Кристоффу предстоит сплотиться и противостоять могучей стихии, чтобы спасти королевство и тех, кто им дорог…
Формат 3D: Half OverUnder | Вертикальная анаморфная стереопара
Качество: BDRip-AVC (Видео I/N)
Контейнер: MKV
Видео: 1920x1080 at 23.976 fps, x264@L4.1, crf, ~11400 kbps avg
Аудио 1: Russian 48 kHz, AC3, 3/2 (L,C,R,l,r) + LFE ch, 640.00 kbps avg | BD CEE
Аудио 2: English 48 kHz, AC3, 3/2 (L,C,R,l,r) + LFE ch, 640.00 kbps avg | Original
Субтитры: русские полные BD CEE, русские полные Notabenoid, английские полные SDH и SDH Colored
Формат : Matroska
Версия формата : Version 4 / Version 2
Размер файла : 9,04 Гбайт
Продолжительность : 1 ч. 42 м.
Общий поток : 12,7 Мбит/сек
Название фильма : Frozen 2013
Дата кодирования : UTC 2016-07-31 18:09:19
Программа кодирования : mkvmerge v9.1.0 ('Little Earthquakes') 32bit
Библиотека кодирования : libebml v1.3.3 + libmatroska v1.4.4

Видео
Идентификатор : 1
Формат : AVC
Формат/Информация : Advanced Video Codec
Профиль формата : High@L4.1
Параметр CABAC формата : Да
Параметр ReFrames формата : 4 кадра
Идентификатор кодека : V_MPEG4/ISO/AVC
Продолжительность : 1 ч. 42 м.
Битрейт : 11,4 Мбит/сек
Ширина : 1920 пикселей
Высота : 1080 пикселей
Соотношение сторон : 16:9
Режим частоты кадров : Постоянный
Частота кадров : 23,976 (24000/1001) кадра/сек
Цветовое пространство : YUV
Субдискретизация насыщенности : 4:2:0
Битовая глубина : 8 бит
Тип развёртки : Прогрессивная
Бит/(Пиксели*Кадры) : 0.229
Размер потока : 8,12 Гбайт (90%)
Заголовок : 3D HOU
Библиотека кодирования : x264 core 128 r2216M 198a7ea
Настройки программы : cabac=1 / ref=4 / deblock=1:-3:-3 / analyse=0x3:0x133 / me=umh / subme=10 / psy=1 / psy_rd=1.00:0.15 / mixed_ref=1 / me_range=32 / chroma_me=1 / trellis=2 / 8x8dct=1 / cqm=0 / deadzone=21,11 / fast_pskip=1 / chroma_qp_offset=-3 / threads=8 / lookahead_threads=1 / sliced_threads=0 / nr=0 / decimate=1 / interlaced=0 / bluray_compat=0 / constrained_intra=0 / bframes=6 / b_pyramid=2 / b_adapt=2 / b_bias=0 / direct=3 / weightb=1 / open_gop=0 / weightp=2 / keyint=230 / keyint_min=23 / scenecut=40 / intra_refresh=0 / rc_lookahead=60 / rc=crf / mbtree=1 / crf=16.0 / qcomp=0.60 / qpmin=0 / qpmax=69 / qpstep=4 / vbv_maxrate=40000 / vbv_bufsize=30000 / crf_max=30.0 / nal_hrd=none / ip_ratio=1.40 / aq=1:1.00
Язык : English
Default : Да
Forced : Нет

Аудио #1
Идентификатор : 2
Формат : AC-3
Формат/Информация : Audio Coding 3
Расширение режима : CM (complete main)
Параметр Endianness формата : Big
Идентификатор кодека : A_AC3
Продолжительность : 1 ч. 42 м.
Вид битрейта : Постоянный
Битрейт : 640 Кбит/сек
Каналы : 6 каналов
Расположение каналов : Front: L C R, Side: L R, LFE
Частота : 48,0 КГц
Частота кадров : 31,250 кадров/сек (1536 spf)
Метод сжатия : С потерями
Размер потока : 468 Мбайт (5%)
Заголовок : BD CEE
Язык : Russian
Default : Да
Forced : Нет

Аудио #2
Идентификатор : 3
Формат : AC-3
Формат/Информация : Audio Coding 3
Расширение режима : CM (complete main)
Параметр Endianness формата : Big
Идентификатор кодека : A_AC3
Продолжительность : 1 ч. 42 м.
Вид битрейта : Постоянный
Битрейт : 640 Кбит/сек
Каналы : 6 каналов
Расположение каналов : Front: L C R, Side: L R, LFE
Частота : 48,0 КГц
Частота кадров : 31,250 кадров/сек (1536 spf)
Метод сжатия : С потерями
Размер потока : 468 Мбайт (5%)
Заголовок : Original
Язык : English
Default : Нет
Forced : Нет

Текст #1
Идентификатор : 4
Формат : UTF-8
Идентификатор кодека : S_TEXT/UTF8
Идентификатор кодека/Информация : UTF-8 Plain Text
Продолжительность : 1 ч. 33 м.
Битрейт : 75 бит/сек
Count of elements : 1497
Размер потока : 51,5 Кбайт (0%)
Заголовок : Full BD CEE
Язык : Russian
Default : Нет
Forced : Нет

Текст #2
Идентификатор : 5
Формат : UTF-8
Идентификатор кодека : S_TEXT/UTF8
Идентификатор кодека/Информация : UTF-8 Plain Text
Продолжительность : 1 ч. 31 м.
Битрейт : 97 бит/сек
Count of elements : 1340
Размер потока : 65,4 Кбайт (0%)
Заголовок : Full Notabenoid
Язык : Russian
Default : Нет
Forced : Нет

Текст #3
Идентификатор : 6
Формат : UTF-8
Идентификатор кодека : S_TEXT/UTF8
Идентификатор кодека/Информация : UTF-8 Plain Text
Продолжительность : 1 ч. 30 м.
Битрейт : 61 бит/сек
Count of elements : 1506
Размер потока : 41,0 Кбайт (0%)
Заголовок : Full
Язык : English
Default : Нет
Forced : Нет

Текст #4
Идентификатор : 7
Формат : UTF-8
Идентификатор кодека : S_TEXT/UTF8
Идентификатор кодека/Информация : UTF-8 Plain Text
Продолжительность : 1 ч. 41 м.
Битрейт : 66 бит/сек
Count of elements : 1990
Размер потока : 49,9 Кбайт (0%)
Заголовок : Full SDH
Язык : English
Default : Нет
Forced : Нет

Текст #5
Идентификатор : 8
Формат : UTF-8
Идентификатор кодека : S_TEXT/UTF8
Идентификатор кодека/Информация : UTF-8 Plain Text
Продолжительность : 1 ч. 41 м.
Битрейт : 92 бит/сек
Count of elements : 1990
Размер потока : 69,3 Кбайт (0%)
Заголовок : Full SDH Colored
Язык : English
Default : Нет
Forced : Нет

Меню
00:00:00.000 : en:(01)00:00:00:000
00:05:59.817 : en:(02)00:05:59:817
00:11:37.947 : en:(03)00:11:37:947
00:19:53.734 : en:(04)00:19:53:734
00:31:03.194 : en:(05)00:31:03:194
00:38:39.483 : en:(06)00:38:39:483
00:44:21.283 : en:(07)00:44:21:283
00:50:51.506 : en:(08)00:50:51:506
00:57:48.381 : en:(09)00:57:48:381
01:02:57.398 : en:(10)01:02:57:398
01:09:36.046 : en:(11)01:09:36:046
01:13:34.868 : en:(12)01:13:34:868
01:18:07.599 : en:(13)01:18:07:599
01:22:33.740 : en:(14)01:22:33:740
01:27:10.808 : en:(15)01:27:10:808
01:32:33.506 : en:(16)01:32:33:506
01:42:12.793 : en:(17)01:42:12:793
загрузка...
Правила, инструкции, FAQ!!!
Торрент  Добавлен [07 сен 2016, 18:23] Скачать торрент Магнет ссылка
Скачать торрент
[ Размер 45.63 КБ / Просмотров 24 ]

Статус
Проверен 
 
Размер  9.04 ГБ
Приватный: Нет (DHT включён)
.torrent скачан  0
Как залить торрент? | Как скачать Torrent? | Ошибка в торренте? Качайте магнет  


     Отправить личное сообщение
   
Страница 1 из 1
Показать сообщения за:  Поле сортировки  
Начать новую тему Ответить на тему

   Похожие торренты   Автор   Ответы   Просмотры   Последнее сообщение 
В этой теме нет новых непрочитанных сообщений. Скачать торрент Проверен Холодное сердце 3D / Frozen 3D (Крис Бак, Дженнифер Ли / Chris Buck , Jennifer Lee) [2013 г., мультфильм, мюзикл, приключения, семейный, Blu-ray disc 1080p] DUB BD3D CEE

в форуме 3D Мультфильмы, Размер: 41.36 ГБ, Здоровье: 100%

Anonymous

0
4|1

83
0

07 сен 2016, 18:13

Anonymous Перейти к последнему сообщению

В этой теме нет новых непрочитанных сообщений. Скачать торрент Проверен Семейка Крудс 3Д / The Croods 3D (Кирк де Микко / Kirk De Micco, Крис Сандерс / Chris Sanders) [2013, США, мультфильм, фэнтези, комедия, приключения, семейный, BDRip-AVC] Half OverUnder / Вертикальная анаморфная стереопара

в форуме 3D Мультфильмы, Размер: 11.36 ГБ, Здоровье: 100%

Anonymous

0
8|2

69
0

07 сен 2016, 18:17

Anonymous Перейти к последнему сообщению

В этой теме нет новых непрочитанных сообщений. Скачать торрент Проверен Шрек Третий в 3Д / Shrek the Third 3D (Крис Миллер, Раман Х / Chris Miller) [2007, мультфильм, фэнтези, комедия, приключения, семейный, BDRip-AVC] Half OverUnder / Вертикальная анаморфная стереопара

в форуме 3D Мультфильмы, Размер: 6 ГБ, Здоровье: 100%

Anonymous

0
18|5

130
0

07 сен 2016, 17:59

Anonymous Перейти к последнему сообщению

В этой теме нет новых непрочитанных сообщений. Скачать торрент Проверен Эпик в 3Д / Epic 3D (Крис Уэдж / Chris Wedge) [2013, Мультфильм, Фэнтези, Приключения, Семейный, BDrip-AVC] Half OverUnder / Вертикальная анаморфная стереопара

в форуме 3D Мультфильмы, Размер: 6.54 ГБ, Здоровье: 100%

Anonymous

0
9|2

101
0

07 сен 2016, 18:13

Anonymous Перейти к последнему сообщению

В этой теме нет новых непрочитанных сообщений. Скачать торрент Проверен Паранорман, или Как приручить зомби в 3Д / ParaNorman 3D (Крис Батлер, / Chris Butler,) [2012, Мультфильм, Фэнтези, Ужасы, Комедия, Приключения, Семейный, BDrip-AVC] Half OverUnder / Вертикальная анаморфная стереопара

в форуме HD-Video в 3D, Размер: 4.93 ГБ, Здоровье: 100%

Anonymous

0
41|13

139
0

02 ноя 2014, 09:53

Anonymous Перейти к последнему сообщению



Сейчас этот форум просматривают: нет зарегистрированных пользователей и гости: 0


Вы не можете начинать темы
Вы не можете отвечать на сообщения
Вы не можете редактировать свои сообщения
Вы не можете удалять свои сообщения
Вы не можете добавлять вложения

Перейти:  
Ресурс не предоставляет электронные версии произведений, а занимается лишь коллекционированием и каталогизацией ссылок, присылаемых и публикуемых на форуме нашими читателями. Если вы являетесь правообладателем какого-либо представленного материала и не желаете чтобы ссылка на него находилась в нашем каталоге, свяжитесь с нами и мы незамедлительно удалим её. Файлы для обмена на трекере предоставлены пользователями сайта, и администрация не несёт ответственности за их содержание. Просьба не заливать файлы, защищенные авторскими правами, а также файлы нелегального содержания!
cron