На всех торрентах на трекере установлена скидка на скачивание в размере 100 процентов(а).
 Возможность скачивания торрента НЕ зависит от ограничений при низком ратио, низком аплоаде, требуемом ратио или требуемом аплоаде.


Начать новую тему Ответить на тему
Статистика раздачи
Размер: 302.15 МБ | Добавлен: 05 сен 2016, 20:38 | Скачали: 1
Сидеров: 22  [0 байт/сек]    Личеров: 7  [0 байт/сек]
Пред. тема | След. тема 

Автор
Сообщение

СообщениеДобавлено: 05 сен 2016, 20:38 

Ответить с цитатой 

Kingdom Come / Kingdom Come {1-st press P32P 20157}

#777Жанр: Hard Rock
Страна-производитель диска: Japan
Год издания: 1988
Издатель (лейбл): Polydor K.K.
Номер по каталогу: P32P 20157
Страна: Germany
Аудиокодек: APE (*.ape)
Тип рипа: image+.cue
Битрейт аудио: lossless
Продолжительность: 47:39.37
Источник (релизер): Собственная коллекция
Наличие сканов в содержимом раздачи: да

Треклист:

01. Living Out of Touch
02. Pushin' Hard
03. What Love Can Be
04. 17
05. The Shuffle
06. Get It On
07. Now "Forever After"
08. Hideaway
09. Loving You
10. Shout It Out
Код:
Exact Audio Copy V1.0 beta 3 from 29. August 2011

Отчёт EAC об извлечении, выполненном 12. февраля 2013, 16:06

Kingdom Come / Kingdom Come (P32P 20157)

Дисковод: Optiarc DVD RW AD-7280S   Adapter: 3  ID: 0

Режим чтения                 : Достоверность
Использование точного потока : Да
Отключение кэша аудио        : Да
Использование указателей C2  : Нет

Коррекция смещения при чтении                     : 48
Способность читать области Lead-in и Lead-out     : Нет
Заполнение пропущенных сэмплов тишиной            : Да
Удаление блоков с тишиной в начале и конце        : Нет
При вычислениях CRC использовались нулевые сэмплы : Да
Интерфейс                                         : Встроенный Win32-интерфейс для Win NT/2000

Выходной формат : Внутренние WAV-операции
Формат сэмплов  : 44.100 Гц; 16 бит; стерео

TOC извлечённого CD

     Трек |   Старт  | Длительность | Начальный сектор | Конечный сектор
    ---------------------------------------------------------------------
       1  |  0:00.37 |    4:19.05   |          37      |      19466
       2  |  4:19.42 |    4:47.28   |       19467      |      41019
       3  |  9:06.70 |    5:15.15   |       41020      |      64659
       4  | 14:22.10 |    5:27.67   |       64660      |      89251
       5  | 19:50.02 |    3:39.38   |       89252      |     105714
       6  | 23:29.40 |    4:22.65   |      105715      |     125429
       7  | 27:52.30 |    5:40.52   |      125430      |     150981
       8  | 33:33.07 |    5:39.25   |      150982      |     176431
       9  | 39:12.32 |    4:47.35   |      176432      |     197991
      10  | 43:59.67 |    3:39.70   |      197992      |     214486

Характеристики диапазона извлечения и сообщения об ошибках

Выбранный диапазон

     Имя файла E:\1\Kingdom Come - 1988 Kingdom Come {P32P 20157}\ape\Kingdom Come - Kingdom Come (P32P 20157).wav

     Пиковый уровень 93.3 %
     Скорость извлечения 4.0 X
     Качество диапазона 99.9 %
     CRC теста 07BDF758
     CRC копии 07BDF758
     Копирование... OK

Ошибок не произошло

Конец отчёта

==== Контрольная сумма отчёта 88319AFCC95D4AB63D931BC731FC0CA374696A33E64ABA942220AE806E722A2A ====
James Kottak - Drums
Rick Steier - Rhytm Guitar
Lenny Wolf - Vocals
Johnny B. Frank - Bass Guitar
Danny Stag - Lead Guitar
загрузка...
Правила, инструкции, FAQ!!!
Торрент  Добавлен [05 сен 2016, 20:38] Скачать торрент Магнет ссылка
Скачать торрент
[ Размер 12.78 КБ / Просмотров 8 ]

Статус
Проверен 
 
Размер  302.15 МБ
Приватный: Нет (DHT включён)
.torrent скачан  1
Как залить торрент? | Как скачать Torrent? | Как смотреть и слушать онлайн?  


     Отправить личное сообщение
   
Страница 1 из 1
Показать сообщения за:  Поле сортировки  
Начать новую тему Ответить на тему

   Похожие торренты   Автор   Ответы   Просмотры   Последнее сообщение 
В этой теме нет новых непрочитанных сообщений. Скачать торрент Проверен (Hard Rock) [LP] [32/192] Kingdom Come - Kingdom Come [First Press] - 1988, WavPack (image+.cue)

в форуме Зарубежный рок (оцифровки), Размер: 2.46 ГБ, Здоровье: 100%

Anonymous

0
20|6

37
3

27 авг 2016, 09:58

Anonymous Перейти к последнему сообщению

В этой теме нет новых непрочитанных сообщений. Скачать торрент Проверен (Hard Rock) [LP] [24/192] Kingdom Come - Kingdom Come - 1988, FLAC (image+.cue)

в форуме Зарубежный рок (оцифровки), Размер: 1.96 ГБ, Здоровье: 100%

Anonymous

0
35|4

28
4

26 авг 2016, 09:09

Anonymous Перейти к последнему сообщению

В этой теме нет новых непрочитанных сообщений. Скачать торрент Проверен (Rock) Kingdom Come - Kingdom Come - 1988 (2002), WavPack (iso.wv), lossless

в форуме Classic Rock & Hard Rock, Размер: 305.6 МБ, Здоровье: 100%

Anonymous

0
2|1

14
0

05 сен 2016, 18:43

Anonymous Перейти к последнему сообщению

В этой теме нет новых непрочитанных сообщений. Скачать торрент Проверен Kingdom Come - The Best Of Kingdom Come (2003) 20th Century Masters The Millennium Collection, Compilation [FLAC|Lossless|image + .cue] <Hard Rock>

в форуме Рок, Панк, Метал, Альтернатива, Размер: 343.23 МБ, Здоровье: 68%

Гость

0
42|61

115
5

17 фев 2016, 21:27

Гость Перейти к последнему сообщению

В этой теме нет новых непрочитанных сообщений. Скачать торрент Проверен (Traditional Heavy Metal) The Kingdom - The Kingdom - 1988, MP3, 320 kbps

в форуме Heavy, Power, Progressive (Metal), Размер: 88.11 МБ, Здоровье: 0%

Anonymous

0
0|0

21
0

09 окт 2016, 13:28

Anonymous Перейти к последнему сообщению



Сейчас этот форум просматривают: нет зарегистрированных пользователей и гости: 1


Вы не можете начинать темы
Вы не можете отвечать на сообщения
Вы не можете редактировать свои сообщения
Вы не можете удалять свои сообщения
Вы не можете добавлять вложения

Перейти:  

!ВНИМАНИЕ!
 Ресурс не предоставляет электронные версии произведений, а занимается лишь коллекционированием и каталогизацией ссылок, присылаемых и публикуемых на форуме нашими читателями. Если вы являетесь правообладателем какого-либо представленного материала и не желаете чтобы ссылка на него находилась в нашем каталоге, свяжитесь с нами и мы незамедлительно удалим её. Файлы для обмена на трекере предоставлены пользователями сайта, и администрация не несёт ответственности за их содержание. Просьба не заливать файлы, защищенные авторскими правами, а также файлы нелегального содержания!