На всех торрентах на трекере установлена скидка на скачивание в размере 100 процентов(а).
 Возможность скачивания торрента НЕ зависит от ограничений при низком ратио, низком аплоаде, требуемом ратио или требуемом аплоаде.


Начать новую тему Ответить на тему
Статистика раздачи
Размер: 283.57 МБ | Добавлен: 05 авг 2018, 09:26 | Скачали: 0
Сидеров: 6  [0 байт/сек]    Личеров: 1  [0 байт/сек]
Пред. тема | След. тема 

Автор
Сообщение

СообщениеДобавлено: 05 авг 2018, 09:27 

Ответить с цитатой 

Golden Earring / Cut
Жанр: Hard Rock
Носитель: CD
Год издания: 1994
Издатель (лейбл): Castle Communications
Номер по каталогу: CSC 7086 (374 07086)
Аудиокодек: FLAC (*.flac)
Тип рипа: tracks+.cue
Битрейт аудио: lossless
Продолжительность: 38:38
Источник (релизер): обмен
Наличие сканов в содержимом раздачи: да
Треклист:
01. Golden Earring - The Devil Made Me Do It (3:26)
02. Golden Earring - Future (5:25)
03. Golden Earring - Baby Dynamite (5:16)
04. Golden Earring - Last Of The Mohicans (4:10)
05. Golden Earring - Lost And Found (4:00)
06. Golden Earring - Twilight Zone (7:58)
07. Golden Earring - Chargin' Up My Batteries (4:18)
08. Golden Earring - Secrets (4:05)
Код:
Exact Audio Copy V1.0 beta 3 from 29. August 2011
EAC extraction logfile from 13. September 2014, 18:41
Golden Earring / Cut
Used drive  : ASUS    DRW-20B1LT   Adapter: 2  ID: 0
Read mode               : Secure
Utilize accurate stream : Yes
Defeat audio cache      : Yes
Make use of C2 pointers : No
Read offset correction                      : 6
Overread into Lead-In and Lead-Out          : No
Fill up missing offset samples with silence : Yes
Delete leading and trailing silent blocks   : No
Null samples used in CRC calculations       : Yes
Used interface                              : Native Win32 interface for Win NT & 2000
Gap handling                                : Appended to previous track
Used output format              : User Defined Encoder
Selected bitrate                : 320 kBit/s
Quality                         : High
Add ID3 tag                     : No
Command line compressor         : C:\Program Files\FLAC\flac.exe
Additional command line options : -8 -V -T "ARTIST=%artist%" -T "TITLE=%title%" -T "ALBUM=%albumtitle%" -T "DATE=%year%" -T "TRACKNUMBER=%tracknr%" -T "GENRE=%genre%" -T "COMMENT=EAC FLAC -8" %source%
TOC of the extracted CD
     Track |   Start  |  Length  | Start sector | End sector
    ---------------------------------------------------------
        1  |  0:00.00 |  3:25.52 |         0    |    15426
        2  |  3:25.52 |  5:25.30 |     15427    |    39831
        3  |  8:51.07 |  5:15.53 |     39832    |    63509
        4  | 14:06.60 |  4:10.17 |     63510    |    82276
        5  | 18:17.02 |  3:59.65 |     82277    |   100266
        6  | 22:16.67 |  7:58.00 |    100267    |   136116
        7  | 30:14.67 |  4:17.50 |    136117    |   155441
        8  | 34:32.42 |  4:05.33 |    155442    |   173849
Track  1
     Filename K:\EACrips\Golden Earring - Cut\01 - The Devil Made Me Do It.wav
     Pre-gap length  0:00:02.00
     Peak level 98.4 %
     Extraction speed 3.7 X
     Track quality 100.0 %
     Test CRC 290CF91C
     Copy CRC 290CF91C
     Accurately ripped (confidence 2)  [248053AE]  (AR v2)
     Copy OK
Track  2
     Filename K:\EACrips\Golden Earring - Cut\02 - Future.wav
     Pre-gap length  0:00:02.57
     Peak level 98.4 %
     Extraction speed 4.4 X
     Track quality 100.0 %
     Test CRC 6FDD6632
     Copy CRC 6FDD6632
     Accurately ripped (confidence 2)  [6C989542]  (AR v2)
     Copy OK
Track  3
     Filename K:\EACrips\Golden Earring - Cut\03 - Baby Dynamite.wav
     Pre-gap length  0:00:03.57
     Peak level 98.4 %
     Extraction speed 4.1 X
     Track quality 99.9 %
     Test CRC DE4B8BB4
     Copy CRC DE4B8BB4
     Accurately ripped (confidence 2)  [809C343F]  (AR v2)
     Copy OK
Track  4
     Filename K:\EACrips\Golden Earring - Cut\04 - Last Of The Mohicans.wav
     Pre-gap length  0:00:04.43
     Peak level 98.4 %
     Extraction speed 5.1 X
     Track quality 100.0 %
     Test CRC 37F7AF45
     Copy CRC 37F7AF45
     Accurately ripped (confidence 2)  [22C147B1]  (AR v2)
     Copy OK
Track  5
     Filename K:\EACrips\Golden Earring - Cut\05 - Lost And Found.wav
     Pre-gap length  0:00:03.02
     Peak level 98.4 %
     Extraction speed 5.3 X
     Track quality 100.0 %
     Test CRC 1F6CCB7F
     Copy CRC 1F6CCB7F
     Accurately ripped (confidence 2)  [2ED51C6C]  (AR v2)
     Copy OK
Track  6
     Filename K:\EACrips\Golden Earring - Cut\06 - Twilight Zone.wav
     Pre-gap length  0:00:03.42
     Peak level 98.4 %
     Extraction speed 6.2 X
     Track quality 100.0 %
     Test CRC 928912B6
     Copy CRC 928912B6
     Accurately ripped (confidence 2)  [82422946]  (AR v2)
     Copy OK
Track  7
     Filename K:\EACrips\Golden Earring - Cut\07 - Chargin' Up My Batteries.wav
     Pre-gap length  0:00:02.40
     Peak level 98.4 %
     Extraction speed 6.2 X
     Track quality 100.0 %
     Test CRC 5BCBBB91
     Copy CRC 5BCBBB91
     Accurately ripped (confidence 2)  [56BDFBED]  (AR v2)
     Copy OK
Track  8
     Filename K:\EACrips\Golden Earring - Cut\08 - Secrets.wav
     Peak level 98.4 %
     Extraction speed 6.4 X
     Track quality 100.0 %
     Test CRC D69AD4C1
     Copy CRC D69AD4C1
     Accurately ripped (confidence 2)  [C09DBB7C]  (AR v2)
     Copy OK
All tracks accurately ripped
No errors occurred
End of status report
==== Log checksum B57530AA5D56D81B05C228A8B8A9317138C8D5401AAA6D547A22FBA518CAA59B ====
Код:
REM GENRE Rock
REM DATE 1982
REM DISCID 69090E08
REM COMMENT "ExactAudioCopy v1.0b3"
PERFORMER "Golden Earring"
TITLE "Cut"
FILE "01 - The Devil Made Me Do It.wav" WAVE
  TRACK 01 AUDIO
    TITLE "The Devil Made Me Do It"
    PERFORMER "Golden Earring"
    INDEX 01 00:00:00
  TRACK 02 AUDIO
    TITLE "Future"
    PERFORMER "Golden Earring"
    INDEX 00 03:22:70
FILE "02 - Future.wav" WAVE
    INDEX 01 00:00:00
  TRACK 03 AUDIO
    TITLE "Baby Dynamite"
    PERFORMER "Golden Earring"
    INDEX 00 05:21:48
FILE "03 - Baby Dynamite.wav" WAVE
    INDEX 01 00:00:00
  TRACK 04 AUDIO
    TITLE "Last Of The Mohicans"
    PERFORMER "Golden Earring"
    INDEX 00 05:11:10
FILE "04 - Last Of The Mohicans.wav" WAVE
    INDEX 01 00:00:00
  TRACK 05 AUDIO
    TITLE "Lost And Found"
    PERFORMER "Golden Earring"
    INDEX 00 04:07:15
FILE "05 - Lost And Found.wav" WAVE
    INDEX 01 00:00:00
  TRACK 06 AUDIO
    TITLE "Twilight Zone"
    PERFORMER "Golden Earring"
    INDEX 00 03:56:23
FILE "06 - Twilight Zone.wav" WAVE
    INDEX 01 00:00:00
  TRACK 07 AUDIO
    TITLE "Chargin' Up My Batteries"
    PERFORMER "Golden Earring"
    INDEX 00 07:55:35
FILE "07 - Chargin' Up My Batteries.wav" WAVE
    INDEX 01 00:00:00
FILE "08 - Secrets.wav" WAVE
  TRACK 08 AUDIO
    TITLE "Secrets"
    PERFORMER "Golden Earring"
    INDEX 01 00:00:00
загрузка...
Правила, инструкции, FAQ!!!
Торрент  Добавлен [05 авг 2018, 09:26] Скачать торрент Магнет ссылка
Скачать торрент
[ Размер 12.46 КБ / Просмотров 26 ]

Статус
Проверен 
 
Размер  283.57 МБ
Приватный: Нет (DHT включён)
.torrent скачан  0
Как залить торрент? | Как скачать Torrent? | Ошибка в торренте? Качайте магнет  


     Отправить личное сообщение
   
Страница 1 из 1
Показать сообщения за:  Поле сортировки  
Начать новую тему Ответить на тему

   Похожие торренты   Автор   Ответы   Просмотры   Последнее сообщение 
В этой теме нет новых непрочитанных сообщений. Скачать торрент Проверен (Rock) Golden Earring - 4 Albums (1982, 1991, 1994, 1995) , FLAC (image+.cue), lossless

в форуме Classic Rock & Hard Rock, Размер: 1.17 ГБ, Здоровье: 100%

Anonymous

0
13|3

19
1

04 сен 2016, 22:31

Anonymous Перейти к последнему сообщению

В этой теме нет новых непрочитанных сообщений. Скачать торрент Проверен (Hard Rock, Progressive Rock) Golden Earring - Golden Earring - 1970, FLAC (image+.cue) lossless

в форуме Classic Rock & Hard Rock, Размер: 271.96 МБ, Здоровье: 100%

Anonymous

0
8|4

64
0

05 сен 2016, 20:19

Anonymous Перейти к последнему сообщению

В этой теме нет новых непрочитанных сообщений. Скачать торрент Проверен (Hard Rock) Golden Earring - Cut - 1982 (2010), FLAC (image+.cue), lossless

в форуме Classic Rock & Hard Rock, Размер: 258.67 МБ, Здоровье: 0%

Anonymous

0
0|0

36
1

04 сен 2016, 22:50

Anonymous Перейти к последнему сообщению

В этой теме нет новых непрочитанных сообщений. Скачать торрент Проверен (Progressive Rock)[LP][24/192] Golden Earring - Golden Earring (aka Wall of Dolls) - 1971,(Canadian 1'st press) FLAC (image+.cue)

в форуме Зарубежный рок (оцифровки), Размер: 1.49 ГБ, Здоровье: 100%

Anonymous

0
2|1

66
1

26 авг 2016, 19:14

Anonymous Перейти к последнему сообщению

В этой теме нет новых непрочитанных сообщений. Скачать торрент Проверен (Rock, Hard Rock) Golden Earring - The Hole - 1986 (Castle CSC 7088 CT Netherlands 1994), FLAC (image+.cue), lossless

в форуме Classic Rock & Hard Rock, Размер: 326.6 МБ, Здоровье: 0%

Anonymous

0
0|0

2
0

04 сен 2016, 22:51

Anonymous Перейти к последнему сообщению



Сейчас этот форум просматривают: нет зарегистрированных пользователей и гости: 1


Вы не можете начинать темы
Вы не можете отвечать на сообщения
Вы не можете редактировать свои сообщения
Вы не можете удалять свои сообщения
Вы не можете добавлять вложения

Перейти:  
Ресурс не предоставляет электронные версии произведений, а занимается лишь коллекционированием и каталогизацией ссылок, присылаемых и публикуемых на форуме нашими читателями. Если вы являетесь правообладателем какого-либо представленного материала и не желаете чтобы ссылка на него находилась в нашем каталоге, свяжитесь с нами и мы незамедлительно удалим её. Файлы для обмена на трекере предоставлены пользователями сайта, и администрация не несёт ответственности за их содержание. Просьба не заливать файлы, защищенные авторскими правами, а также файлы нелегального содержания!
cron