На всех торрентах на трекере установлена скидка на скачивание в размере 100 процентов(а).
 Возможность скачивания торрента НЕ зависит от ограничений при низком ратио, низком аплоаде, требуемом ратио или требуемом аплоаде.


Начать новую тему Ответить на тему
Статистика раздачи
Размер: 303.55 МБ | Добавлен: 05 авг 2018, 09:25 | Скачали: 0
Сидеров: 6  [0 байт/сек]    Личеров: 1  [0 байт/сек]
Пред. тема | След. тема 

Автор
Сообщение

СообщениеДобавлено: 05 авг 2018, 09:25 

Ответить с цитатой 

Fastway / Fastway
Жанр: Hard Rock
Носитель: CD
Страна-производитель диска (релиза): USA
Год издания: 1989
Издатель (лейбл): Columbia
Номер по каталогу: CK 38662 (DIDP 070042)
Аудиокодек: FLAC (*.flac)
Тип рипа: tracks+.cue
Битрейт аудио: lossless
Продолжительность: 00:42:16
Источник (релизер): обмен
Наличие сканов в содержимом раздачи: да
Треклист:
01. Fastway - Easy Livin' (2:47)
02. Fastway - Feel Me, Touch Me (Do Anything You Want) (3:28)
03. Fastway - All I Need Is Your Love (2:33)
04. Fastway - Another Day (4:42)
05. Fastway - Heft! (5:39)
06. Fastway - We Become One (3:59)
07. Fastway - Give It All You Got (3:02)
08. Fastway - Say What You Will (3:20)
09. Fastway - You Got Me Runnin' (3:04)
10. Fastway - Give It Some Action (4:12)
11. Fastway - Far Far From Home (5:30)
Код:
Exact Audio Copy V1.0 beta 1 from 15. November 2010
EAC extraction logfile from 23. June 2013, 17:35
Fastway / Fastway
Used drive  : ASUS    DRW-20B1LT   Adapter: 1  ID: 1
Read mode               : Secure
Utilize accurate stream : Yes
Defeat audio cache      : Yes
Make use of C2 pointers : No
Read offset correction                      : 6
Overread into Lead-In and Lead-Out          : No
Fill up missing offset samples with silence : Yes
Delete leading and trailing silent blocks   : No
Null samples used in CRC calculations       : Yes
Used interface                              : Native Win32 interface for Win NT & 2000
Gap handling                                : Appended to previous track
Used output format              : User Defined Encoder
Selected bitrate                : 320 kBit/s
Quality                         : High
Add ID3 tag                     : No
Command line compressor         : C:\Program Files\FLAC\flac.exe
Additional command line options : -8 -V -T "ARTIST=%a" -T "TITLE=%t" -T "ALBUM=%g" -T "DATE=%y" -T "TRACKNUMBER=%n" -T "GENRE=%m" -T "COMMENT=EAC FLAC -8" %s
TOC of the extracted CD
     Track |   Start  |  Length  | Start sector | End sector
    ---------------------------------------------------------
        1  |  0:00.00 |  2:47.15 |         0    |    12539
        2  |  2:47.15 |  3:27.72 |     12540    |    28136
        3  |  6:15.12 |  2:32.65 |     28137    |    39601
        4  |  8:48.02 |  4:41.65 |     39602    |    60741
        5  | 13:29.67 |  5:38.63 |     60742    |    86154
        6  | 19:08.55 |  3:59.05 |     86155    |   104084
        7  | 23:07.60 |  3:01.60 |    104085    |   117719
        8  | 26:09.45 |  3:20.32 |    117720    |   132751
        9  | 29:30.02 |  3:04.05 |    132752    |   146556
       10  | 32:34.07 |  4:11.45 |    146557    |   165426
       11  | 36:45.52 |  5:30.18 |    165427    |   190194
Track  1
     Filename K:\EACrips\Fastway - Fastway\01 - Easy Livin'.wav
     Pre-gap length  0:00:02.00
     Peak level 77.5 %
     Extraction speed 3.6 X
     Track quality 100.0 %
     Test CRC 8C6E389C
     Copy CRC 8C6E389C
     Accurately ripped (confidence 3)  [BF8C1E2B]
     Copy OK
Track  2
     Filename K:\EACrips\Fastway - Fastway\02 - Feel Me, Touch Me (Do Anything You Want).wav
     Pre-gap length  0:00:00.03
     Peak level 95.7 %
     Extraction speed 4.1 X
     Track quality 100.0 %
     Test CRC 1032B59B
     Copy CRC 1032B59B
     Accurately ripped (confidence 3)  [C30435C7]
     Copy OK
Track  3
     Filename K:\EACrips\Fastway - Fastway\03 - All I Need Is Your Love.wav
     Pre-gap length  0:00:00.35
     Peak level 96.2 %
     Extraction speed 4.1 X
     Track quality 100.0 %
     Test CRC 3C365D95
     Copy CRC 3C365D95
     Accurately ripped (confidence 3)  [DA188E09]
     Copy OK
Track  4
     Filename K:\EACrips\Fastway - Fastway\04 - Another Day.wav
     Pre-gap length  0:00:01.32
     Peak level 85.0 %
     Extraction speed 4.8 X
     Track quality 100.0 %
     Test CRC 58BF32AB
     Copy CRC 58BF32AB
     Accurately ripped (confidence 3)  [EA8F527E]
     Copy OK
Track  5
     Filename K:\EACrips\Fastway - Fastway\05 - Heft!.wav
     Pre-gap length  0:00:00.72
     Peak level 76.9 %
     Extraction speed 5.4 X
     Track quality 100.0 %
     Test CRC F8DD515A
     Copy CRC F8DD515A
     Accurately ripped (confidence 3)  [E6D8C21A]
     Copy OK
Track  6
     Filename K:\EACrips\Fastway - Fastway\06 - We Become One.wav
     Pre-gap length  0:00:01.08
     Peak level 94.4 %
     Extraction speed 4.4 X
     Track quality 99.9 %
     Test CRC 846251F3
     Copy CRC 846251F3
     Accurately ripped (confidence 3)  [C0241545]
     Copy OK
Track  7
     Filename K:\EACrips\Fastway - Fastway\07 - Give It All You Got.wav
     Pre-gap length  0:00:01.10
     Peak level 90.6 %
     Extraction speed 5.4 X
     Track quality 100.0 %
     Test CRC ADE28A3E
     Copy CRC ADE28A3E
     Accurately ripped (confidence 3)  [8F27A3AC]
     Copy OK
Track  8
     Filename K:\EACrips\Fastway - Fastway\08 - Say What You Will.wav
     Pre-gap length  0:00:01.08
     Peak level 88.9 %
     Extraction speed 5.7 X
     Track quality 100.0 %
     Test CRC C750E1CE
     Copy CRC C750E1CE
     Accurately ripped (confidence 3)  [7D48B32D]
     Copy OK
Track  9
     Filename K:\EACrips\Fastway - Fastway\09 - You Got Me Runnin'.wav
     Pre-gap length  0:00:01.00
     Peak level 90.4 %
     Extraction speed 5.8 X
     Track quality 100.0 %
     Test CRC EBA91D73
     Copy CRC EBA91D73
     Accurately ripped (confidence 3)  [FB2A29B8]
     Copy OK
Track 10
     Filename K:\EACrips\Fastway - Fastway\10 - Give It Some Action.wav
     Pre-gap length  0:00:00.32
     Peak level 81.7 %
     Extraction speed 6.3 X
     Track quality 100.0 %
     Test CRC AC353032
     Copy CRC AC353032
     Accurately ripped (confidence 3)  [60E0C82A]
     Copy OK
Track 11
     Filename K:\EACrips\Fastway - Fastway\11 - Far Far From Home.wav
     Pre-gap length  0:00:00.02
     Peak level 91.6 %
     Extraction speed 6.9 X
     Track quality 100.0 %
     Test CRC 8F8B5747
     Copy CRC 8F8B5747
     Accurately ripped (confidence 3)  [F73AFC5E]
     Copy OK
All tracks accurately ripped
No errors occurred
End of status report
==== Log checksum EAE9B2AA9DC67D67C5A3B83D9B76F482695D88F69235C5C9D094323DF1ABEFFA ====
Код:
REM GENRE "Hard Rock"
REM DATE 1983
REM DISCID 9009E70B
REM COMMENT "ExactAudioCopy v1.0b1"
PERFORMER "Fastway"
TITLE "Fastway"
FILE "01 - Easy Livin'.wav" WAVE
  TRACK 01 AUDIO
    TITLE "Easy Livin'"
    PERFORMER "Fastway"
    INDEX 01 00:00:00
  TRACK 02 AUDIO
    TITLE "Feel Me, Touch Me (Do Anything You Want)"
    PERFORMER "Fastway"
    INDEX 00 02:47:12
FILE "02 - Feel Me, Touch Me (Do Anything You Want).wav" WAVE
    INDEX 01 00:00:00
  TRACK 03 AUDIO
    TITLE "All I Need Is Your Love"
    PERFORMER "Fastway"
    INDEX 00 03:27:37
FILE "03 - All I Need Is Your Love.wav" WAVE
    INDEX 01 00:00:00
  TRACK 04 AUDIO
    TITLE "Another Day"
    PERFORMER "Fastway"
    INDEX 00 02:31:33
FILE "04 - Another Day.wav" WAVE
    INDEX 01 00:00:00
  TRACK 05 AUDIO
    TITLE "Heft!"
    PERFORMER "Fastway"
    INDEX 00 04:40:68
FILE "05 - Heft!.wav" WAVE
    INDEX 01 00:00:00
  TRACK 06 AUDIO
    TITLE "We Become One"
    PERFORMER "Fastway"
    INDEX 00 05:37:55
FILE "06 - We Become One.wav" WAVE
    INDEX 01 00:00:00
  TRACK 07 AUDIO
    TITLE "Give It All You Got"
    PERFORMER "Fastway"
    INDEX 00 03:57:70
FILE "07 - Give It All You Got.wav" WAVE
    INDEX 01 00:00:00
  TRACK 08 AUDIO
    TITLE "Say What You Will"
    PERFORMER "Fastway"
    INDEX 00 03:00:52
FILE "08 - Say What You Will.wav" WAVE
    INDEX 01 00:00:00
  TRACK 09 AUDIO
    TITLE "You Got Me Runnin'"
    PERFORMER "Fastway"
    INDEX 00 03:19:32
FILE "09 - You Got Me Runnin'.wav" WAVE
    INDEX 01 00:00:00
  TRACK 10 AUDIO
    TITLE "Give It Some Action"
    PERFORMER "Fastway"
    INDEX 00 03:03:48
FILE "10 - Give It Some Action.wav" WAVE
    INDEX 01 00:00:00
  TRACK 11 AUDIO
    TITLE "Far Far From Home"
    PERFORMER "Fastway"
    INDEX 00 04:11:43
FILE "11 - Far Far From Home.wav" WAVE
    INDEX 01 00:00:00
загрузка...
Правила, инструкции, FAQ!!!
Торрент  Добавлен [05 авг 2018, 09:25] Скачать торрент Магнет ссылка
Скачать торрент
[ Размер 13.43 КБ / Просмотров 24 ]

Статус
Проверен 
 
Размер  303.55 МБ
Приватный: Нет (DHT включён)
.torrent скачан  0
Как залить торрент? | Как скачать Torrent? | Ошибка в торренте? Качайте магнет  


     Отправить личное сообщение
   
Страница 1 из 1
Показать сообщения за:  Поле сортировки  
Начать новую тему Ответить на тему

   Похожие торренты   Автор   Ответы   Просмотры   Последнее сообщение 
В этой теме нет новых непрочитанных сообщений. Скачать торрент Проверен (Hard Rock) Fastway - Fastway (1983) - 1989, APE (image+.cue), lossless

в форуме Classic Rock & Hard Rock, Размер: 271.66 МБ, Здоровье: 60%

Anonymous

0
3|5

26
0

04 сен 2016, 22:12

Anonymous Перейти к последнему сообщению

В этой теме нет новых непрочитанных сообщений. Скачать торрент Проверен Fastway - 8 альбомов (1983 - 2011) [FLAC|APE|Lossless]<Hard Rock>

в форуме Рок, Панк, Метал, Альтернатива, Размер: 2.23 ГБ, Здоровье: 18%

Anonymous

0
8|44

98
4

21 июл 2014, 10:44

Anonymous Перейти к последнему сообщению

В этой теме нет новых непрочитанных сообщений. Скачать торрент Проверен (Hard Rock) Fastway - 3CD (Japan Press) - 1983/1984/1985, FLAC (image+.cue), lossless

в форуме Classic Rock & Hard Rock, Размер: 810.23 МБ, Здоровье: 100%

Anonymous

0
9|4

53
3

04 сен 2016, 22:12

Anonymous Перейти к последнему сообщению

В этой теме нет новых непрочитанных сообщений. Скачать торрент Проверен (Hard Rock) Fastway - Eat Dog Eat - 2011, FLAC (tracks+.cue), lossless

в форуме Classic Rock & Hard Rock, Размер: 344.21 МБ, Здоровье: 100%

Anonymous

0
2|1

5
1

04 сен 2016, 18:02

Anonymous Перейти к последнему сообщению

В этой теме нет новых непрочитанных сообщений. Скачать торрент Fastway - 14 альбомов (1983 — 2011) Дискография [MP3|192-320 kbps]<Hard & Heavy>

в форуме Дискографии (Зарубежные), Размер: 1.46 ГБ, Здоровье: 60%

Anonymous

0
6|10

329
1

29 мар 2014, 23:20

Anonymous Перейти к последнему сообщению



Сейчас этот форум просматривают: нет зарегистрированных пользователей и гости: 1


Вы не можете начинать темы
Вы не можете отвечать на сообщения
Вы не можете редактировать свои сообщения
Вы не можете удалять свои сообщения
Вы не можете добавлять вложения

Перейти:  
Ресурс не предоставляет электронные версии произведений, а занимается лишь коллекционированием и каталогизацией ссылок, присылаемых и публикуемых на форуме нашими читателями. Если вы являетесь правообладателем какого-либо представленного материала и не желаете чтобы ссылка на него находилась в нашем каталоге, свяжитесь с нами и мы незамедлительно удалим её. Файлы для обмена на трекере предоставлены пользователями сайта, и администрация не несёт ответственности за их содержание. Просьба не заливать файлы, защищенные авторскими правами, а также файлы нелегального содержания!
cron