На всех торрентах на трекере установлена скидка на скачивание в размере 100 процентов(а).
 Возможность скачивания торрента НЕ зависит от ограничений при низком ратио, низком аплоаде, требуемом ратио или требуемом аплоаде.


Начать новую тему Ответить на тему
Статистика раздачи
Размер: 341.11 МБ | Добавлен: 05 авг 2018, 09:22 | Скачали: 0
Сидеров: 3  [0 байт/сек]    Личеров: 0  [0 байт/сек]
Пред. тема | След. тема 

Автор
Сообщение

СообщениеДобавлено: 05 авг 2018, 09:22 

Ответить с цитатой 

The Virginmarys - King of Conflict -
2013
Жанр: Hard Rock, Alternative, Indie, Punk
Год издания: 2013
Издатель (лейбл): Wind-up Records
Номер по каталогу: 60150-13349-2
Страна: United Kingdom
Аудиокодек: FLAC (*.flac)
Тип рипа: tracks+.cue
Битрейт аудио: lossless
Продолжительность: 00:54:34
Источник (релизер): Fallstonite
Наличие сканов в содержимом раздачи: нет
Треклист:
01. Dead Man's Shoes 3:32
02. Portrait of Red 3:30
03. Just a Ride 3:16
04. Out of Mind 3:44
05. Bang Bang Bang 4:10
06. Lost Weekend 3:15
07. Running For My Life 4:12
08. Dressed To Kill 3:49
09. My Little Girl 3:11
10. Takin' the Blame 3:35
11. You've Got Your Money, I've Got My Soul 3:38
12. Ends Don't Mend (Includes Hidden Track) 14:42
Код:
Exact Audio Copy V1.0 beta 3 from 29. August 2011
EAC extraction logfile from 22. February 2013, 16:04
The Virginmarys / King of Conflict
Used drive  : HL-DT-STDVDRWBD CA10N   Adapter: 1  ID: 0
Read mode               : Secure
Utilize accurate stream : Yes
Defeat audio cache      : Yes
Make use of C2 pointers : No
Read offset correction                      : 667
Overread into Lead-In and Lead-Out          : No
Fill up missing offset samples with silence : Yes
Delete leading and trailing silent blocks   : No
Null samples used in CRC calculations       : Yes
Used interface                              : Native Win32 interface for Win NT & 2000
Gap handling                                : Appended to previous track
Used output format              : User Defined Encoder
Selected bitrate                : 1024 kBit/s
Quality                         : High
Add ID3 tag                     : No
Command line compressor         : C:\Program Files (x86)\Exact Audio Copy\FLAC\FLAC.EXE
Additional command line options : -6 -V -T "ARTIST=%artist%" -T "TITLE=%title%" -T "ALBUM=%albumtitle%" -T "DATE=%year%" -T "TRACKNUMBER=%tracknr%" -T "GENRE=%genre%" -T "COMMENT=%comment%" %hascover%--picture="%coverfile%"%hascover% %source% -o %dest%
TOC of the extracted CD
     Track |   Start  |  Length  | Start sector | End sector
    ---------------------------------------------------------
        1  |  0:00.00 |  3:33.55 |         0    |    16029
        2  |  3:33.55 |  3:30.71 |     16030    |    31850
        3  |  7:04.51 |  3:15.55 |     31851    |    46530
        4  | 10:20.31 |  3:44.52 |     46531    |    63382
        5  | 14:05.08 |  4:11.05 |     63383    |    82212
        6  | 18:16.13 |  3:13.29 |     82213    |    96716
        7  | 21:29.42 |  4:10.64 |     96717    |   115530
        8  | 25:40.31 |  3:49.07 |    115531    |   132712
        9  | 29:29.38 |  3:11.37 |    132713    |   147074
       10  | 32:41.00 |  3:33.68 |    147075    |   163117
       11  | 36:14.68 |  3:37.34 |    163118    |   179426
       12  | 39:52.27 | 14:41.37 |    179427    |   245538
Track  1
     Filename C:\EAC\The Virginmarys - King of Conflict\01 - Dead Man's Shoes.wav
     Pre-gap length  0:00:02.00
     Peak level 100.0 %
     Extraction speed 2.8 X
     Track quality 100.0 %
     Test CRC 0C3C2F94
     Copy CRC 0C3C2F94
     Track not present in AccurateRip database
     Copy OK
Track  2
     Filename C:\EAC\The Virginmarys - King of Conflict\02 - Portrait Of Red.wav
     Peak level 100.0 %
     Extraction speed 3.1 X
     Track quality 100.0 %
     Test CRC 9EEE9F94
     Copy CRC 9EEE9F94
     Track not present in AccurateRip database
     Copy OK
Track  3
     Filename C:\EAC\The Virginmarys - King of Conflict\03 - Just A Ride.wav
     Peak level 100.0 %
     Extraction speed 3.3 X
     Track quality 100.0 %
     Test CRC C6F48515
     Copy CRC C6F48515
     Track not present in AccurateRip database
     Copy OK
Track  4
     Filename C:\EAC\The Virginmarys - King of Conflict\04 - Out Of Mind.wav
     Peak level 100.0 %
     Extraction speed 3.6 X
     Track quality 100.0 %
     Test CRC 6943051C
     Copy CRC 6943051C
     Track not present in AccurateRip database
     Copy OK
Track  5
     Filename C:\EAC\The Virginmarys - King of Conflict\05 - Bang Bang Bang.wav
     Peak level 100.0 %
     Extraction speed 3.9 X
     Track quality 100.0 %
     Test CRC DBE60D29
     Copy CRC DBE60D29
     Track not present in AccurateRip database
     Copy OK
Track  6
     Filename C:\EAC\The Virginmarys - King of Conflict\06 - Lost Weekend.wav
     Peak level 100.0 %
     Extraction speed 3.9 X
     Track quality 100.0 %
     Test CRC 166436DD
     Copy CRC 166436DD
     Track not present in AccurateRip database
     Copy OK
Track  7
     Filename C:\EAC\The Virginmarys - King of Conflict\07 - Running For My Life.wav
     Peak level 100.0 %
     Extraction speed 4.3 X
     Track quality 100.0 %
     Test CRC B8C775A1
     Copy CRC B8C775A1
     Track not present in AccurateRip database
     Copy OK
Track  8
     Filename C:\EAC\The Virginmarys - King of Conflict\08 - Dressed To Kill.wav
     Peak level 100.0 %
     Extraction speed 3.7 X
     Track quality 99.9 %
     Test CRC 7E8FA0ED
     Copy CRC 7E8FA0ED
     Track not present in AccurateRip database
     Copy OK
Track  9
     Filename C:\EAC\The Virginmarys - King of Conflict\09 - My Little Girl.wav
     Peak level 100.0 %
     Extraction speed 4.5 X
     Track quality 100.0 %
     Test CRC E24C76D8
     Copy CRC E24C76D8
     Track not present in AccurateRip database
     Copy OK
Track 10
     Filename C:\EAC\The Virginmarys - King of Conflict\10 - Takin' The Blame.wav
     Peak level 100.0 %
     Extraction speed 4.7 X
     Track quality 100.0 %
     Test CRC 01BFDD62
     Copy CRC 01BFDD62
     Track not present in AccurateRip database
     Copy OK
Track 11
     Filename C:\EAC\The Virginmarys - King of Conflict\11 - You've Got Your Money, I've Got My Soul.wav
     Peak level 100.0 %
     Extraction speed 4.1 X
     Track quality 99.9 %
     Test CRC 7CD20283
     Copy CRC 7CD20283
     Track not present in AccurateRip database
     Copy OK
Track 12
     Filename C:\EAC\The Virginmarys - King of Conflict\12 - Ends Don't Mend.wav
     Peak level 100.0 %
     Extraction speed 5.6 X
     Track quality 99.9 %
     Test CRC 12721056
     Copy CRC 12721056
     Track not present in AccurateRip database
     Copy OK
None of the tracks are present in the AccurateRip database
No errors occurred
End of status report
---- CUETools DB Plugin V2.1.3
[CTDB TOCID: NS0aCyfqVW65_cp7eFbz3czeXHk-] disk not present in database, Submit result: NS0aCyfqVW65_cp7eFbz3czeXHk- has been uploaded
==== Log checksum 0C0E37F4B9A043479FAF05AFDA191B3AC6CEFBBE3D3FCCE7F6EEFFFF2CE8E4EF ====
Код:
REM GENRE Indie
REM DATE 2013
REM DISCID A30CC90C
REM COMMENT "ExactAudioCopy v1.0b3"
PERFORMER "The Virginmarys"
TITLE "King of Conflict"
FILE "01 - Dead Man's Shoes.flac" WAVE
  TRACK 01 AUDIO
    TITLE "Dead Man's Shoes"
    PERFORMER "The Virginmarys"
    INDEX 01 00:00:00
FILE "02 - Portrait Of Red.flac" WAVE
  TRACK 02 AUDIO
    TITLE "Portrait Of Red"
    PERFORMER "The Virginmarys"
    INDEX 01 00:00:00
FILE "03 - Just A Ride.flac" WAVE
  TRACK 03 AUDIO
    TITLE "Just A Ride"
    PERFORMER "The Virginmarys"
    INDEX 01 00:00:00
FILE "04 - Out Of Mind.flac" WAVE
  TRACK 04 AUDIO
    TITLE "Out Of Mind"
    PERFORMER "The Virginmarys"
    INDEX 01 00:00:00
FILE "05 - Bang Bang Bang.flac" WAVE
  TRACK 05 AUDIO
    TITLE "Bang Bang Bang"
    PERFORMER "The Virginmarys"
    INDEX 01 00:00:00
FILE "06 - Lost Weekend.flac" WAVE
  TRACK 06 AUDIO
    TITLE "Lost Weekend"
    PERFORMER "The Virginmarys"
    INDEX 01 00:00:00
FILE "07 - Running For My Life.flac" WAVE
  TRACK 07 AUDIO
    TITLE "Running For My Life"
    PERFORMER "The Virginmarys"
    INDEX 01 00:00:00
FILE "08 - Dressed To Kill.flac" WAVE
  TRACK 08 AUDIO
    TITLE "Dressed To Kill"
    PERFORMER "The Virginmarys"
    INDEX 01 00:00:00
FILE "09 - My Little Girl.flac" WAVE
  TRACK 09 AUDIO
    TITLE "My Little Girl"
    PERFORMER "The Virginmarys"
    INDEX 01 00:00:00
FILE "10 - Takin' The Blame.flac" WAVE
  TRACK 10 AUDIO
    TITLE "Takin' The Blame"
    PERFORMER "The Virginmarys"
    INDEX 01 00:00:00
FILE "11 - You've Got Your Money, I've Got My Soul.flac" WAVE
  TRACK 11 AUDIO
    TITLE "You've Got Your Money, I've Got My Soul"
    PERFORMER "The Virginmarys"
    INDEX 01 00:00:00
FILE "12 - Ends Don't Mend.flac" WAVE
  TRACK 12 AUDIO
    TITLE "Ends Don't Mend"
    PERFORMER "The Virginmarys"
    INDEX 01 00:00:00
Ally Dickaty - Guitar/Vocals
Danny Dolan - Drums
Matt Rose - Bass/Vocals
загрузка...
Правила, инструкции, FAQ!!!
Торрент  Добавлен [05 авг 2018, 09:22] Скачать торрент Магнет ссылка
Скачать торрент
[ Размер 14.74 КБ / Просмотров 38 ]

Статус
Проверен 
 
Размер  341.11 МБ
Приватный: Нет (DHT включён)
.torrent скачан  0
Как залить торрент? | Как скачать Torrent? | Ошибка в торренте? Качайте магнет  


     Отправить личное сообщение
   
Страница 1 из 1
Показать сообщения за:  Поле сортировки  
Начать новую тему Ответить на тему

   Похожие торренты   Автор   Ответы   Просмотры   Последнее сообщение 
В этой теме нет новых непрочитанных сообщений. Скачать торрент Проверен The Virginmarys - King Of Conflict (Deluxe Edition) (2013) [MP3|320 кб/с]<Hard Rock, Alt. Rock, Indie Rock>

в форуме Рок, Панк, Метал, Альтернатива, Размер: 216.48 МБ, Здоровье: 100%

Anonymous

0
263|6

38
1

29 июл 2014, 22:14

Anonymous Перейти к последнему сообщению

В этой теме нет новых непрочитанных сообщений. Скачать торрент Проверен (Hard Rock, Alternative, Indie, Punk) [WEB] The Virginmarys - Divides - 2016, FLAC (tracks), lossless

в форуме Classic Rock & Hard Rock, Размер: 328.77 МБ, Здоровье: 100%

Anonymous

0
8|2

10
0

03 сен 2016, 16:34

Anonymous Перейти к последнему сообщению

В этой теме нет новых непрочитанных сообщений. Скачать торрент Проверен (Hard Rock,Alternative Rock) [WEB] Josh Todd & The Conflict - Year Of The Tiger - 2017, FLAC (tracks), lossless

в форуме Classic Rock & Hard Rock, Размер: 263.81 МБ, Здоровье: 100%

Anonymous

0
9|3

75
1

17 фев 2018, 09:17

Anonymous Перейти к последнему сообщению

В этой теме нет новых непрочитанных сообщений. Скачать торрент Editors - The Weight of Your Love (2013) Japan Bonus Tracks [FLAC|Lossless]<Alternative Rock, Indie Rock, Post-Punk>

в форуме Рок, Панк, Метал, Альтернатива, Размер: 390.52 МБ, Здоровье: 22%

Anonymous

0
4|18

168
3

16 мар 2014, 01:03

Anonymous Перейти к последнему сообщению

В этой теме нет новых непрочитанных сообщений. Скачать торрент Проверен (Alternative, Indie Rock, Post-Punk) [LP] [24/192] Placebo - Loud Like Love - 2013, FLAC (tracks)

в форуме Зарубежный рок (оцифровки), Размер: 2.18 ГБ, Здоровье: 100%

Anonymous

0
68|4

35
2

27 авг 2016, 10:07

Anonymous Перейти к последнему сообщению



Сейчас этот форум просматривают: нет зарегистрированных пользователей и гости: 1


Вы не можете начинать темы
Вы не можете отвечать на сообщения
Вы не можете редактировать свои сообщения
Вы не можете удалять свои сообщения
Вы не можете добавлять вложения

Перейти:  
Ресурс не предоставляет электронные версии произведений, а занимается лишь коллекционированием и каталогизацией ссылок, присылаемых и публикуемых на форуме нашими читателями. Если вы являетесь правообладателем какого-либо представленного материала и не желаете чтобы ссылка на него находилась в нашем каталоге, свяжитесь с нами и мы незамедлительно удалим её. Файлы для обмена на трекере предоставлены пользователями сайта, и администрация не несёт ответственности за их содержание. Просьба не заливать файлы, защищенные авторскими правами, а также файлы нелегального содержания!
cron