На всех торрентах на трекере установлена скидка на скачивание в размере 100 процентов(а).
 Возможность скачивания торрента НЕ зависит от ограничений при низком ратио, низком аплоаде, требуемом ратио или требуемом аплоаде.


Начать новую тему Ответить на тему
Статистика раздачи
Размер: 611.48 МБ | Добавлен: 25 фев 2017, 13:42 | Скачали: 0
Сидеров: 5  [0 байт/сек]    Личеров: 1  [0 байт/сек]
Пред. тема | След. тема 

Автор
Сообщение

СообщениеДобавлено: 25 фев 2017, 13:42 

Ответить с цитатой 

Soundgarden / Down on The Upside & Down Under on The Upside

Australia - New Zealand Tour Edition 2CD
Жанр: Grunge, Alt Rock
Носитель: CD
Страна-производитель диска: Australia
Год издания: 1996
Издатель (лейбл): A&M Records, Polydor
Номер по каталогу: 540 683 2
Страна: US, Seattle
Аудиокодек: FLAC (*.flac)
Тип рипа: tracks+.cue
Битрейт аудио: lossless
Продолжительность: 01:35:51
Источник (релизер): What.cd, Pseudonymous
Наличие сканов в содержимом раздачи: нет






Продолжительность: 01:05:55
Треклист:
1-01. Pretty Noose 4:12
1-02. Rhinosaur 3:14
1-03. Zero Chance 4:18
1-04. Dusty 4:34
1-05. Ty Cobb 3:05
Mandolin, Mandolin [Mandola] – Ben Shepherd, Chris Cornell
Performer [20 Seconds Preceeding] – Ben Shepherd

1-06. Blow Up The Outside World 5:46
1-07. Burden In My Hand 4:50
1-08. Never Named 2:28
1-09. Applebite 5:10
Performer [Intro], Piano – Adam Kasper
Synthesizer [Moog] – Matt Cameron

1-10. Never The Machine Forever 3:36
Other [Inspiration] – Greg Gilmore
1-11. Tighter & Tighter 6:06
1-12. No Attention 4:27
1-13. Switch Opens 3:53
1-14. Overfloater 5:09
Electric Piano [Rhodes Piano] – Chris Cornell
1-15. An Unkind 2:08
1-16. Boot Camp 2:59
Код:
Exact Audio Copy V0.99 prebeta 5 from 4. May 2009

EAC extraction logfile from 23. June 2009, 2:21

Soundgarden / Down on The Upside

Used drive  : HL-DT-STDVD-RAM GH10L   Adapter: 0  ID: 1

Read mode               : Secure
Utilize accurate stream : Yes
Defeat audio cache      : Yes
Make use of C2 pointers : No

Read offset correction                      : 667
Overread into Lead-In and Lead-Out          : No
Fill up missing offset samples with silence : Yes
Delete leading and trailing silent blocks   : No
Null samples used in CRC calculations       : Yes
Used interface                              : Native Win32 interface for Win NT & 2000
Gap handling                                : Appended to previous track

Used output format              : User Defined Encoder
Selected bitrate                : 1024 kBit/s
Quality                         : High
Add ID3 tag                     : No
Command line compressor         : C:\Program Files\Exact Audio Copy\FLAC\flac.exe
Additional command line options : -8 -e -V -T "Artist=%a" -T "Date=%y" -T "Album=%g" -T "DiscNumber=1/2" -T "TrackNumber=%n" -T "Title=%t" -T "Genre=%m" -T "AlbumArtist=%a" -T "Composer=" -T "Comment=" -T "Publisher=Pseudonymous / The Soviet Alliance / Soviet.ca" %s --sector-align

TOC of the extracted CD

     Track |   Start  |  Length  | Start sector | End sector
    ---------------------------------------------------------
        1  |  0:00.00 |  4:11.47 |         0    |    18871
        2  |  4:11.47 |  3:14.35 |     18872    |    33456
        3  |  7:26.07 |  4:18.33 |     33457    |    52839
        4  | 11:44.40 |  4:34.10 |     52840    |    73399
        5  | 16:18.50 |  3:05.22 |     73400    |    87296
        6  | 19:23.72 |  5:45.63 |     87297    |   113234
        7  | 25:09.60 |  4:50.07 |    113235    |   134991
        8  | 29:59.67 |  2:27.48 |    134992    |   146064
        9  | 32:27.40 |  5:10.00 |    146065    |   169314
       10  | 37:37.40 |  3:36.30 |    169315    |   185544
       11  | 41:13.70 |  6:06.12 |    185545    |   213006
       12  | 47:20.07 |  4:26.65 |    213007    |   233021
       13  | 51:46.72 |  3:52.65 |    233022    |   250486
       14  | 55:39.62 |  5:08.58 |    250487    |   273644
       15  | 60:48.45 |  2:08.15 |    273645    |   283259
       16  | 62:56.60 |  2:58.65 |    283260    |   296674

Track  1

     Filename X:\Audio\Queue\Soundgarden\1996 - Down on The Upside\01 - Pretty Noose.wav

     Pre-gap length  0:00:02.00

     Peak level 99.8 %
     Track quality 100.0 %
     Test CRC BFFF4B51
     Copy CRC BFFF4B51
     Accurately ripped (confidence 7)  [7B354F27]
     Copy OK

Track  2

     Filename X:\Audio\Queue\Soundgarden\1996 - Down on The Upside\02 - Rhinosaur.wav

     Pre-gap length  0:00:00.02

     Peak level 99.8 %
     Track quality 100.0 %
     Test CRC CF4ECCDC
     Copy CRC CF4ECCDC
     Accurately ripped (confidence 7)  [CD6CB470]
     Copy OK

Track  3

     Filename X:\Audio\Queue\Soundgarden\1996 - Down on The Upside\03 - Zero Chance.wav

     Pre-gap length  0:00:00.05

     Peak level 99.8 %
     Track quality 100.0 %
     Test CRC 214A4E7A
     Copy CRC 214A4E7A
     Accurately ripped (confidence 7)  [C842EEF4]
     Copy OK

Track  4

     Filename X:\Audio\Queue\Soundgarden\1996 - Down on The Upside\04 - Dusty.wav

     Pre-gap length  0:00:00.03

     Peak level 99.8 %
     Track quality 100.0 %
     Test CRC 35F8153C
     Copy CRC 35F8153C
     Accurately ripped (confidence 7)  [F9005B0F]
     Copy OK

Track  5

     Filename X:\Audio\Queue\Soundgarden\1996 - Down on The Upside\05 - Ty Cobb.wav

     Pre-gap length  0:00:00.05

     Peak level 99.8 %
     Track quality 99.9 %
     Test CRC 66A3ABBA
     Copy CRC 66A3ABBA
     Accurately ripped (confidence 7)  [68699B24]
     Copy OK

Track  6

     Filename X:\Audio\Queue\Soundgarden\1996 - Down on The Upside\06 - Blow Up The Outside World.wav

     Pre-gap length  0:00:00.05

     Peak level 99.8 %
     Track quality 100.0 %
     Test CRC 4CDFCB21
     Copy CRC 4CDFCB21
     Accurately ripped (confidence 7)  [F1738F82]
     Copy OK

Track  7

     Filename X:\Audio\Queue\Soundgarden\1996 - Down on The Upside\07 - Burden in My Hand.wav

     Pre-gap length  0:00:00.05

     Peak level 99.8 %
     Track quality 100.0 %
     Test CRC 8C56BA62
     Copy CRC 8C56BA62
     Accurately ripped (confidence 7)  [E4C9AA50]
     Copy OK

Track  8

     Filename X:\Audio\Queue\Soundgarden\1996 - Down on The Upside\08 - Never Named.wav

     Pre-gap length  0:00:00.05

     Peak level 99.8 %
     Track quality 100.0 %
     Test CRC 7AA961E9
     Copy CRC 7AA961E9
     Accurately ripped (confidence 7)  [BD7D2762]
     Copy OK

Track  9

     Filename X:\Audio\Queue\Soundgarden\1996 - Down on The Upside\09 - Applebite.wav

     Pre-gap length  0:00:00.05

     Peak level 99.8 %
     Track quality 100.0 %
     Test CRC 109CB21F
     Copy CRC 109CB21F
     Accurately ripped (confidence 7)  [5286AA5D]
     Copy OK

Track 10

     Filename X:\Audio\Queue\Soundgarden\1996 - Down on The Upside\10 - Never The Machine Forever.wav

     Pre-gap length  0:00:00.05

     Peak level 99.8 %
     Track quality 100.0 %
     Test CRC 8CC5601E
     Copy CRC 8CC5601E
     Accurately ripped (confidence 7)  [C025A12B]
     Copy OK

Track 11

     Filename X:\Audio\Queue\Soundgarden\1996 - Down on The Upside\11 - Tighter and Tighter.wav

     Pre-gap length  0:00:00.03

     Peak level 99.8 %
     Track quality 100.0 %
     Test CRC A435E6D5
     Copy CRC A435E6D5
     Accurately ripped (confidence 7)  [51C4B67E]
     Copy OK

Track 12

     Filename X:\Audio\Queue\Soundgarden\1996 - Down on The Upside\12 - No Attention.wav

     Pre-gap length  0:00:00.05

     Peak level 99.8 %
     Track quality 100.0 %
     Test CRC C013A3C8
     Copy CRC C013A3C8
     Accurately ripped (confidence 7)  [CD2AA9A6]
     Copy OK

Track 13

     Filename X:\Audio\Queue\Soundgarden\1996 - Down on The Upside\13 - Switch Opens.wav

     Pre-gap length  0:00:00.02

     Peak level 99.8 %
     Track quality 100.0 %
     Test CRC A676E1DF
     Copy CRC A676E1DF
     Accurately ripped (confidence 5)  [C785A0F3]
     Copy OK

Track 14

     Filename X:\Audio\Queue\Soundgarden\1996 - Down on The Upside\14 - Overfloater.wav

     Pre-gap length  0:00:00.05

     Peak level 99.8 %
     Track quality 100.0 %
     Test CRC 560CCB3E
     Copy CRC 560CCB3E
     Accurately ripped (confidence 5)  [7BA042A8]
     Copy OK

Track 15

     Filename X:\Audio\Queue\Soundgarden\1996 - Down on The Upside\15 - An Unkind.wav

     Pre-gap length  0:00:00.03

     Peak level 99.8 %
     Track quality 100.0 %
     Test CRC 5B97DA71
     Copy CRC 5B97DA71
     Accurately ripped (confidence 5)  [425A1B59]
     Copy OK

Track 16

     Filename X:\Audio\Queue\Soundgarden\1996 - Down on The Upside\16 - Boot Camp.wav

     Pre-gap length  0:00:00.05

     Peak level 99.8 %
     Track quality 100.0 %
     Test CRC F8F46615
     Copy CRC F8F46615
     Accurately ripped (confidence 5)  [3549469F]
     Copy OK

All tracks accurately ripped

No errors occurred

End of status report
Код:
REM GENRE "Alternative Rock"
REM DATE 1996
REM DISCID E20F7310
REM COMMENT "ExactAudioCopy v0.99pb5"
CATALOG 0731454052627
PERFORMER "Soundgarden"
TITLE "Down on The Upside"
FILE "01 - Pretty Noose.wav" WAVE
  TRACK 01 AUDIO
    TITLE "Pretty Noose"
    PERFORMER "Soundgarden"
    ISRC USAM19602226
    INDEX 01 00:00:00
  TRACK 02 AUDIO
    TITLE "Rhinosaur"
    PERFORMER "Soundgarden"
    ISRC USAM19602227
    INDEX 00 04:11:45
FILE "02 - Rhinosaur.wav" WAVE
    INDEX 01 00:00:00
  TRACK 03 AUDIO
    TITLE "Zero Chance"
    PERFORMER "Soundgarden"
    ISRC USAM19602228
    INDEX 00 03:14:30
FILE "03 - Zero Chance.wav" WAVE
    INDEX 01 00:00:00
  TRACK 04 AUDIO
    TITLE "Dusty"
    PERFORMER "Soundgarden"
    ISRC USAM19602229
    INDEX 00 04:18:30
FILE "04 - Dusty.wav" WAVE
    INDEX 01 00:00:00
  TRACK 05 AUDIO
    TITLE "Ty Cobb"
    PERFORMER "Soundgarden"
    ISRC USAM19602230
    INDEX 00 04:34:05
FILE "05 - Ty Cobb.wav" WAVE
    INDEX 01 00:00:00
  TRACK 06 AUDIO
    TITLE "Blow Up The Outside World"
    PERFORMER "Soundgarden"
    ISRC USAM19602231
    INDEX 00 03:05:17
FILE "06 - Blow Up The Outside World.wav" WAVE
    INDEX 01 00:00:00
  TRACK 07 AUDIO
    TITLE "Burden in My Hand"
    PERFORMER "Soundgarden"
    ISRC USAM19602232
    INDEX 00 05:45:58
FILE "07 - Burden in My Hand.wav" WAVE
    INDEX 01 00:00:00
  TRACK 08 AUDIO
    TITLE "Never Named"
    PERFORMER "Soundgarden"
    ISRC USAM19602233
    INDEX 00 04:50:02
FILE "08 - Never Named.wav" WAVE
    INDEX 01 00:00:00
  TRACK 09 AUDIO
    TITLE "Applebite"
    PERFORMER "Soundgarden"
    ISRC USAM19602234
    INDEX 00 02:27:43
FILE "09 - Applebite.wav" WAVE
    INDEX 01 00:00:00
  TRACK 10 AUDIO
    TITLE "Never The Machine Forever"
    PERFORMER "Soundgarden"
    ISRC USAM19602235
    INDEX 00 05:09:70
FILE "10 - Never The Machine Forever.wav" WAVE
    INDEX 01 00:00:00
  TRACK 11 AUDIO
    TITLE "Tighter and Tighter"
    PERFORMER "Soundgarden"
    ISRC USAM19602236
    INDEX 00 03:36:27
FILE "11 - Tighter and Tighter.wav" WAVE
    INDEX 01 00:00:00
  TRACK 12 AUDIO
    TITLE "No Attention"
    PERFORMER "Soundgarden"
    ISRC USAM19602237
    INDEX 00 06:06:07
FILE "12 - No Attention.wav" WAVE
    INDEX 01 00:00:00
  TRACK 13 AUDIO
    TITLE "Switch Opens"
    PERFORMER "Soundgarden"
    ISRC USAM19602238
    INDEX 00 04:26:63
FILE "13 - Switch Opens.wav" WAVE
    INDEX 01 00:00:00
  TRACK 14 AUDIO
    TITLE "Overfloater"
    PERFORMER "Soundgarden"
    ISRC USAM19602239
    INDEX 00 03:52:60
FILE "14 - Overfloater.wav" WAVE
    INDEX 01 00:00:00
  TRACK 15 AUDIO
    TITLE "An Unkind"
    PERFORMER "Soundgarden"
    ISRC USAM19602240
    INDEX 00 05:08:55
FILE "15 - An Unkind.wav" WAVE
    INDEX 01 00:00:00
  TRACK 16 AUDIO
    TITLE "Boot Camp"
    PERFORMER "Soundgarden"
    ISRC USAM19602240
    INDEX 00 02:08:10
FILE "16 - Boot Camp.wav" WAVE
    INDEX 01 00:00:00
Код:
AUDIOCHECKER v2.0 beta (build 457) - by Dester - opdester@freemail.hu
~~~~~~~~~~~~~~~~~~~~~~~~~~~~~~~~~~
-=== DO NOT EDIT THIS FILE! ===-

Path: ...\Down On The Upside

01 -=- 01 - Pretty Noose.flac -=- CDDA (100%)
02 -=- 02 - Rhinosaur.flac -=- CDDA (100%)
03 -=- 03 - Zero Chance.flac -=- CDDA (100%)
04 -=- 04 - Dusty.flac -=- CDDA (100%)
05 -=- 05 - Ty Cobb.flac -=- CDDA (100%)
06 -=- 06 - Blow Up The Outside World.flac -=- CDDA (100%)
07 -=- 07 - Burden in My Hand.flac -=- CDDA (100%)
08 -=- 08 - Never Named.flac -=- CDDA (100%)
09 -=- 09 - Applebite.flac -=- CDDA (100%)
10 -=- 10 - Never The Machine Forever.flac -=- CDDA (100%)
11 -=- 11 - Tighter and Tighter.flac -=- CDDA (100%)
12 -=- 12 - No Attention.flac -=- CDDA (100%)
13 -=- 13 - Switch Opens.flac -=- CDDA (100%)
14 -=- 14 - Overfloater.flac -=- CDDA (100%)
15 -=- 15 - An Unkind.flac -=- CDDA (100%)
16 -=- 16 - Boot Camp.flac -=- CDDA (100%)

Summary 100,00% CDDA

130291476
Продолжительность: 00:29:55
Трэклист:

2-1. Jerry Garcia's Finger 3:26
Recorded By – Gary King, Gerry Amandes
Written-By – Soundgarden

2-2. Karaoke 6:01
Producer – Adam Kasper, Chris Cornell, Matt Cameron
Written-By – Chris Cornell

2-3. Bleed Together 3:54
Written-By – Chris Cornell
2-4. Birth Ritual - Original Demo 5:50
Recorded By – Stuart Hallerman
Written-By – Chris Cornell, Kim Thayil, Matt Cameron

2-5. Fell On Black Days - Video Version 5:26
Producer, Engineer, Mixed By – Brendan O'Brien
Written-By – Chris Cornell

2-6. Dusty - Moby Remix 5:07
Producer [Additional], Remix – Moby
Written-By – Ben Shepherd, Chris Cornell

Код:
Exact Audio Copy V0.99 prebeta 5 from 4. May 2009

EAC extraction logfile from 23. June 2009, 3:42

Soundgarden / Down Under on The Upside

Used drive  : HL-DT-STDVD-RAM GH10L   Adapter: 0  ID: 1

Read mode               : Secure
Utilize accurate stream : Yes
Defeat audio cache      : Yes
Make use of C2 pointers : No

Read offset correction                      : 667
Overread into Lead-In and Lead-Out          : No
Fill up missing offset samples with silence : Yes
Delete leading and trailing silent blocks   : No
Null samples used in CRC calculations       : Yes
Used interface                              : Native Win32 interface for Win NT & 2000
Gap handling                                : Appended to previous track

Used output format              : User Defined Encoder
Selected bitrate                : 1024 kBit/s
Quality                         : High
Add ID3 tag                     : No
Command line compressor         : C:\Program Files\Exact Audio Copy\FLAC\flac.exe
Additional command line options : -8 -e -V -T "Artist=%a" -T "Date=%y" -T "Album=%g" -T "DiscNumber=2/2" -T "TrackNumber=%n" -T "Title=%t" -T "Genre=%m" -T "AlbumArtist=%a" -T "Composer=" -T "Comment=" -T "Publisher=Pseudonymous / The Soviet Alliance / Soviet.ca" %s --sector-align

TOC of the extracted CD

     Track |   Start  |  Length  | Start sector | End sector
    ---------------------------------------------------------
        1  |  0:00.00 |  3:25.57 |         0    |    15431
        2  |  3:25.57 |  6:03.08 |     15432    |    42664
        3  |  9:28.65 |  3:56.05 |     42665    |    60369
        4  | 13:24.70 |  5:54.42 |     60370    |    86961
        5  | 19:19.37 |  5:28.63 |     86962    |   111624
        6  | 24:48.25 |  5:07.25 |    111625    |   134674

Track  1

     Filename X:\Audio\Queue\Soundgarden\1996 - Down Under on The Upside\01 - Jerry Garcia's Finger.wav

     Pre-gap length  0:00:02.00

     Peak level 99.8 %
     Track quality 100.0 %
     Test CRC 6A277884
     Copy CRC 6A277884
     Track not present in AccurateRip database
     Copy OK

Track  2

     Filename X:\Audio\Queue\Soundgarden\1996 - Down Under on The Upside\02 - Karaoke.wav

     Pre-gap length  0:00:01.15

     Peak level 99.8 %
     Track quality 100.0 %
     Test CRC 2B5F33DD
     Copy CRC 2B5F33DD
     Track not present in AccurateRip database
     Copy OK

Track  3

     Filename X:\Audio\Queue\Soundgarden\1996 - Down Under on The Upside\03 - Bleed Together.wav

     Pre-gap length  0:00:02.50

     Peak level 99.8 %
     Track quality 100.0 %
     Test CRC 03F4A53A
     Copy CRC 03F4A53A
     Track not present in AccurateRip database
     Copy OK

Track  4

     Filename X:\Audio\Queue\Soundgarden\1996 - Down Under on The Upside\04 - Birth Ritual [Demo].wav

     Pre-gap length  0:00:02.58

     Peak level 99.8 %
     Track quality 100.0 %
     Test CRC DFBA6918
     Copy CRC DFBA6918
     Track not present in AccurateRip database
     Copy OK

Track  5

     Filename X:\Audio\Queue\Soundgarden\1996 - Down Under on The Upside\05 - Fell on Black Days [Video Version].wav

     Pre-gap length  0:00:02.02

     Peak level 99.8 %
     Track quality 100.0 %
     Test CRC 5A3EB350
     Copy CRC 5A3EB350
     Track not present in AccurateRip database
     Copy OK

Track  6

     Filename X:\Audio\Queue\Soundgarden\1996 - Down Under on The Upside\06 - Dusty [Remix].wav

     Pre-gap length  0:00:01.40

     Peak level 99.8 %
     Track quality 100.0 %
     Test CRC 8ECCC10B
     Copy CRC 8ECCC10B
     Track not present in AccurateRip database
     Copy OK

None of the tracks are present in the AccurateRip database

No errors occurred

End of status report
Код:
REM GENRE "Alternative Rock"
REM DATE 1996
REM DISCID 3C070306
REM COMMENT "ExactAudioCopy v0.99pb5"
PERFORMER "Soundgarden"
TITLE "Down Under on The Upside"
FILE "01 - Jerry Garcia's Finger.wav" WAVE
  TRACK 01 AUDIO
    TITLE "Jerry Garcia's Finger"
    PERFORMER "Soundgarden"
    ISRC USAM19501199
    INDEX 01 00:00:00
  TRACK 02 AUDIO
    TITLE "Karaoke"
    PERFORMER "Soundgarden"
    ISRC USAM19604252
    INDEX 00 03:24:42
FILE "02 - Karaoke.wav" WAVE
    INDEX 01 00:00:00
  TRACK 03 AUDIO
    TITLE "Bleed Together"
    PERFORMER "Soundgarden"
    ISRC USAM19604253
    INDEX 00 06:00:33
FILE "03 - Bleed Together.wav" WAVE
    INDEX 01 00:00:00
  TRACK 04 AUDIO
    TITLE "Birth Ritual [Demo]"
    PERFORMER "Soundgarden"
    ISRC USAM19204254
    INDEX 00 03:53:22
FILE "04 - Birth Ritual [Demo].wav" WAVE
    INDEX 01 00:00:00
  TRACK 05 AUDIO
    TITLE "Fell on Black Days [Video Version]"
    PERFORMER "Soundgarden"
    ISRC USAM19604257
    INDEX 00 05:52:40
FILE "05 - Fell on Black Days [Video Version].wav" WAVE
    INDEX 01 00:00:00
  TRACK 06 AUDIO
    TITLE "Dusty [Remix]"
    PERFORMER "Soundgarden"
    ISRC USAM19604407
    INDEX 00 05:27:23
FILE "06 - Dusty [Remix].wav" WAVE
    INDEX 01 00:00:00
Код:
AUDIOCHECKER v2.0 beta (build 457) - by Dester - opdester@freemail.hu
~~~~~~~~~~~~~~~~~~~~~~~~~~~~~~~~~~
-=== DO NOT EDIT THIS FILE! ===-

Path: ...\Down Under on The Upside

01 -=- 01 - Jerry Garcia's Finger.flac -=- CDDA (42%)
02 -=- 02 - Karaoke.flac -=- CDDA (100%)
03 -=- 03 - Bleed Together.flac -=- CDDA (100%)
04 -=- 04 - Birth Ritual [Demo].flac -=- CDDA (100%)
05 -=- 05 - Fell on Black Days [Video Version].flac -=- CDDA (100%)
06 -=- 06 - Dusty [Remix].flac -=- CDDA (100%)

Summary 90,33% CDDA

61427940
загрузка...
Правила, инструкции, FAQ!!!
Торрент  Добавлен [25 фев 2017, 13:42] Скачать торрент Магнет ссылка
Скачать торрент
[ Размер 14.57 КБ / Просмотров 0 ]

Статус
Проверен 
 
Размер  611.48 МБ
Приватный: Нет (DHT включён)
.torrent скачан  0
Как залить торрент? | Как скачать Torrent? | Как смотреть и слушать онлайн?  


     Отправить личное сообщение
   
Страница 1 из 1
Показать сообщения за:  Поле сортировки  
Начать новую тему Ответить на тему

   Похожие торренты   Автор   Ответы   Просмотры   Последнее сообщение 
В этой теме нет новых непрочитанных сообщений. Скачать торрент Проверен (Grunge/Alternative Rock) [LP] [16\44] Soundgarden - Down on the Upside - 1996, FLAC (tracks)

в форуме Зарубежный рок (оцифровки), Размер: 412.86 МБ, Здоровье: 0%

Anonymous

0
0|0

1
0

24 авг 2016, 17:00

Anonymous Перейти к последнему сообщению

В этой теме нет новых непрочитанных сообщений. Скачать торрент Проверен (Grunge) Soundgarden - Pretty Noose (CDS, Limited edition) - 1996, FLAC (image+.cue), lossless

в форуме Alternative & Nu-metal, Размер: 270.6 МБ, Здоровье: 0%

Anonymous

0
0|0

1
0

24 фев 2017, 22:51

Anonymous Перейти к последнему сообщению

В этой теме нет новых непрочитанных сообщений. Скачать торрент Проверен (Progressive Rock, Krautrock) [CD] Exponent - Upside Down - 2015, FLAC (tracks+.cue), lossless

в форуме Progressive & Art-Rock, Размер: 372.97 МБ, Здоровье: 100%

Anonymous

0
1|0

9
1

30 авг 2016, 18:29

Anonymous Перейти к последнему сообщению

В этой теме нет новых непрочитанных сообщений. Скачать торрент Проверен (Grunge) Soundgarden Selected Japanese Edition series - 1988-1996 (4xAlbums), (Обновлено 24.04.2011), FLAC (image+.cue), lossless

в форуме Alternative & Nu-metal, Размер: 1.9 ГБ, Здоровье: 0%

Anonymous

0
0|0

5
0

25 фев 2017, 11:50

Anonymous Перейти к последнему сообщению

В этой теме нет новых непрочитанных сообщений. Скачать торрент Проверен (Crossover Prog) [WEB] Trojan Horse - World Turned Upside Down - 2014, FLAC (tracks), lossless

в форуме Progressive & Art-Rock, Размер: 341.44 МБ, Здоровье: 0%

Anonymous

0
0|0

0
0

29 авг 2016, 22:32

Anonymous Перейти к последнему сообщению



Сейчас этот форум просматривают: нет зарегистрированных пользователей и гости: 0


Вы не можете начинать темы
Вы не можете отвечать на сообщения
Вы не можете редактировать свои сообщения
Вы не можете удалять свои сообщения
Вы не можете добавлять вложения


!ВНИМАНИЕ!
 Ресурс не предоставляет электронные версии произведений, а занимается лишь коллекционированием и каталогизацией ссылок, присылаемых и публикуемых на форуме нашими читателями. Если вы являетесь правообладателем какого-либо представленного материала и не желаете чтобы ссылка на него находилась в нашем каталоге, свяжитесь с нами и мы незамедлительно удалим её. Файлы для обмена на трекере предоставлены пользователями сайта, и администрация не несёт ответственности за их содержание. Просьба не заливать файлы, защищенные авторскими правами, а также файлы нелегального содержания!