На всех торрентах на трекере установлена скидка на скачивание в размере 100 процентов(а).
 Возможность скачивания торрента НЕ зависит от ограничений при низком ратио, низком аплоаде, требуемом ратио или требуемом аплоаде.


Начать новую тему Ответить на тему
Статистика раздачи
Размер: 2.88 ГБ | Добавлен: 01 апр 2014, 09:35 | Скачали: 5
Сидеров: 70  [0 байт/сек]    Личеров: 22  [0 байт/сек]
Пред. тема | След. тема 

Автор
Сообщение

СообщениеДобавлено: 01 апр 2014, 09:35 

Ответить с цитатой 

Генрих Наваррский / Henri 4 (2 части из 2)

Страна: Германия, Франция, Австрия, Испания
Жанр: драма, исторический
Год выпуска: 2009
Продолжительность: 01:26:21 + 01:28:27

Перевод: Профессиональный (многоголосый закадровый) лицензия
Cубтитры: нет
Режиссер: Джо Байер / Jo Baier

В ролях: Жюльен Буасселье, Йоахим Круль, Андреас Шмидт, Рожер Казамажор, Армель Дойч, Хлоя Стефани, Свен Пиппиг, Сандра Хюллер, Ханнелор Хогер, Ульрих Нётен

Описание: После смерти матери королем Наварры провозглашается Генрих, и вскоре он женится на Маргарите Валуа, известной как «королева Марго». Брак этот политический и имеет целью примирение католической и протестантской партий, которые ведут кровавую борьбу за землю и власть. Свадьбу празднуют несколько дней, которые заканчиваются жестокой расправой над протестантами — Варфоломеевской ночью. Генриху удается спастись, приняв католицизм, после чего он почти 4 года остается пленником при французском дворе. В феврале 1576, после побега на юг, Генрих возвращается к протестантству. В народной памяти Генрих IV остался как «добрый король Анри»...

По романам Генриха Манна "Молодые годы короля Генриха IV" и "Зрелые годы короля Генриха IV"

Сэмпл: http://multi-up.com/919932

Качество видео: DVDRip
Формат видео: AVI

Видео: DivX, 720х400, 1900 кбит/с, 25 fps
Аудио: АС3, 448 кбит/с, 6 ch, 16 бит, 48 КГц
MediaInfo
Общее
Полное имя : D:\Henri IV\Henri.IV-1.DVDRip.avi
Формат : AVI
Формат/Информация : Audio Video Interleave
Размер файла : 1,46 Гбайт
Продолжительность : 1 ч. 28 м.
Общий поток : 2357 Кбит/сек
Программа кодирования : VirtualDubModRus 1.5.10.2 (build 2542/release)
Библиотека кодирования : VirtualDubMod build 2542/release

Видео
Идентификатор : 0
Формат : MPEG-4 Visual
Профиль формата : Advanced Simple@L5
Параметр BVOP формата : 2
Параметр QPel формата : Нет
Параметр GMC формата : Без точки перехода
Параметр матрицы формата : Default (H.263)
Идентификатор кодека : DX50
Идентификатор кодека/Подсказка : DivX 5
Продолжительность : 1 ч. 28 м.
Битрейт : 1900 Кбит/сек
Ширина : 720 пикселей
Высота : 400 пикселей
Соотношение сторон : 16:9
Частота кадров : 25,000 кадров/сек
Цветовое пространство : YUV
Субдискретизация насыщенности : 4:2:0
Битовая глубина : 8 бит
Тип развёртки : Прогрессивная
Метод сжатия : С потерями
Бит/(Пиксели*Кадры) : 0.264
Размер потока : 1,17 Гбайт (81%)
Библиотека кодирования : XviD 1.2.1 (UTC 2008-12-04)

Аудио
Идентификатор : 1
Формат : AC-3
Формат/Информация : Audio Coding 3
Расширение режима : CM (complete main)
Параметр Endianness формата : Big
Идентификатор кодека : 2000
Продолжительность : 1 ч. 28 м.
Вид битрейта : Постоянный
Битрейт : 448 Кбит/сек
Каналы : 6 каналов
Расположение каналов : Front: L C R, Side: L R, LFE
Частота : 48,0 КГц
Битовая глубина : 16 бит
Метод сжатия : С потерями
Размер потока : 283 Мбайт (19%)
Выравнивание : Разделение по промежуткам
Продолжительность промежутка : 40 мс. (1,00 видеокадр)
Время предзагрузки промежутка : 500 мс.
Скриншот c названием фильма
Скриншоты

загрузка...
Правила, инструкции, FAQ!!!
Торрент  Добавлен [01 апр 2014, 09:35] Скачать торрент Магнет ссылка
Скачать торрент
[ Размер 15.06 КБ / Просмотров 100 ]

Статус  
 
Размер  2.88 ГБ
Приватный: Нет (DHT включён)
.torrent скачан  5
Как залить торрент? | Как скачать Torrent? | Ошибка в торренте? Качайте магнет  


     Отправить личное сообщение
   
Страница 1 из 1
Показать сообщения за:  Поле сортировки  
Начать новую тему Ответить на тему

   Похожие торренты   Автор   Ответы   Просмотры   Последнее сообщение 
В этой теме нет новых непрочитанных сообщений. Скачать торрент Проверен [iPad] Пианистка / La Pianiste (Михаэль Ханеке / Michael Haneke ) [2001, Австрия, Франция, Германия , Триллер, драма, музыка, HDRip, SD (576p)] MVO + Original + sub (rus, eng)

в форуме Фильмы для iPod, iPhone, iPad, Размер: 2.2 ГБ, Здоровье: 100%

Anonymous

0
95|1

58
0

24 дек 2017, 23:00

Anonymous Перейти к последнему сообщению

В этой теме нет новых непрочитанных сообщений. Скачать торрент Проверен Стефан Цвейг / Stefan Zweig: Farewell to Europe / Vor der Morgenröte (Мария Шрадер / Maria Schrader) [2016, Австрия, Германия, Франция, драма, HDRip] VO (visanti-vasaer)

в форуме Фильмы 2016-2017, Размер: 1.47 ГБ, Здоровье: 100%

Anonymous

0
21|7

19
0

03 фев 2018, 19:16

Anonymous Перейти к последнему сообщению

В этой теме нет новых непрочитанных сообщений. Скачать торрент Людовик XI: Разбитая власть / Людовик XI: Король и власть / Louis XI, le pouvoir fracasse / Louis XI, le pouvoir fracassé (Анри Эльман / Henri Helman) [2010, Франция, исторический, драма, DVB]

в форуме Исторические, Размер: 2.16 ГБ, Здоровье: 80%

Anonymous

0
17|21

591
3

01 апр 2014, 09:35

Anonymous Перейти к последнему сообщению

В этой теме нет новых непрочитанных сообщений. Скачать торрент Проверен Олигарх (Павел Лунгин) [2002, Россия, Франция, Германия, драма, криминал, DVDRip SD (480p)] Original + SUB (rus)

в форуме Фильмы для iPod, iPhone, iPad, Размер: 2.06 ГБ, Здоровье: 100%

Гость

0
69|23

106
3

11 май 2015, 01:25

Гость Перейти к последнему сообщению

В этой теме нет новых непрочитанных сообщений. Скачать торрент Повар-вор / C(r)ook (Пепе Данкарт / Pepe Danquart) [2004, Германия, Австрия, Комедия, криминал, DVDRip] DUB

в форуме Комедии, Размер: 748.29 МБ, Здоровье: 100%

Anonymous

0
4|1

69
0

28 апр 2014, 22:42

Anonymous Перейти к последнему сообщению



Сейчас этот форум просматривают: нет зарегистрированных пользователей и гости: 0


Вы не можете начинать темы
Вы не можете отвечать на сообщения
Вы не можете редактировать свои сообщения
Вы не можете удалять свои сообщения
Вы не можете добавлять вложения

Перейти:  
Ресурс не предоставляет электронные версии произведений, а занимается лишь коллекционированием и каталогизацией ссылок, присылаемых и публикуемых на форуме нашими читателями. Если вы являетесь правообладателем какого-либо представленного материала и не желаете чтобы ссылка на него находилась в нашем каталоге, свяжитесь с нами и мы незамедлительно удалим её. Файлы для обмена на трекере предоставлены пользователями сайта, и администрация не несёт ответственности за их содержание. Просьба не заливать файлы, защищенные авторскими правами, а также файлы нелегального содержания!
cron