На всех торрентах на трекере установлена скидка на скачивание в размере 100 процентов(а).
 Возможность скачивания торрента НЕ зависит от ограничений при низком ратио, низком аплоаде, требуемом ратио или требуемом аплоаде.


Начать новую тему Ответить на тему
Статистика раздачи
Размер: 4.15 ГБ | Добавлен: 21 окт 2014, 20:55 | Скачали: 2
Сидеров: 13  [0 байт/сек]    Личеров: 8  [0 байт/сек]
Пред. тема | След. тема 

Автор
Сообщение

СообщениеДобавлено: 21 окт 2014, 20:55 

Ответить с цитатой 

Жанр: боевик
Год выпуска: 1991
Продолжительность: 02:06:10

Режиссёр: Степан Пучинян

В ролях: Александр Михайлов, Лев Дуров, Леонид Куравлёв, Анна Самохина, Петерис Гаудиньш, Армен Джигарханян, Сергей Крылов, Димаш Ахимов, Юрий Катин-Ярцев, Олег Ли, Ованес Ванян, Лаймонас Норейка, Далюс Мертинас, Артур Амбарцумян, Ромен Ассонгба, Петерис Крыловс, Степан Пучинян

Описание: Неизвестная субмарина потопила американский сухогруз, но морякам "Бердянска" удалось спасти его команду. Однако гангстеры захватывают "Бердянск", а пленников заточают в подземельях острова...


Качество видео: DVB
Формат видео: MPEG-PS

Видео: MPEG Video, 720(768)x576 (4:3), 25,000 кадров/сек, 4425 Кбит/сек
Аудио: MPEG Audio, 48,0 КГц, 192 Кбит/сек, 2 канала
Общее
Полное имя : E:\Torrent\ГАНГСТЕРЫ В ОКЕАНЕ (Zvezda 55).mpg
Формат : MPEG-PS
Размер файла : 4,15 Гбайт
Продолжительность : 2 ч. 6 м.
Режим общего битрейта : Переменный
Общий поток : 4710 Кбит/сек

Видео
Идентификатор : 224 (0xE0)
Формат : MPEG Video
Версия формата : Version 2
Профиль формата : Main@Main
Параметр BVOP формата : Да
Параметр матрицы формата : Выборочная
Параметр GOP формата : M=3, N=12
Продолжительность : 2 ч. 6 м.
Вид битрейта : Переменный
Битрейт : 4425 Кбит/сек
Максимальный битрейт : 15,0 Мбит/сек
Ширина : 720 пикселей
Высота : 576 пикселей
Соотношение сторон : 4:3
Частота кадров : 25,000 кадров/сек
Стандарт вещания : PAL
Цветовое пространство : YUV
Субдискретизация насыщенности : 4:2:0
Битовая глубина : 8 бит
Тип развёртки : Чересстрочная
Порядок развёртки : Верхнее поле первое
Метод сжатия : С потерями
Бит/(Пиксели*Кадры) : 0.427
Временной код первого кадра : 00:00:00:00
Оригинал временного кода : Group of pictures header
Размер потока : 3,90 Гбайт (94%)

Аудио
Идентификатор : 192 (0xC0)
Формат : MPEG Audio
Версия формата : Version 1
Профиль формата : Layer 2
Продолжительность : 2 ч. 6 м.
Вид битрейта : Постоянный
Битрейт : 192 Кбит/сек
Каналы : 2 канала
Частота : 48,0 КГц
Метод сжатия : С потерями
Задержка видео : 6 мс.
Размер потока : 173 Мбайт (4%)
загрузка...
Правила, инструкции, FAQ!!!
Торрент  Добавлен [21 окт 2014, 20:55] Скачать торрент Магнет ссылка
Скачать торрент
[ Размер 10.89 КБ / Просмотров 34 ]

Статус
Проверен 
 
Размер  4.15 ГБ
Приватный: Нет (DHT включён)
.torrent скачан  2
Как залить торрент? | Как скачать Torrent? | Ошибка в торренте? Качайте магнет  


     Отправить личное сообщение
   
Страница 1 из 1
Показать сообщения за:  Поле сортировки  
Начать новую тему Ответить на тему

   Похожие торренты   Автор   Ответы   Просмотры   Последнее сообщение 
В этой теме нет новых непрочитанных сообщений. Скачать торрент Проверен (Pop) [MB][24/96] Степан Разин и группа «Атаман» - А ну, давай! - 1991, FLAC (image+.cue), lossless

в форуме Отечественная поп-музыка (оцифровки), Размер: 1018.9 МБ, Здоровье: 100%

Anonymous

0
4|0

10
1

15 апр 2018, 20:42

Anonymous Перейти к последнему сообщению

В этой теме нет новых непрочитанных сообщений. Скачать торрент Проверен Курочкин Максим - Аниськин и сельские гангстеры [Сергей Ларионов(babay7), 2010 г., 128, MP3]

в форуме Детектив и Боевики, Размер: 590.86 МБ, Здоровье: 100%

Anonymous

0
2|0

63
0

20 ноя 2016, 11:34

Anonymous Перейти к последнему сообщению

В этой теме нет новых непрочитанных сообщений. Скачать торрент Проверен Митчелл Грэм | Смерть в океане [2010] [FB2, RTF, TXT]

в форуме Детективы и Боевики, Размер: 8.84 МБ, Здоровье: 10%

Anonymous

0
3|29

40
0

20 сен 2014, 21:19

Anonymous Перейти к последнему сообщению

В этой теме нет новых непрочитанных сообщений. Скачать торрент Проверен Жаколио Луи - Затерянные в океане [Сергей Кирсанов, 2011 г., 128 kbps, MP3]

в форуме Детектив и Боевики, Размер: 934.45 МБ, Здоровье: 100%

Anonymous

0
14|5

30
0

20 ноя 2016, 17:49

Anonymous Перейти к последнему сообщению

В этой теме нет новых непрочитанных сообщений. Закрыто правообладателем Свет в океане / The Light Between Oceans (2016) WEB-DL 1080p | iTunes Данный торрент является блокированным, причина: Закрыто правообладателем

в форуме 720p | 1080p, Размер: 5.01 ГБ, Здоровье: 100%

Гость

0
883|76

78
5401

09 дек 2016, 01:35

Гость Перейти к последнему сообщению



Сейчас этот форум просматривают: нет зарегистрированных пользователей и гости: 0


Вы не можете начинать темы
Вы не можете отвечать на сообщения
Вы не можете редактировать свои сообщения
Вы не можете удалять свои сообщения
Вы не можете добавлять вложения

Перейти:  
Ресурс не предоставляет электронные версии произведений, а занимается лишь коллекционированием и каталогизацией ссылок, присылаемых и публикуемых на форуме нашими читателями. Если вы являетесь правообладателем какого-либо представленного материала и не желаете чтобы ссылка на него находилась в нашем каталоге, свяжитесь с нами и мы незамедлительно удалим её. Файлы для обмена на трекере предоставлены пользователями сайта, и администрация не несёт ответственности за их содержание. Просьба не заливать файлы, защищенные авторскими правами, а также файлы нелегального содержания!
cron