На всех торрентах на трекере установлена скидка на скачивание в размере 100 процентов(а).
 Возможность скачивания торрента НЕ зависит от ограничений при низком ратио, низком аплоаде, требуемом ратио или требуемом аплоаде.


Начать новую тему Ответить на тему
Статистика раздачи
Размер: 3 ГБ | Добавлен: 14 май 2015, 00:21 | Скачали: 0
Сидеров: 2  [0 байт/сек]    Личеров: 0  [0 байт/сек]
Пред. тема | След. тема 

Автор
Сообщение

СообщениеДобавлено: 14 май 2015, 00:21 

Ответить с цитатой 

Год выпуска: 2001
Страна: США, Германия
Жанр: боевик, триллер, криминал
Продолжительность: 01:46:57
Перевод: Профессиональный (полное дублирование)
Теги: Прописаны
Режиссер: Роб Коэн
В ролях: Вин Дизель, Пол Уокер, Мишель Родригес, Джордана Брюстер, Рик Юн, Чэд Линдберг, Джонни Стронг, Мэтт Шульце, Тед Левайн, Джа Рул
Описание: Его зовут Брайан, и он — фанатик турбин и нитроускорителей. Его цель — быть принятым в автобанду легендарного Доминика Торетто, чемпиона опасных и незаконных уличных гонок. Но это лишь часть правды… Брайан также полицейский, имеющий задание войти в доверие к Торетто, подозреваемому в причастности к дерзким грабежам трейлеров, совершенным прямо «с колес».

Но чем больше доверяет нахальному новичку харизматичный Доминик, тем больше проникается герой идеалами «ангелов дорог». И тем меньше ему хочется выполнять свою миссию. И вот, наступает момент, когда Брайану придется выбирать между дружбой и долгом. И выбирать на скорости в 200 километров в час…
Бюджет: $38 000 000
Маркетинг: $35 000 000
Сборы в США: $144 533 925
Сборы в мире: $207 283 925
Рейтинг
kinopoisk: 7.683 (24 628)
imdb: 6.00 (74 092)
MPAA: PG-13 - Детям до 13 лет просмотр не желателен
Качество: BDRip
Формат: MP4
Видео кодек: H.264
Аудио кодек: AAC
Видео: 480x200 (2.40:1), 640 kbps, 23.976 fps
Аудио: 48 kHz, 2 ch, 128 kbps

General
Complete name : D:\Мои раздачи\Форсаж. Квадрология\The Fast and the Furious .mp4
Format : MPEG-4
Format profile : Base Media
Codec ID : isom
File size : 591 MiB
Duration : 1h 47mn
Overall bit rate : 770 Kbps
Performer : Роб Коэн
Genre : Action
Encoded date : UTC 2011-04-13 23:41:04
Tagged date : UTC 2011-04-13 23:41:04
Copyright : <<<KURT>>>
Cover : Yes
ldes : Его зовут Брайан, и он - фанатик турбин и нитроускорителей. Его цель - быть принятым в автобанду легендарного Доминика Торетто, чемпиона опасных и незаконных уличных гонок. Но это лишь часть правды… Брайан также полицейский, имеющий задание войти в доверие к Торетто, подозреваемому в причастности к дерзким грабежам трейлеров, совершенным прямо «с колес». / Но чем больше доверяет нахальному новичку харизматичный Доминик, тем больше проникается герой идеалами «ангелов дорог». И тем меньше ему хочется выполнять свою миссию. И вот, наступает момент, когда Брайану придется выбирать между дружбой и долгом. И выбирать на скорости в 200 километров в час…
stik : 0
iTunMOVI : <?xml version="1.0" encoding="UTF-8"?> / <!DOCTYPE plist PUBLIC "-/Apple/DTD PLIST 1.0/EN" "http://www.apple.com/DTDs/PropertyList-1.0.dtd"> / <plist version="1.0"> / <dict> / <key>cast</key> / <array> / <dict> / <key>name</key> / <string>Вин Дизель</string> / </dict> / <dict> / <key>name</key> / <string>Пол Уокер</string> / </dict> / <dict> / <key>name</key> / <string>Мишель Родригес</string> / </dict> / <dict> / <key>name</key> / <string>Джордана Брюстер</string> / </dict> / <dict> / <key>name</key> / <string>Рик Юн</string> / </dict> / <dict> / <key>name</key> / <string>Чэд Линдберг</string> / </dict> / <dict> / <key>name</key> / <string>Джонни Стронг</string> / </dict> / <dict> / <key>name</key> / <string>Мэтт Шульце</string> / </dict> / <dict> / <key>name</key> / <string>Тед Левайн</string> / </dict> / <dict> / <key>name</key> / <string>Джа Рул</string> / </dict> / </array> / <key>directors</key> / <array> / <dict> / <key>name</key> / <string>Роб Коэн</string> / </dict> / </array> / <key>producers</key> / <array> / <dict> / <key>name</key> / <string>Крейтон Беллингер / Creighton Bellinger</string> / </dict> / <dict> / <key>name</key> / <string>Даг Клейборн / Doug Claybourne</string> / </dict> / <dict> / <key>name</key> / <string>Нил Х. Мориц / Neal H. Moritz</string> / </dict> / <dict> / <key>name</key> / <string>Джон Пог / John Pogue</string> / </dict> / </array> / <key>screenwriters</key> / <array> / <dict> / <key>name</key> / <string>Кен Лай / Ken Li</string> / </dict> / <dict> / <key>name</key> / <string>Гэри Скотт Томпсон / Gary Scott Thompson</string> / </dict> / <dict> / <key>name</key> / <string>Эрик Бергквист / Erik Bergquist</string> / </dict> / <dict> / <key>name</key> / <string>Дэвид Эйер / David Ayer</string> / </dict> / </array> / </dict> / </plist>

Video
ID : 1
Format : AVC
Format/Info : Advanced Video Codec
Format profile : Baseline@L3.0
Format settings, CABAC : No
Format settings, ReFrames : 6 frames
Codec ID : avc1
Codec ID/Info : Advanced Video Coding
Duration : 1h 46mn
Bit rate mode : Variable
Bit rate : 640 Kbps
Maximum bit rate : 3 315 Kbps
Width : 480 pixels
Height : 200 pixels
Display aspect ratio : 2.40:1
Frame rate mode : Constant
Frame rate : 23.976 fps
Color space : YUV
Chroma subsampling : 4:2:0
Bit depth : 8 bits
Scan type : Progressive
Bits/(Pixel*Frame) : 0.278
Stream size : 490 MiB (83%)
Writing library : x264 core 114 r1913 5fd3dce
Encoding settings : cabac=0 / ref=6 / deblock=1:1:1 / analyse=0x1:0x111 / me=umh / subme=9 / psy=1 / psy_rd=1.00:0.00 / mixed_ref=0 / me_range=16 / chroma_me=1 / trellis=0 / 8x8dct=0 / cqm=0 / deadzone=21,11 / fast_pskip=0 / chroma_qp_offset=-2 / threads=6 / sliced_threads=0 / nr=0 / decimate=0 / interlaced=0 / constrained_intra=0 / bframes=0 / weightp=0 / keyint=250 / keyint_min=23 / scenecut=40 / intra_refresh=0 / rc_lookahead=60 / rc=2pass / mbtree=1 / bitrate=640 / ratetol=1.0 / qcomp=0.60 / qpmin=0 / qpmax=69 / qpstep=4 / cplxblur=20.0 / qblur=0.5 / ip_ratio=1.40 / aq=1:1.00
Encoded date : UTC 2011-04-13 23:41:04
Tagged date : UTC 2011-04-13 23:42:01

Audio
ID : 2
Format : AAC
Format/Info : Advanced Audio Codec
Format profile : LC
Codec ID : 40
Duration : 1h 47mn
Bit rate mode : Variable
Bit rate : 128 Kbps
Maximum bit rate : 161 Kbps
Channel(s) : 2 channels
Channel positions : Front: L R
Sampling rate : 48.0 KHz
Compression mode : Lossy
Stream size : 98.1 MiB (17%)
Encoded date : UTC 2011-04-13 23:41:54
Tagged date : UTC 2011-04-13 23:42:01

#777Год выпуска: 2003
Страна: США, Германия
Жанр: боевик, триллер, криминал
Продолжительность: 01:47:41
Перевод: Профессиональный (полное дублирование)
Теги: Прописаны
Режиссер: Джон Синглтон
В ролях: Пол Уокер, Тайриз Гибсон, Ева Мендес, Коул Хаузер, Лудакрис, Том Бэрри, Джеймс Римар, Девон Аоки, Амори Ноласко, Майкл Или
Описание: Бывший полицейский Брайан О`Коннер вместе с напарником Романом Пиарсом собираются перевезти крупную сумму «грязных» денег известного мафиози Картера Верона в качестве его подручных. Но на самом деле эта работа является только прикрытием для Брайана, который вместе с тайным агентом Моникой Клемент должны уличить изворотливого преступника…
Бюджет: $76 000 000
Маркетинг: $40 000 000
Сборы в США: $127 154 901
Сборы в России: $3 274 772
Сборы в мире: $236 041 731
Рейтинг
kinopoisk: 7.043 (15 223)
imdb: 5.20 (48 426)
MPAA: PG-13 - Детям до 13 лет просмотр не желателен
Качество: BDRip
Формат: MP4
Видео кодек: H.264
Аудио кодек: AAC
Видео: 480x200 (2.40:1), 640 kbps, 23.976 fps
Аудио: 48 kHz, 2 ch, 128 kbps

General
Complete name : D:\Мои раздачи\Форсаж. Квадрология\2 Fast 2 Furious.mp4
Format : MPEG-4
Format profile : Base Media
Codec ID : isom
File size : 599 MiB
Duration : 1h 47mn
Overall bit rate : 778 Kbps
Performer : Джон Синглтон
Genre : Action
Encoded date : UTC 2011-04-14 00:36:33
Tagged date : UTC 2011-04-14 00:36:33
Copyright : <<<KURT>>>
Cover : Yes
ldes : Бывший полицейский Брайан О`Коннер вместе с напарником Романом Пиарсом собираются перевезти крупную сумму «грязных» денег известного мафиози Картера Верона в качестве его подручных. Но на самом деле эта работа является только прикрытием для Брайана, который вместе с тайным агентом Моникой Клемент должны уличить изворотливого преступника…
stik : 0
iTunMOVI : <?xml version="1.0" encoding="UTF-8"?> / <!DOCTYPE plist PUBLIC "-/Apple/DTD PLIST 1.0/EN" "http://www.apple.com/DTDs/PropertyList-1.0.dtd"> / <plist version="1.0"> / <dict> / <key>cast</key> / <array> / <dict> / <key>name</key> / <string>Пол Уокер</string> / </dict> / <dict> / <key>name</key> / <string>Тайриз Гибсон</string> / </dict> / <dict> / <key>name</key> / <string>Ева Мендес</string> / </dict> / <dict> / <key>name</key> / <string>Коул Хаузер</string> / </dict> / <dict> / <key>name</key> / <string>Лудакрис</string> / </dict> / <dict> / <key>name</key> / <string>Том Бэрри</string> / </dict> / <dict> / <key>name</key> / <string>Джеймс Римар</string> / </dict> / <dict> / <key>name</key> / <string>Девон Аоки</string> / </dict> / <dict> / <key>name</key> / <string>Амори Ноласко</string> / </dict> / <dict> / <key>name</key> / <string>Майкл Или</string> / </dict> / </array> / <key>directors</key> / <array> / <dict> / <key>name</key> / <string>Джон Синглтон / John Singleton</string> / </dict> / </array> / <key>producers</key> / <array> / <dict> / <key>name</key> / <string>Майкл Фоттрел / Michael Fottrell</string> / </dict> / <dict> / <key>name</key> / <string>Хезер Либерман / Heather Lieberman</string> / </dict> / <dict> / <key>name</key> / <string>Ли Р. Майес / Lee R. Mayes</string> / </dict> / <dict> / <key>name</key> / <string>Нил Х. Мориц / Neal H. Moritz</string> / </dict> / </array> / <key>screenwriters</key> / <array> / <dict> / <key>name</key> / <string>Гэри Скотт Томпсон / Gary Scott Thompson</string> / </dict> / <dict> / <key>name</key> / <string>Майкл Брандт / Michael Brandt</string> / </dict> / <dict> / <key>name</key> / <string>Дерек Хаас / Derek Haas</string> / </dict> / </array> / </dict> / </plist>

Video
ID : 1
Format : AVC
Format/Info : Advanced Video Codec
Format profile : Baseline@L3.0
Format settings, CABAC : No
Format settings, ReFrames : 6 frames
Codec ID : avc1
Codec ID/Info : Advanced Video Coding
Duration : 1h 47mn
Bit rate mode : Variable
Bit rate : 640 Kbps
Maximum bit rate : 2 407 Kbps
Width : 480 pixels
Height : 200 pixels
Display aspect ratio : 2.40:1
Frame rate mode : Constant
Frame rate : 23.976 fps
Color space : YUV
Chroma subsampling : 4:2:0
Bit depth : 8 bits
Scan type : Progressive
Bits/(Pixel*Frame) : 0.278
Stream size : 492 MiB (82%)
Writing library : x264 core 114 r1913 5fd3dce
Encoding settings : cabac=0 / ref=6 / deblock=1:1:1 / analyse=0x1:0x111 / me=umh / subme=9 / psy=1 / psy_rd=1.00:0.00 / mixed_ref=0 / me_range=16 / chroma_me=1 / trellis=0 / 8x8dct=0 / cqm=0 / deadzone=21,11 / fast_pskip=0 / chroma_qp_offset=-2 / threads=6 / sliced_threads=0 / nr=0 / decimate=0 / interlaced=0 / constrained_intra=0 / bframes=0 / weightp=0 / keyint=250 / keyint_min=23 / scenecut=40 / intra_refresh=0 / rc_lookahead=60 / rc=2pass / mbtree=1 / bitrate=640 / ratetol=1.0 / qcomp=0.60 / qpmin=0 / qpmax=69 / qpstep=4 / cplxblur=20.0 / qblur=0.5 / ip_ratio=1.40 / aq=1:1.00
Encoded date : UTC 2011-04-14 00:36:33
Tagged date : UTC 2011-04-14 00:37:34

Audio
ID : 2
Format : AAC
Format/Info : Advanced Audio Codec
Format profile : LC
Codec ID : 40
Duration : 1h 47mn
Bit rate mode : Variable
Bit rate : 128 Kbps
Maximum bit rate : 187 Kbps
Channel(s) : 2 channels
Channel positions : Front: L R
Sampling rate : 48.0 KHz
Compression mode : Lossy
Stream size : 98.5 MiB (16%)
Encoded date : UTC 2011-04-14 00:37:22
Tagged date : UTC 2011-04-14 00:37:34

#777Год выпуска: 2006
Страна: США, Германия
Жанр: боевик, триллер, криминал
Продолжительность: 01:44:14
Перевод: Профессиональный (полное дублирование)
Теги: Прописаны
Режиссер: Джастин Лин
В ролях: Лукас Блэк, Бау Вау, Брайан Ти, Санг Кенг, Брэндон Брендел, Дэниэл Буко, Дэвид Томас, Эмбер Стивенс, Ашика Гонья, Кристиан Салазар
Описание: Шон Босуэлл — одинокий парень, который хочет казаться профи уличных гонок. Он бесшабашно гоняется по улицам города, пытаясь убежать от жизненных невзгод и наживая себе врагов среди местных властей. Когда Шону грозит тюрьма, его от греха подальше отсылают к отцу — профессиональному военному, который служит на военной базе в Японии.

В незнакомой стране, живущей по своим законам, Шон чувствует себя еще большим изгоем. Однако вскоре его американский приятель Твинки знакомит его с миром подпольного дрифт-рейсинга. Раньше Шон просто тупо гонялся по улицам, а здесь перед ним открылся целый мир своеобразного искусства из металла и резины, дороги которого оказались невообразимо круты на поворотах…
Сборы в США: $62 514 415
Сборы в России: $5 658 087
Сборы в мире: $158 468 292
Рейтинг
kinopoisk: 6.682 (14 120)
imdb: 5.60 (40 687)
MPAA: PG-13 - Детям до 13 лет просмотр не желателен
Качество: BDRip
Формат: MP4
Видео кодек: H.264
Аудио кодек: AAC
Видео: 480x200 (2.40:1), 640 kbps, 23.976 fps
Аудио: 48 kHz, 2 ch, 128 kbps

General
Complete name : D:\Мои раздачи\Форсаж. Квадрология\The Fast and the Furious Tokyo Drift .mp4
Format : MPEG-4
Format profile : Base Media
Codec ID : isom
File size : 575 MiB
Duration : 1h 44mn
Overall bit rate : 772 Kbps
Performer : Джастин Лин
Genre : Action
Encoded date : UTC 2011-04-14 10:44:29
Tagged date : UTC 2011-04-14 10:44:29
Copyright : <<<KURT>>>
Cover : Yes
ldes : Шон Босуэлл - одинокий парень, который хочет казаться профи уличных гонок. Он бесшабашно гоняется по улицам города, пытаясь убежать от жизненных невзгод и наживая себе врагов среди местных властей. Когда Шону грозит тюрьма, его от греха подальше отсылают к отцу - профессиональному военному, который служит на военной базе в Японии. / В незнакомой стране, живущей по своим законам, Шон чувствует себя еще большим изгоем. Однако вскоре его американский приятель Твинки знакомит его с миром подпольного дрифт-рейсинга. Раньше Шон просто тупо гонялся по улицам, а здесь перед ним открылся целый мир своеобразного искусства из металла и резины, дороги которого оказались невообразимо круты на поворотах…
stik : 0
iTunMOVI : <?xml version="1.0" encoding="UTF-8"?> / <!DOCTYPE plist PUBLIC "-/Apple/DTD PLIST 1.0/EN" "http://www.apple.com/DTDs/PropertyList-1.0.dtd"> / <plist version="1.0"> / <dict> / <key>cast</key> / <array> / <dict> / <key>name</key> / <string>Лукас Блэк</string> / </dict> / <dict> / <key>name</key> / <string>Бау Вау</string> / </dict> / <dict> / <key>name</key> / <string>Брайан Ти</string> / </dict> / <dict> / <key>name</key> / <string>Санг Кенг</string> / </dict> / <dict> / <key>name</key> / <string>Брэндон Брендел</string> / </dict> / <dict> / <key>name</key> / <string>Дэниэл Буко</string> / </dict> / <dict> / <key>name</key> / <string>Дэвид Томас</string> / </dict> / <dict> / <key>name</key> / <string>Эмбер Стивенс</string> / </dict> / <dict> / <key>name</key> / <string>Ашика Гонья</string> / </dict> / <dict> / <key>name</key> / <string>Кристиан Салазар</string> / </dict> / </array> / <key>directors</key> / <array> / <dict> / <key>name</key> / <string>Джастин Лин / Justin Lin</string> / </dict> / </array> / <key>producers</key> / <array> / <dict> / <key>name</key> / <string>Аманда Коэн / Amanda Cohen</string> / </dict> / <dict> / <key>name</key> / <string>Райан Кэвэна / Ryan Kavanaugh</string> / </dict> / <dict> / <key>name</key> / <string>Грэйс Морита / Grace Morita</string> / </dict> / <dict> / <key>name</key> / <string>Нил Х. Мориц / Neal H. Moritz</string> / </dict> / <dict> / <key>name</key> / <string>Линвуд Спинкс / Lynwood Spinks</string> / </dict> / </array> / <key>screenwriters</key> / <array> / <dict> / <key>name</key> / <string>Крис Морган / Chris Morgan</string> / </dict> / </array> / </dict> / </plist>

Video
ID : 1
Format : AVC
Format/Info : Advanced Video Codec
Format profile : Baseline@L3.0
Format settings, CABAC : No
Format settings, ReFrames : 6 frames
Codec ID : avc1
Codec ID/Info : Advanced Video Coding
Duration : 1h 44mn
Bit rate mode : Variable
Bit rate : 640 Kbps
Maximum bit rate : 2 816 Kbps
Width : 480 pixels
Height : 200 pixels
Display aspect ratio : 2.40:1
Frame rate mode : Constant
Frame rate : 23.976 fps
Color space : YUV
Chroma subsampling : 4:2:0
Bit depth : 8 bits
Scan type : Progressive
Bits/(Pixel*Frame) : 0.278
Stream size : 477 MiB (83%)
Writing library : x264 core 114 r1913 5fd3dce
Encoding settings : cabac=0 / ref=6 / deblock=1:1:1 / analyse=0x1:0x111 / me=umh / subme=9 / psy=1 / psy_rd=1.00:0.00 / mixed_ref=0 / me_range=16 / chroma_me=1 / trellis=0 / 8x8dct=0 / cqm=0 / deadzone=21,11 / fast_pskip=0 / chroma_qp_offset=-2 / threads=6 / sliced_threads=0 / nr=0 / decimate=0 / interlaced=0 / constrained_intra=0 / bframes=0 / weightp=0 / keyint=250 / keyint_min=23 / scenecut=40 / intra_refresh=0 / rc_lookahead=60 / rc=2pass / mbtree=1 / bitrate=640 / ratetol=1.0 / qcomp=0.60 / qpmin=0 / qpmax=69 / qpstep=4 / cplxblur=20.0 / qblur=0.5 / ip_ratio=1.40 / aq=1:1.00
Encoded date : UTC 2011-04-14 10:44:29
Tagged date : UTC 2011-04-14 10:45:15

Audio
ID : 2
Format : AAC
Format/Info : Advanced Audio Codec
Format profile : LC
Codec ID : 40
Duration : 1h 44mn
Bit rate mode : Variable
Bit rate : 128 Kbps
Maximum bit rate : 212 Kbps
Channel(s) : 2 channels
Channel positions : Front: L R
Sampling rate : 48.0 KHz
Compression mode : Lossy
Stream size : 95.3 MiB (17%)
Encoded date : UTC 2011-04-14 10:45:03
Tagged date : UTC 2011-04-14 10:45:15

#777Год выпуска: 2009
Страна: США
Жанр: боевик, триллер, криминал
Продолжительность: 01:46:52
Перевод: Профессиональный (полное дублирование)
Теги: Прописаны
Режиссер: Джастин Лин
В ролях: Вин Дизель, Пол Уокер, Джордана Брюстер, Мишель Родригес, Джон Ортиз, Лас Алонсо, Гал Гадот, Джек Конли, Ши Уигхэм, Лиза Лапира
Описание: Когда кривая дорожка заставляет скрывающегося от правосудия Дома Торетто вернуться в Лос-Анджелес, вражда с агентом Брайаном О’Коннером вспыхивает с новой силой. Но у парочки обнаруживается общий противник, и Дому с Брайаном приходится заключить перемирие в надежде одержать над ним победу. Грабя конвои, роя подкопы и пересекая границы, они приходят к идеальной форме отмщения — педали газа, вдавленной до упора.
Бюджет: $85 000 000
Сборы в США: $155 064 265
Сборы в России: $14 306 251
Сборы в мире: $353 241 873
Рейтинг
kinopoisk: 6.915 (22 435)
imdb: 6.40 (43 649)
MPAA: PG-13 - Детям до 13 лет просмотр не желателен
Качество: BDRip
Формат: MP4
Видео кодек: H.264
Аудио кодек: AAC
Видео: 480x200 (2.40:1), 640 kbps, 23.976 fps
Аудио: 48 kHz, 2 ch, 128 kbps

General
Complete name : D:\Мои раздачи\Форсаж. Квадрология\Fast & Furious.mp4
Format : MPEG-4
Format profile : Base Media
Codec ID : isom
File size : 590 MiB
Duration : 1h 46mn
Overall bit rate : 772 Kbps
Performer : Джастин Лин
Genre : Action
Encoded date : UTC 2011-04-14 11:36:48
Tagged date : UTC 2011-04-14 11:36:48
Copyright : <<<KURT>>>
Cover : Yes
ldes : Когда кривая дорожка заставляет скрывающегося от правосудия Дома Торетто вернуться в Лос-Анджелес, вражда с агентом Брайаном О’Коннером вспыхивает с новой силой. Но у парочки обнаруживается общий противник, и Дому с Брайаном приходится заключить перемирие в надежде одержать над ним победу. Грабя конвои, роя подкопы и пересекая границы, они приходят к идеальной форме отмщения - педали газа, вдавленной до упора.
stik : 0
iTunMOVI : <?xml version="1.0" encoding="UTF-8"?> / <!DOCTYPE plist PUBLIC "-/Apple/DTD PLIST 1.0/EN" "http://www.apple.com/DTDs/PropertyList-1.0.dtd"> / <plist version="1.0"> / <dict> / <key>cast</key> / <array> / <dict> / <key>name</key> / <string>Вин Дизель</string> / </dict> / <dict> / <key>name</key> / <string>Пол Уокер</string> / </dict> / <dict> / <key>name</key> / <string>Джордана Брюстер</string> / </dict> / <dict> / <key>name</key> / <string>Мишель Родригес</string> / </dict> / <dict> / <key>name</key> / <string>Джон Ортиз</string> / </dict> / <dict> / <key>name</key> / <string>Лас Алонсо</string> / </dict> / <dict> / <key>name</key> / <string>Гал Гадот</string> / </dict> / <dict> / <key>name</key> / <string>Джек Конли</string> / </dict> / <dict> / <key>name</key> / <string>Ши Уигхэм</string> / </dict> / <dict> / <key>name</key> / <string>Лиза Лапира</string> / </dict> / </array> / <key>directors</key> / <array> / <dict> / <key>name</key> / <string>Джастин Лин / Justin Lin</string> / </dict> / </array> / <key>producers</key> / <array> / <dict> / <key>name</key> / <string>Вин Дизель / Vin Diesel</string> / </dict> / <dict> / <key>name</key> / <string>Майкл Фоттрел / Michael Fottrell</string> / </dict> / <dict> / <key>name</key> / <string>Нил Х. Мориц / Neal H. Moritz</string> / </dict> / <dict> / <key>name</key> / <string>Рикардо Дел Рио / Ricardo Del R?o</string> / </dict> / <dict> / <key>name</key> / <string>Аманда Коэн / Amanda Cohen</string> / </dict> / </array> / <key>screenwriters</key> / <array> / <dict> / <key>name</key> / <string>Крис Морган / Chris Morgan</string> / </dict> / <dict> / <key>name</key> / <string>Гэри Скотт Томпсон / Gary Scott Thompson</string> / </dict> / </array> / </dict> / </plist>

Video
ID : 1
Format : AVC
Format/Info : Advanced Video Codec
Format profile : Baseline@L3.0
Format settings, CABAC : No
Format settings, ReFrames : 6 frames
Codec ID : avc1
Codec ID/Info : Advanced Video Coding
Duration : 1h 46mn
Bit rate mode : Variable
Bit rate : 640 Kbps
Maximum bit rate : 2 348 Kbps
Width : 480 pixels
Height : 200 pixels
Display aspect ratio : 2.40:1
Frame rate mode : Constant
Frame rate : 23.976 fps
Color space : YUV
Chroma subsampling : 4:2:0
Bit depth : 8 bits
Scan type : Progressive
Bits/(Pixel*Frame) : 0.278
Stream size : 489 MiB (83%)
Writing library : x264 core 114 r1913 5fd3dce
Encoding settings : cabac=0 / ref=6 / deblock=1:1:1 / analyse=0x1:0x111 / me=umh / subme=9 / psy=1 / psy_rd=1.00:0.00 / mixed_ref=0 / me_range=16 / chroma_me=1 / trellis=0 / 8x8dct=0 / cqm=0 / deadzone=21,11 / fast_pskip=0 / chroma_qp_offset=-2 / threads=6 / sliced_threads=0 / nr=0 / decimate=0 / interlaced=0 / constrained_intra=0 / bframes=0 / weightp=0 / keyint=250 / keyint_min=23 / scenecut=40 / intra_refresh=0 / rc_lookahead=60 / rc=2pass / mbtree=1 / bitrate=640 / ratetol=1.0 / qcomp=0.60 / qpmin=0 / qpmax=69 / qpstep=4 / cplxblur=20.0 / qblur=0.5 / ip_ratio=1.40 / aq=1:1.00
Encoded date : UTC 2011-04-14 11:36:48
Tagged date : UTC 2011-04-14 11:37:46

Audio
ID : 2
Format : AAC
Format/Info : Advanced Audio Codec
Format profile : LC
Codec ID : 40
Duration : 1h 46mn
Bit rate mode : Variable
Bit rate : 128 Kbps
Maximum bit rate : 185 Kbps
Channel(s) : 2 channels
Channel positions : Front: L R
Sampling rate : 48.0 KHz
Compression mode : Lossy
Stream size : 97.7 MiB (17%)
Encoded date : UTC 2011-04-14 11:37:25
Tagged date : UTC 2011-04-14 11:37:46

#777Год выпуска: 2011
Страна: США
Жанр: Боевик, триллер, драма, криминал
Продолжительность: 02:10:21
Перевод: Профессиональный (полное дублирование) R5
Режиссер: Джастин Лин
Сценарий: Крис Морган, Гэри Скотт Томпсон
Продюсер: Вин Дизель, Майкл Фоттрел, Нил Х. Мориц, ...
Оператор: Стивен Ф. Уиндон
Композитор: Брайан Тайлер
Художник: Питер Венхам, Бит Фрутигер, Эндрю Нескоромны, ...
Монтаж: Келли Матсумото, Фред Раскин, Кристиан Вагнер
В ролях: Вин Дизель, Дуэйн Джонсон, Пол Уокер, Тайрис Гибсон, Джордана Брюстер, Тайриз Гибсон, Лудакрис, Мэтт Шульце, Санг Кенг, Эльза Патаки, Гал Гадот
Описание: Бывший полицейский Брайан О`Коннер вместе с бывалым лихачом Домиником Торетто совсем немного увлеклись жизнью вне закона. После того, как Брайан и Миа Торетто освободили Доминика, они не рискуют долго задерживаться на одном месте, так как являются желанной целью порядком недовольных копов.
КиноПоиск: 7.866 (25 186)
IMDb: 7.60 (45 830)
Качество: BDRip
Формат: MP4
Видео кодек: H.264
Аудио кодек: AAC
Видео: 480x200 (2.40:1), 23,976 fps, 640 kbps
Аудио: 48 kHz, 2 ch, 128 kbps

General
Complete name : D:\Мои раздачи\Форсаж. Пенталогия\Fast Five.mp4
Format : MPEG-4
Format profile : Base Media
Codec ID : isom
File size : 719 MiB
Duration : 2h 10mn
Overall bit rate : 771 Kbps
Performer : Джастин Лин
Genre : Action, Thriller, Drama
Encoded date : UTC 2011-08-18 18:38:07
Tagged date : UTC 2011-08-18 18:38:07
Copyright : by <<<KURT>>>
Cover : Yes
ldes : Бывший полицейский Брайан О`Коннер вместе с бывалым лихачом Домиником Торетто совсем немного увлеклись жизнью вне закона. После того, как Брайан и Миа Торетто освободили Доминика, они не рискуют долго задерживаться на одном месте, так как являются желанной целью порядком недовольных копов.
stik : 0
iTunMOVI : <?xml version="1.0" encoding="UTF-8"?> / <!DOCTYPE plist PUBLIC "-/Apple/DTD PLIST 1.0/EN" "http://www.apple.com/DTDs/PropertyList-1.0.dtd"> / <plist version="1.0"> / <dict> / <key>cast</key> / <array> / <dict> / <key>name</key> / <string>Вин Дизель</string> / </dict> / <dict> / <key>name</key> / <string>Пол Уокер</string> / </dict> / <dict> / <key>name</key> / <string>Джордана Брюстер</string> / </dict> / <dict> / <key>name</key> / <string>Тайриз Гибсон</string> / </dict> / <dict> / <key>name</key> / <string>Лудакрис</string> / </dict> / <dict> / <key>name</key> / <string>Эльза Патаки</string> / </dict> / <dict> / <key>name</key> / <string>Галь Гадот</string> / </dict> / <dict> / <key>name</key> / <string>Тего Калдерон</string> / </dict> / <dict> / <key>name</key> / <string>Дон Омар</string> / </dict> / <dict> / <key>name</key> / <string>Мэтт Шульце</string> / </dict> / </array> / <key>directors</key> / <array> / <dict> / <key>name</key> / <string>Джастин Лин</string> / </dict> / </array> / </dict> / </plist>

Video
ID : 1
Format : AVC
Format/Info : Advanced Video Codec
Format profile : Baseline@L3.0
Format settings, CABAC : No
Format settings, ReFrames : 6 frames
Codec ID : avc1
Codec ID/Info : Advanced Video Coding
Duration : 2h 10mn
Bit rate : 640 Kbps
Maximum bit rate : 2 863 Kbps
Width : 480 pixels
Height : 200 pixels
Display aspect ratio : 2.40:1
Frame rate mode : Constant
Frame rate : 23.976 fps
Color space : YUV
Chroma subsampling : 4:2:0
Bit depth : 8 bits
Scan type : Progressive
Bits/(Pixel*Frame) : 0.278
Stream size : 597 MiB (83%)
Writing library : x264 core 115 r1937 aa21558
Encoding settings : cabac=0 / ref=6 / deblock=1:-1:-1 / analyse=0x1:0x111 / me=umh / subme=9 / psy=1 / psy_rd=1.00:0.00 / mixed_ref=1 / me_range=16 / chroma_me=1 / trellis=0 / 8x8dct=0 / cqm=0 / deadzone=21,11 / fast_pskip=0 / chroma_qp_offset=-2 / threads=6 / sliced_threads=0 / nr=0 / decimate=0 / interlaced=0 / bluray_compat=0 / constrained_intra=0 / bframes=0 / weightp=0 / keyint=250 / keyint_min=23 / scenecut=40 / intra_refresh=0 / rc_lookahead=60 / rc=2pass / mbtree=1 / bitrate=640 / ratetol=1.0 / qcomp=0.60 / qpmin=0 / qpmax=69 / qpstep=4 / cplxblur=20.0 / qblur=0.5 / ip_ratio=1.40 / aq=1:1.00
Encoded date : UTC 2011-08-19 17:47:50
Tagged date : UTC 2011-08-18 18:38:58

Audio
ID : 2
Format : AAC
Format/Info : Advanced Audio Codec
Format profile : LC
Codec ID : 40
Duration : 2h 9mn
Bit rate mode : Variable
Bit rate : 128 Kbps
Maximum bit rate : 138 Kbps
Channel(s) : 2 channels
Channel positions : Front: L R
Sampling rate : 48.0 KHz
Compression mode : Lossy
Stream size : 119 MiB (16%)
Language : Russian
Encoded date : UTC 2011-08-18 18:38:48
Tagged date : UTC 2011-08-18 18:38:58

загрузка...
Правила, инструкции, FAQ!!!
Торрент  Добавлен [14 май 2015, 00:21] Скачать торрент Магнет ссылка
Скачать торрент
[ Размер 15.77 КБ / Просмотров 18 ]

Статус
Проверен 
 
Размер  3 ГБ
Приватный: Нет (DHT включён)
.torrent скачан  0
Как залить торрент? | Как скачать Torrent? | Как смотреть и слушать онлайн?  


     Отправить личное сообщение
   
Страница 1 из 1
Показать сообщения за:  Поле сортировки  
Начать новую тему Ответить на тему

   Похожие торренты   Автор   Ответы   Просмотры   Последнее сообщение 
В этой теме нет новых непрочитанных сообщений. Скачать торрент Проверен [iPad] Форсаж 4 / Fast & Furious (Джастин Лин / Justin Lin) [2009 г., боевик, триллер, драма, криминал, BDRip]

в форуме Фильмы для iPod, iPhone, iPad, Размер: 2.89 ГБ, Здоровье: 100%

Гость

0
23|8

106
0

11 май 2015, 01:31

Гость Перейти к последнему сообщению

В этой теме нет новых непрочитанных сообщений. Скачать торрент Проверен [iPad] Форсаж 5 | Fast Five (Джастин Лин / Justin Lin) [2011, боевик, триллер, криминал, BDRip 1024x436] [Unrated] DUB, Original, sub(rus(forced), rus(full), eng)

в форуме Фильмы для iPod, iPhone, iPad, Размер: 3.16 ГБ, Здоровье: 100%

Гость

0
38|11

131
2

18 май 2015, 10:54

Гость Перейти к последнему сообщению

В этой теме нет новых непрочитанных сообщений. Скачать торрент Проверен [iPhone] Джеймс Бонд. Агент 007: Осьминожка / James Bond: Octopussy (Джон Глен / John Glen) [1983, Боевик, триллер, криминал, приключения, HDRip, 480x200]

в форуме Фильмы для iPod, iPhone, iPad, Размер: 725 МБ, Здоровье: 100%

Anonymous

0
6|2

83
0

14 май 2015, 00:26

Anonymous Перейти к последнему сообщению

В этой теме нет новых непрочитанных сообщений. Скачать торрент Проверен [iPhone] Джеймс Бонд. Агент 007: Вид на убийство / James Bond: A View to a Kill (Джон Глен / John Glen) [1985, Боевик, триллер, криминал, приключения, HDRip, 480x200]

в форуме Фильмы для iPod, iPhone, iPad, Размер: 726.8 МБ, Здоровье: 100%

Anonymous

0
19|1

77
7

18 май 2015, 10:38

Anonymous Перейти к последнему сообщению

В этой теме нет новых непрочитанных сообщений. Скачать торрент Проверен [iPhone] Джеймс Бонд. Агент 007: Лицензия на убийство / James Bond: Licence to Kill (Джон Глен / John Glen) [1989, Боевик, триллер, криминал, приключения, HDRip, 480x200]

в форуме Фильмы для iPod, iPhone, iPad, Размер: 738.9 МБ, Здоровье: 100%

Anonymous

0
7|1

79
1

14 май 2015, 00:26

Anonymous Перейти к последнему сообщению



Сейчас этот форум просматривают: нет зарегистрированных пользователей и гости: 0


Вы не можете начинать темы
Вы не можете отвечать на сообщения
Вы не можете редактировать свои сообщения
Вы не можете удалять свои сообщения
Вы не можете добавлять вложения

Перейти:  

!ВНИМАНИЕ!
 Ресурс не предоставляет электронные версии произведений, а занимается лишь коллекционированием и каталогизацией ссылок, присылаемых и публикуемых на форуме нашими читателями. Если вы являетесь правообладателем какого-либо представленного материала и не желаете чтобы ссылка на него находилась в нашем каталоге, свяжитесь с нами и мы незамедлительно удалим её. Файлы для обмена на трекере предоставлены пользователями сайта, и администрация не несёт ответственности за их содержание. Просьба не заливать файлы, защищенные авторскими правами, а также файлы нелегального содержания!