На всех торрентах на трекере установлена скидка на скачивание в размере 100 процентов(а).
 Возможность скачивания торрента НЕ зависит от ограничений при низком ратио, низком аплоаде, требуемом ратио или требуемом аплоаде.


Начать новую тему Ответить на тему
Статистика раздачи
Размер: 2.89 ГБ | Добавлен: 11 май 2015, 01:31 | Скачали: 0
Сидеров: 23  [0 байт/сек]    Личеров: 8  [0 байт/сек]
Пред. тема | След. тема 

Автор
Сообщение

СообщениеДобавлено: 11 май 2015, 01:31 

Ответить с цитатой 

Форсаж 4 / Fast & Furious
«Новые тачки. Старая команда.»



Страна: США
Жанр: боевик, триллер, драма, криминал
Год выпуска: 2009
Продолжительность: 01:46:52
Перевод: Профессиональный (полное дублирование)
Cубтитры: есть
Оригинальная аудиодорожка: английский
Режиссер: Джастин Лин
Сценарий: Крис Морган, Гэри Скотт Томпсон
Продюсер: Вин Дизель, Майкл Фоттрел, Нил Х. Мориц
В ролях: Вин Дизель, Пол Уокер, Джордана Брюстер, Мишель Родригес, Джон Ортиз, Лас Алонсо, Гал Гадот, Джек Конли, Ши Уигхэм, Лиза Лапира
Описание: Когда кривая дорожка заставляет скрывающегося от правосудия Дома Торетто вернуться в Лос-Анджелес, вражда с агентом Брайаном О’Коннером вспыхивает с новой силой. Но у парочки обнаруживается общий противник, и Дому с Брайаном приходится заключить перемирие в надежде одержать над ним победу. Грабя конвои, роя подкопы и пересекая границы, они приходят к идеальной форме отмщения — педали газа, вдавленной до упора.
Качество: BDRip
Исходник: BDRemux
Формат: m4v
Видео кодек: H.264
Аудио кодек: AAC
Видео: 1136x480, 3500 Kbps, 23,976 fps
Аудио RUS: 48 kHz, AAC, 2ch, 181 kbps - Профессиональный (полное дублирование)
Аудио ENG: 48 kHz, AAC, 2ch, 181 kbps - Оригинал
Код:
Код:
Полное имя : Fast & Furious_new.m4v
Формат : MPEG-4
Идентификатор кодека : M4V
Размер файла : 2,89 Гбайт
Продолжительность : 1 ч. 46 м.
Общий поток : 3875 Кбит/сек
Название фильма : Форсаж 4
Исполнитель : Justin Lin
Жанр : Action & Adventure
Дата записи : UTC 2009-08-09 07:00:00
Дата кодирования : UTC 2011-12-23 23:45:38
Дата пометки : UTC 2011-12-24 23:54:46
Обложка : Yes
desc : Когда кривая дорожка заставляет скрывающегося от правосудия Дома Торетто вернуться в Лос-Анджелес, вражда с агентом Брайаном О’Коннером вспыхивает с новой силой.
ldes : Когда кривая дорожка заставляет скрывающегося от правосудия Дома Торетто вернуться в Лос-Анджелес, вражда с агентом Брайаном О’Коннером вспыхивает с новой силой. Но у парочки обнаруживается общий противник, и Дому с Брайаном приходится заключить перемирие в надежде одержать над ним победу. Грабя конвои, роя подкопы и пересекая границы, они приходят к идеальной форме отмщения — педали газа, вдавленной до упора.
hdvd : 1
stik : 9
cnID : 312931383
xid : iPad:vendor_id:2009-395978
iTunEXTC : mpaa|PG-13|300|
iTunMOVI : / / / / cast / / / name / Вин Дизель / / / name / Пол Уокер / / / name / Джордана Брюстер / / / name / Мишель Родригес / / / name / Джон Ортиз / / / name / Лас Алонсо / / / name / Галь Гадот / / / name / Джек Конли / / / name / Ши Уигхэм / / / name / Лиза Лапира / / / name / Санг Кенг / / / directors / / / name / Джастин Лин / / / producers / / / name / Вин Дизель / / / name / Майкл Фоттрел / / / name / Нил Х. Мориц / / / screenwriters / / / name / Крис Морган / / / name / Гэри Скотт Томпсон / / / /

Видео
Идентификатор : 1
Формат : AVC
Формат/Информация : Advanced Video Codec
Профиль формата : High@L3.2
Параметр CABAC формата : Да
Параметр ReFrames формата : 9 кадры
Идентификатор кодека : avc1
Идентификатор кодека/Информация : Advanced Video Coding
Продолжительность : 1 ч. 46 м.
Вид битрейта : Переменный
Битрейт : 3500 Кбит/сек
Максимальный битрейт : 13,8 Мбит/сек
Ширина : 1136 пикс.
Высота : 480 пикс.
Соотношение сторон : 2,35:1
Режим частоты кадров : Переменный
Частота кадров : 23,976 кадр/сек
Минимальная частота кадров : 23,969 кадр/сек
Максимальная частота кадров : 24,015 кадр/сек
Цветовое пространство : YUV
Подвыборка цветности : 4:2:0
Битовая глубина : 8 бит
Тип развёртки : Прогрессивная
Бит/(Пиксели*Кадры) : 0.268
Размер потока : 2,61 Гбайт (90%)
Библиотека кодирования : x264 core 112
Настройки программы : cabac=1 / ref=9 / deblock=1:0:0 / analyse=0x3:0x113 / me=umh / subme=9 / psy=1 / psy_rd=1.00:0.00 / mixed_ref=1 / me_range=32 / chroma_me=1 / trellis=1 / 8x8dct=1 / cqm=0 / deadzone=21,11 / fast_pskip=1 / chroma_qp_offset=-2 / threads=3 / sliced_threads=0 / nr=0 / decimate=1 / interlaced=0 / constrained_intra=0 / bframes=6 / b_pyramid=2 / b_adapt=1 / b_bias=0 / direct=1 / weightb=1 / open_gop=0 / weightp=2 / keyint=240 / keyint_min=23 / scenecut=40 / intra_refresh=0 / rc_lookahead=40 / rc=2pass / mbtree=1 / bitrate=3500 / ratetol=1.0 / qcomp=0.60 / qpmin=3 / qpmax=51 / qpstep=4 / cplxblur=20.0 / qblur=0.5 / ip_ratio=1.40 / aq=1:1.00
Язык : English
Дата кодирования : UTC 2011-12-23 23:45:38
Дата пометки : UTC 2011-12-23 23:51:26
Основные цвета : BT.709-5, BT.1361, IEC 61966-2-4, SMPTE RP177
Характеристики трансфера : BT.709-5, BT.1361
Коэффициенты матрицы : BT.709-5, BT.1361, IEC 61966-2-4 709, SMPTE RP177

Аудио #1
Идентификатор : 2
Формат : AAC
Формат/Информация : Advanced Audio Codec
Профиль формата : LC
Идентификатор кодека : 40
Продолжительность : 1 ч. 46 м.
Вид битрейта : Переменный
Битрейт : 181 Кбит/сек
Максимальный битрейт : 225 Кбит/сек
Канал(ы) : 2 канала(ов)
Расположение каналов : Front: L R
Частота : 48,0 КГц
Метод сжатия : С потерями
Размер потока : 138 Мбайт (5%)
Заголовок : Russian stereo
Язык : Russian
Дата кодирования : UTC 2011-12-23 23:51:01
Дата пометки : UTC 2011-12-23 23:51:26

Аудио #2
Идентификатор : 3
Формат : AAC
Формат/Информация : Advanced Audio Codec
Профиль формата : LC
Идентификатор кодека : 40
Продолжительность : 1 ч. 46 м.
Вид битрейта : Переменный
Битрейт : 181 Кбит/сек
Максимальный битрейт : 225 Кбит/сек
Канал(ы) : 2 канала(ов)
Расположение каналов : Front: L R
Частота : 48,0 КГц
Метод сжатия : С потерями
Размер потока : 138 Мбайт (5%)
Заголовок : English stereo
Язык : English
Дата кодирования : UTC 2011-12-23 23:51:13
Дата пометки : UTC 2011-12-23 23:51:26

Текст #1
Идентификатор : 4
Формат : Timed text
Режим смешивания : sbtl
Идентификатор кодека : tx3g
Продолжительность : 1 ч. 38 м.
Вид битрейта : Переменный
Битрейт : 38 бит/сек
Размер потока : 27,4 Кбайт (0%)
Язык : English
Дата кодирования : UTC 2011-12-23 23:51:25
Дата пометки : UTC 2011-12-23 23:51:26

Текст #2
Идентификатор : 5
Формат : Timed text
Режим смешивания : sbtl
Идентификатор кодека : tx3g
Продолжительность : 1 ч. 30 м.
Вид битрейта : Переменный
Битрейт : 2 бит/сек
Размер потока : 1,10 Кбайт (0%)
Язык : Russian
Дата кодирования : UTC 2011-12-23 23:51:26
Дата пометки : UTC 2011-12-23 23:51:26

Код:
Код:
x264 [info]: frame I:3066  Avg QP:15.05  size: 71376  PSNR Mean Y:47.79 U:49.45 V:50.55 Avg:48.37 Global:47.99
x264 [info]: frame P:82884 Avg QP:17.40  size: 24339  PSNR Mean Y:45.70 U:47.94 V:49.09 Avg:46.37 Global:45.95
x264 [info]: frame B:63999 Avg QP:19.59  size:  7665  PSNR Mean Y:44.62 U:47.96 V:49.29 Avg:45.45 Global:44.98
x264 [info]: consecutive B-frames: 27.6% 40.5% 12.8% 10.6%  7.5%  0.7%  0.3%
x264 [info]: mb I  I16..4:  7.9% 75.5% 16.6%
x264 [info]: mb P  I16..4:  1.4%  9.4%  1.8%  P16..4: 36.1% 29.8% 17.3%  0.0%  0.0%    skip: 4.2%
x264 [info]: mb B  I16..4:  0.1%  0.5%  0.1%  B16..8: 43.0% 12.6%  3.8%  direct: 5.5%  skip:34.3%  L0:41.9% L1:45.3% BI:12.9%
x264 [info]: 8x8 transform intra:74.9% inter:62.6%
x264 [info]: coded y,uvDC,uvAC intra: 88.9% 92.6% 78.7% inter: 41.0% 45.3% 13.8%
x264 [info]: i16 v,h,dc,p: 27% 22%  9% 42%
x264 [info]: i8 v,h,dc,ddl,ddr,vr,hd,vl,hu:  7% 10%  4% 10% 15% 13% 15% 11% 14%
x264 [info]: i4 v,h,dc,ddl,ddr,vr,hd,vl,hu:  7% 12%  3%  9% 15% 13% 16% 11% 15%
x264 [info]: i8c dc,h,v,p: 46% 22% 14% 18%
x264 [info]: Weighted P-Frames: Y:2.3% UV:1.5%
x264 [info]: ref P L0: 53.2% 11.8% 14.6%  6.1%  4.3%  3.4%  2.8%  1.5%  1.5%  0.7%  0.0%
x264 [info]: ref B L0: 73.0% 12.7%  5.9%  3.0%  2.1%  1.9%  1.2%  0.2%
x264 [info]: ref B L1: 95.0%  5.0%
x264 [info]: SSIM Mean Y:0.9819660 (17.439db)
x264 [info]: PSNR Mean Y:45.283 U:47.982 V:49.206 Avg:46.015 Global:45.539 kb/s:3487.90

Для просмотра данного релиза на компьютере с ОС Windows рекомендуется использовать VLC media player
загрузка...
Правила, инструкции, FAQ!!!
Торрент  Добавлен [11 май 2015, 01:31] Скачать торрент Магнет ссылка
Скачать торрент
[ Размер 14.95 КБ / Просмотров 16 ]

Статус
Проверен 
 
Размер  2.89 ГБ
Приватный: Нет (DHT включён)
.torrent скачан  0
Как залить торрент? | Как скачать Torrent? | Как смотреть и слушать онлайн?  


     Отправить личное сообщение
   
Страница 1 из 1
Показать сообщения за:  Поле сортировки  
Начать новую тему Ответить на тему

   Похожие торренты   Автор   Ответы   Просмотры   Последнее сообщение 
В этой теме нет новых непрочитанных сообщений. Скачать торрент Проверен [iPad] Форсаж 5 | Fast Five (Джастин Лин / Justin Lin) [2011, боевик, триллер, криминал, BDRip 1024x436] [Unrated] DUB, Original, sub(rus(forced), rus(full), eng)

в форуме Фильмы для iPod, iPhone, iPad, Размер: 3.16 ГБ, Здоровье: 100%

Гость

0
38|11

131
2

18 май 2015, 10:54

Гость Перейти к последнему сообщению

В этой теме нет новых непрочитанных сообщений. Скачать торрент Проверен [iPhone] Форсаж. Пенталогия / The Fast and the Furious Pentalogy (Роб Коэн, Джон Синглтон, Джастин Лин / Rob Cohen, John Singleton, Justin Lin) [2001-2011 г., боевик, триллер, криминал, BDRip, 480x200]

в форуме Фильмы для iPod, iPhone, iPad, Размер: 3 ГБ, Здоровье: 100%

Anonymous

0
2|0

115
0

14 май 2015, 00:21

Anonymous Перейти к последнему сообщению

В этой теме нет новых непрочитанных сообщений. Скачать торрент Проверен [iPad] Кибер / Blackhat (Майкл Манн / Michael Mann ) [2015, США, Боевик, триллер, драма, криминал, детектив, BDRip, SD (576p)] DUB + Original + sub (eng)

в форуме Фильмы для iPod, iPhone, iPad, Размер: 2.35 ГБ, Здоровье: 100%

Гость

0
98|20

213
4

11 май 2015, 01:25

Гость Перейти к последнему сообщению

В этой теме нет новых непрочитанных сообщений. Скачать торрент Проверен [iPad] Святые из трущоб (Святые из Бундока) / The Boondock Saints (Трой Даффи) [1999 г., боевик, триллер, драма, комедия, криминал, BDRip]

в форуме Фильмы для iPod, iPhone, iPad, Размер: 2.87 ГБ, Здоровье: 100%

Гость

0
44|13

74
3

18 май 2015, 10:39

Гость Перейти к последнему сообщению

В этой теме нет новых непрочитанных сообщений. Скачать торрент Проверен Форсаж 7 / Furious Seven (2015) BDRip [576p] iPad

в форуме Фильмы для iPod, iPhone, iPad, Размер: 2.42 ГБ, Здоровье: 71%

Гость

0
30|42

638
1

13 сен 2015, 01:37

Гость Перейти к последнему сообщению



Сейчас этот форум просматривают: нет зарегистрированных пользователей и гости: 1


Вы не можете начинать темы
Вы не можете отвечать на сообщения
Вы не можете редактировать свои сообщения
Вы не можете удалять свои сообщения
Вы не можете добавлять вложения


!ВНИМАНИЕ!
 Ресурс не предоставляет электронные версии произведений, а занимается лишь коллекционированием и каталогизацией ссылок, присылаемых и публикуемых на форуме нашими читателями. Если вы являетесь правообладателем какого-либо представленного материала и не желаете чтобы ссылка на него находилась в нашем каталоге, свяжитесь с нами и мы незамедлительно удалим её. Файлы для обмена на трекере предоставлены пользователями сайта, и администрация не несёт ответственности за их содержание. Просьба не заливать файлы, защищенные авторскими правами, а также файлы нелегального содержания!