На всех торрентах на трекере установлена скидка на скачивание в размере 100 процентов(а).
 Возможность скачивания торрента НЕ зависит от ограничений при низком ратио, низком аплоаде, требуемом ратио или требуемом аплоаде.


Начать новую тему Ответить на тему
Статистика раздачи
Размер: 1.43 ГБ | Добавлен: 11 июн 2018, 09:31 | Скачали: 0
Сидеров: 34  [0 байт/сек]    Личеров: 11  [0 байт/сек]
Пред. тема | След. тема 

Автор
Сообщение

СообщениеДобавлено: 11 июн 2018, 09:31 

Ответить с цитатой 


Эйфория / Euphoria

«Никогда не поздно выбрать любовь»


Страна: Швеция, Германия
Жанр: драма, приключения
Год выпуска: 2017
Продолжительность: 01:33:57
Перевод: Профессиональный (многоголосый закадровый) iTunes
Субтитры: нет
Оригинальная аудиодорожка: нет
Режиссер: Лиза Лангсет / Lisa Langseth
В ролях: Алисия Викандер, Ева Грин, Шарлотта Рэмплинг, Адриан Лестер, Чарльз Дэнс, Марк Стэнли, Тайгер Кирххарц, Август Цирнер, Стеффен Юнг
Описание: Эмили и Инес совершают путешествие по Европе, которое должно закончиться в «самом прекрасном месте на свете». Именно там Эмили хочет прожить свою «идеальную жизнь» и уйти навсегда из этого мира. Но, поставленная перед фактом, Инес совсем не готова безропотно принять это странное решение и хочет вырваться из этого «клуба самоубийц».


Качество видео: WEB-DLRip-AVC / Euphoria.2017.WEB-DL.1080p.ExKinoRay
Формат видео: MKV
Видео: MPEG-4 AVC, 960x400 (2.40:1), 25.000 fps, ~1747 kbps avg, 0.182 bit/pixel
Аудио: 48 kHz, AC3 Dolby Digital, 3/2 (L,C,R,l,r) + LFE ch, ~384 kbps avg
Код:
Код:
Код:
Complete name               : D:\Раздача\Эйфория (2017) WEB-DLRip-AVC_ivanes20031987.mkv
Format                      : Matroska
Format version              : Version 2
File size                   : 1.43 GiB
Duration                    : 1 h 33 min
Overall bit rate            : 2 174 kb/s
Movie name                  : Эйфория (2017) WEB-DLRip-AVC_ivanes20031987
Encoded date                : UTC 2018-06-06 12:26:53
Writing application         : mkvmerge v4.4.0 ('Die Wiederkehr') сборка от Jan  3 2011 21:40:45
Writing library             : libebml v1.0.0 + libmatroska v1.0.0
Cover                       : Yes
Attachments                 : cover.jpg
Video
ID                          : 1
Format                      : AVC
Format/Info                 : Advanced Video Codec
Format profile              : High@L4.1
Format settings, CABAC      : Yes
Format settings, RefFrames  : 14 frames
Codec ID                    : V_MPEG4/ISO/AVC
Duration                    : 1 h 33 min
Bit rate                    : 1 747 kb/s
Width                       : 960 pixels
Height                      : 400 pixels
Display aspect ratio        : 2.40:1
Frame rate mode             : Constant
Frame rate                  : 25.000 FPS
Color space                 : YUV
Chroma subsampling          : 4:2:0
Bit depth                   : 8 bits
Scan type                   : Progressive
Bits/(Pixel*Frame)          : 0.182
Stream size                 : 1.15 GiB (80%)
Title                       : Rip by ivanes20031987
Writing library             : x264 core 155 r2901 7d0ff22
Encoding settings           : cabac=1 / ref=14 / deblock=1:-3:-3 / analyse=0x3:0x113 / me=umh / subme=10 / psy=1 / psy_rd=1.00:0.00 / mixed_ref=1 / me_range=32 / chroma_me=1 / trellis=2 / 8x8dct=1 / cqm=0 / deadzone=21,11 / fast_pskip=0 / chroma_qp_offset=-2 / threads=12 / lookahead_threads=3 / sliced_threads=0 / nr=0 / decimate=0 / interlaced=0 / bluray_compat=0 / constrained_intra=0 / bframes=14 / b_pyramid=2 / b_adapt=2 / b_bias=0 / direct=1 / weightb=1 / open_gop=0 / weightp=2 / keyint=250 / keyint_min=25 / scenecut=40 / intra_refresh=0 / rc_lookahead=60 / rc=crf / mbtree=0 / crf=16.9 / qcomp=0.60 / qpmin=0 / qpmax=69 / qpstep=4 / vbv_maxrate=50000 / vbv_bufsize=62500 / crf_max=0.0 / nal_hrd=none / filler=0 / ip_ratio=1.40 / pb_ratio=1.30 / aq=1:1.00
Default                     : Yes
Forced                      : No
Audio
ID                          : 2
Format                      : AC-3
Format/Info                 : Audio Coding 3
Format settings, Endianness : Big
Codec ID                    : A_AC3
Duration                    : 1 h 33 min
Bit rate mode               : Constant
Bit rate                    : 384 kb/s
Channel(s)                  : 6 channels
Channel positions           : Front: L C R, Side: L R, LFE
Sampling rate               : 48.0 kHz
Frame rate                  : 31.250 FPS (1536 SPF)
Bit depth                   : 16 bits
Compression mode            : Lossy
Stream size                 : 258 MiB (18%)
Title                       : iTunes
Language                    : Russian
Service kind                : Complete Main
Default                     : Yes
Forced                      : No

Код:
Код:
x264 [info]: frame I:784   Avg QP:14.22  size: 59708
x264 [info]: frame P:35953 Avg QP:16.18  size: 20568
x264 [info]: frame B:104190 Avg QP:17.34  size:  4550
x264 [info]: consecutive B-frames:  1.5%  3.9%  2.9% 76.4%  5.4%  7.1%  0.5%  0.4%  0.0%  0.0%  0.1%  0.6%  0.4%  0.2%  0.5%
x264 [info]: mb I  I16..4:  7.8% 71.6% 20.6%
x264 [info]: mb P  I16..4:  0.6%  5.9%  0.8%  P16..4: 34.8% 32.7% 20.3%  0.0%  0.0%    skip: 5.0%
x264 [info]: mb B  I16..4:  0.0%  0.3%  0.1%  B16..8: 32.9% 12.3%  3.9%  direct: 7.4%  skip:43.1%  L0:38.8% L1:43.6% BI:17.6%
x264 [info]: 8x8 transform intra:77.9% inter:42.7%
x264 [info]: coded y,uvDC,uvAC intra: 91.2% 92.3% 79.5% inter: 24.9% 30.1% 16.6%
x264 [info]: i16 v,h,dc,p: 54% 10% 10% 26%
x264 [info]: i8 v,h,dc,ddl,ddr,vr,hd,vl,hu: 16% 10% 11%  8% 10% 12% 10% 11% 12%
x264 [info]: i4 v,h,dc,ddl,ddr,vr,hd,vl,hu: 17%  9%  5%  8% 13% 14% 11% 11% 12%
x264 [info]: i8c dc,h,v,p: 53% 16% 18% 13%
x264 [info]: Weighted P-Frames: Y:5.2% UV:3.4%
x264 [info]: ref P L0: 55.2%  9.7% 15.6%  4.1%  3.8%  2.3%  2.4%  1.2%  1.3%  0.9%  1.0%  0.8%  0.9%  0.7%  0.1%  0.0%
x264 [info]: ref B L0: 83.0%  8.5%  2.4%  1.5%  1.0%  1.0%  0.7%  0.6%  0.4%  0.4%  0.3%  0.2%  0.1%
x264 [info]: ref B L1: 97.3%  2.7%
x264 [info]: kb/s:1788.63

Правила, инструкции, FAQ!!!
Торрент  Добавлен [11 июн 2018, 09:31] Скачать торрент Магнет ссылка
Скачать торрент
[ Размер 14.75 КБ / Просмотров 10 ]

Статус
Проверен 
 
Размер  1.43 ГБ
Приватный: Нет (DHT включён)
.torrent скачан  0
Как залить торрент? | Как скачать Torrent? | Ошибка в торренте? Качайте магнет  


     Отправить личное сообщение
   
Страница 1 из 1
Показать сообщения за:  Поле сортировки  
Начать новую тему Ответить на тему

   Похожие торренты   Автор   Ответы   Просмотры   Последнее сообщение 
В этой теме нет новых непрочитанных сообщений. Скачать торрент Проверен Эйфория / Euphoria (Лиза Лангсет / Lisa Langseth) [2017, Швеция, Германия, драма, приключения, WEB-DLRip] MVO (iTunes)

в форуме Фильмы 2016-2017, Размер: 1.46 ГБ, Здоровье: 100%

Anonymous

0
35|11

17
0

11 июн 2018, 09:31

Anonymous Перейти к последнему сообщению

В этой теме нет новых непрочитанных сообщений. Скачать торрент Проверен Взрывная блондинка / Atomic Blonde (Дэвид Литч / David Leitch) [2017, Германия, Швеция, США, боевик, триллер, детектив, WEB-DLRip-AVC] Dub + Sub Rus

в форуме Фильмы 2016-2017, Размер: 745.83 МБ, Здоровье: 100%

Anonymous

0
1|0

9
0

03 фев 2018, 20:21

Anonymous Перейти к последнему сообщению

В этой теме нет новых непрочитанных сообщений. Скачать торрент Проверен Взрывная блондинка / Atomic Blonde (Дэвид Литч / David Leitch) [2017, Германия, Швеция, США, боевик, триллер, детектив, WEB-DLRip] Dub + Sub Rus

в форуме Фильмы 2016-2017, Размер: 743.15 МБ, Здоровье: 100%

Anonymous

0
34|11

5
0

03 фев 2018, 18:12

Anonymous Перейти к последнему сообщению

В этой теме нет новых непрочитанных сообщений. Скачать торрент Проверен Случай в отеле «Нил Хилтон» / The Nile Hilton Incident (Тарик Салех / Tarik Saleh) [2017, Франция, Германия, Швеция, Дания, триллер, драма, криминал, BDRip] DVO

в форуме Фильмы 2016-2017, Размер: 1.46 ГБ, Здоровье: 100%

Anonymous

0
34|12

21
1

04 фев 2018, 14:51

Anonymous Перейти к последнему сообщению

В этой теме нет новых непрочитанных сообщений. Скачать торрент Проверен Борг / Макинрой / Borg McEnroe (Янус Мец / Janus Metz) [2017, Швеция, Драма, биография, спорт, WEB-DLRip] Dub (iTunes)

в форуме Фильмы 2016-2017, Размер: 748.26 МБ, Здоровье: 0%

Anonymous

0
0|0

17
0

03 фев 2018, 19:07

Anonymous Перейти к последнему сообщению



Сейчас этот форум просматривают: нет зарегистрированных пользователей и гости: 0


Вы не можете начинать темы
Вы не можете отвечать на сообщения
Вы не можете редактировать свои сообщения
Вы не можете удалять свои сообщения
Вы не можете добавлять вложения

Перейти:  
Ресурс не предоставляет электронные версии произведений, а занимается лишь коллекционированием и каталогизацией ссылок, присылаемых и публикуемых на форуме нашими читателями. Если вы являетесь правообладателем какого-либо представленного материала и не желаете чтобы ссылка на него находилась в нашем каталоге, свяжитесь с нами и мы незамедлительно удалим её. Файлы для обмена на трекере предоставлены пользователями сайта, и администрация не несёт ответственности за их содержание. Просьба не заливать файлы, защищенные авторскими правами, а также файлы нелегального содержания!
cron