На всех торрентах на трекере установлена скидка на скачивание в размере 100 процентов(а).
 Возможность скачивания торрента НЕ зависит от ограничений при низком ратио, низком аплоаде, требуемом ратио или требуемом аплоаде.


Начать новую тему Ответить на тему
Статистика раздачи
Размер: 90.57 МБ | Добавлен: 16 сен 2018, 18:47 | Скачали: 0
Сидеров: 0  [0 байт/сек]    Личеров: 0  [0 байт/сек]
Пред. тема | След. тема 

Автор
Сообщение

СообщениеДобавлено: 16 сен 2018, 18:47 

Ответить с цитатой 

Et Cetera / Ich Bin Stark Nur Mit Dir
Жанр: Europop
Носитель: CDM
Страна-производитель диска (релиза): Германия
Год издания: 1998
Издатель (лейбл): Dance Street
Номер по каталогу: DST 055-70395.3
Аудиокодек: APE (*.ape)
Тип рипа: image+.cue
Битрейт аудио: lossless
Продолжительность: 00:11:34
Источник (релизер): собственный рип
Наличие сканов в содержимом раздачи: да
Треклист:
01. Ich Bin Stark Nur Mit Dir (Radio Version) (3:50)
02. You're My Heart, You're My Soul (Single Version) (3:50)
03. You're My Heart, You're My Soul (Instrumental) (3:50)
Код:
Exact Audio Copy V1.3 from 2. September 2016
Отчёт EAC об извлечении, выполненном 28. августа 2018, 16:18
Et Cetera / Ich Bin Stark Nur Mit Dir
Дисковод: HL-DT-STCD-ROM GCR-8522B   Adapter: 1  ID: 1
Режим чтения                 : Достоверность
Использование точного потока : Да
Отключение кэша аудио        : Да
Использование указателей C2  : Нет
Коррекция смещения при чтении                     : -489
Способность читать области Lead-in и Lead-out     : Нет
Заполнение пропущенных сэмплов тишиной            : Да
Удаление блоков с тишиной в начале и конце        : Нет
При вычислениях CRC использовались нулевые сэмплы : Да
Интерфейс                                         : Встроенный Win32-интерфейс для Win NT/2000
Выходной формат          : Monkey's Audio (без потерь)
Выбранный битрейт        : Fast Lossless Compression
Качество                 : Высокий
Добавление ID3-тега      : Да
Утилита сжатия           : C:\Program Files\Monkey's Audio x64\MAC.exe
TOC извлечённого CD
     Трек |   Старт  | Длительность | Начальный сектор | Конечный сектор
    ---------------------------------------------------------------------
       1  |  0:00.00 |    3:51.52   |           0      |      17376
       2  |  3:51.52 |    3:51.43   |       17377      |      34744
       3  |  7:43.20 |    3:50.55   |       34745      |      52049
Характеристики диапазона извлечения и сообщения об ошибках
Выбранный диапазон
     Имя файла E:\EAC\Et Cetera - Ich Bin Stark Nur Mit Dir.wav
     Пиковый уровень 100.0 %
     Скорость извлечения 2.1 X
     Качество диапазона 100.0 %
     CRC теста A0534F24
     CRC копии A0534F24
     Копирование... OK
Ошибок не произошло
AccurateRip: сводка
Трек  1  отсутствует в базе данных
Трек  2  отсутствует в базе данных
Трек  3  отсутствует в базе данных
Ни одного трека нет в базе AccurateRip
Конец отчёта
---- CUETools DB Plugin V2.1.6
[CTDB TOCID: ar0AbEcM9YCshhfT5.pM6UNYQLo-] found
Submit result: ar0AbEcM9YCshhfT5.pM6UNYQLo- has been confirmed
Track | CTDB Status
  1   | (1/1) Accurately ripped
  2   | (1/1) Accurately ripped
  3   | (1/1) Accurately ripped
==== Контрольная сумма отчёта C684B0606A405A3938A3F022DDD02ECC7DEEFB583854EA8059622B261AE37541 ====
Код:
REM DATE 1998
REM DISCID 1902B603
REM COMMENT "ExactAudioCopy v1.3"
PERFORMER "Et Cetera"
TITLE "Ich Bin Stark Nur Mit Dir"
REM COMPOSER ""
FILE "Et Cetera - Ich Bin Stark Nur Mit Dir.ape" WAVE
  TRACK 01 AUDIO
    TITLE "Ich Bin Stark Nur Mit Dir (Radio Version)"
    PERFORMER "Et Cetera"
    REM COMPOSER ""
    ISRC DEH969800019
    INDEX 01 00:00:00
  TRACK 02 AUDIO
    TITLE "You're My Heart, You're My Soul (Single Version)"
    PERFORMER "Et Cetera"
    REM COMPOSER ""
    ISRC DEH969800020
    INDEX 00 03:50:53
    INDEX 01 03:51:52
  TRACK 03 AUDIO
    TITLE "You're My Heart, You're My Soul (Instrumental)"
    PERFORMER "Et Cetera"
    REM COMPOSER ""
    ISRC DEH969800023
    INDEX 00 07:42:27
    INDEX 01 07:43:20
загрузка...
Правила, инструкции, FAQ!!!
Торрент  Добавлен [16 сен 2018, 18:47] Скачать торрент Магнет ссылка
Скачать торрент
[ Размер 14.89 КБ / Просмотров 0 ]

Статус
Проверен 
 
Размер  90.57 МБ
Приватный: Нет (DHT включён)
.torrent скачан  0
Как залить торрент? | Как скачать Torrent? | Ошибка в торренте? Качайте магнет  


     Отправить личное сообщение
   
Страница 1 из 1
Показать сообщения за:  Поле сортировки  
Начать новую тему Ответить на тему

   Похожие торренты   Автор   Ответы   Просмотры   Последнее сообщение 
В этой теме нет новых непрочитанных сообщений. Скачать торрент Проверен (krautrock) Et Cetera - Et Cetera (1971) - 2008, FLAC (tracks+.cue)

в форуме Progressive & Art-Rock, Размер: 371.64 МБ, Здоровье: 0%

Anonymous

0
0|0

30
2

31 авг 2016, 19:18

Anonymous Перейти к последнему сообщению

В этой теме нет новых непрочитанных сообщений. Скачать торрент Проверен (Progressive rock) Et Cetera - Et Cetera - 1976, MP3, 320 kbps

в форуме Progressive & Art-Rock, Размер: 83.53 МБ, Здоровье: 100%

Anonymous

0
1|0

6
0

26 сен 2017, 20:18

Anonymous Перейти к последнему сообщению

В этой теме нет новых непрочитанных сообщений. Скачать торрент Проверен (Progressive Rock) Stark Naked - Stark Naked (1971), FLAC (tracks+.cue) lossless

в форуме Progressive & Art-Rock, Размер: 278.52 МБ, Здоровье: 0%

Anonymous

0
0|0

10
0

30 авг 2016, 19:53

Anonymous Перейти к последнему сообщению

В этой теме нет новых непрочитанных сообщений. Скачать торрент Проверен (Prog Rock, Psychedelic Rock) [LP] [24/192] Stark Naked ‎– Stark Naked - 1971, FLAC (image+.cue)

в форуме Зарубежный рок (оцифровки), Размер: 1.67 ГБ, Здоровье: 100%

Anonymous

0
3|1

19
1

24 авг 2016, 15:19

Anonymous Перейти к последнему сообщению

В этой теме нет новых непрочитанных сообщений. Скачать торрент Проверен (Progressive Rock) Stark Naked - Stark Naked (CD reissue) - 1971, MP3, 320 kbps

в форуме Progressive & Art-Rock, Размер: 126.79 МБ, Здоровье: 100%

Anonymous

0
1|0

14
0

30 сен 2017, 16:05

Anonymous Перейти к последнему сообщению



Сейчас этот форум просматривают: нет зарегистрированных пользователей и гости: 1


Вы не можете начинать темы
Вы не можете отвечать на сообщения
Вы не можете редактировать свои сообщения
Вы не можете удалять свои сообщения
Вы не можете добавлять вложения

Перейти:  
Ресурс не предоставляет электронные версии произведений, а занимается лишь коллекционированием и каталогизацией ссылок, присылаемых и публикуемых на форуме нашими читателями. Если вы являетесь правообладателем какого-либо представленного материала и не желаете чтобы ссылка на него находилась в нашем каталоге, свяжитесь с нами и мы незамедлительно удалим её. Файлы для обмена на трекере предоставлены пользователями сайта, и администрация не несёт ответственности за их содержание. Просьба не заливать файлы, защищенные авторскими правами, а также файлы нелегального содержания!
cron