На всех торрентах на трекере установлена скидка на скачивание в размере 100 процентов(а).
 Возможность скачивания торрента НЕ зависит от ограничений при низком ратио, низком аплоаде, требуемом ратио или требуемом аплоаде.


Начать новую тему Ответить на тему
Статистика раздачи
Размер: 527.17 МБ | Добавлен: 16 сен 2018, 18:48 | Скачали: 0
Сидеров: 0  [0 байт/сек]    Личеров: 0  [0 байт/сек]
Пред. тема | След. тема 

Автор
Сообщение

СообщениеДобавлено: 16 сен 2018, 18:48 

Ответить с цитатой 

Silent Circle / Всё Золото Мира
Жанр: Euro-Disco, Synht-Pop
Носитель: CD
Страна-производитель диска (релиза): Россия
Год издания: 2000
Издатель (лейбл): Unofficial Release
Номер по каталогу: ESMCD1064, GASOOOO1064ESM
Аудиокодек: APE (*.ape)
Тип рипа: image+.cue
Битрейт аудио: lossless
Продолжительность: 01:17:37
Источник (релизер): собственный рип
Наличие сканов в содержимом раздачи: нет
Треклист:
01. Moonlight Affair '2001 (3:50)
02. Touch In The Night '98 (3:50)
03. Stop The Rain In The Night (5:35)
04. Touch In The Night (Original) (3:38)
05. 2Night (Album Version '94) (5:49)
06. Take A Chance (3:55)
07. Like An Ocean (3:45)
08. For You (4:13)
09. Give Me Time (1:15)
10. Egyptian Eyes (3:59)
11. Love Can Last A Lifetime (4:24)
12. Night Train (4:48)
13. Save Me (3:56)
14. Every Move, Every Touch (4:48)
15. Hide Away - Man Is Comin'! (5:06)
16. Anywhere Tonight (3:18)
17. Time For Love (5:23)
18. Danger Danger (5:56)
Код:
Exact Audio Copy V1.3 from 2. September 2016
Отчёт EAC об извлечении, выполненном 16. сентября 2018, 12:39
Silent Circle / Всё Золото Мира
Дисковод: HL-DT-STBD-RE  BH08LS20   Adapter: 1  ID: 0
Режим чтения                 : Достоверность
Использование точного потока : Да
Отключение кэша аудио        : Да
Использование указателей C2  : Нет
Коррекция смещения при чтении                     : 667
Способность читать области Lead-in и Lead-out     : Нет
Заполнение пропущенных сэмплов тишиной            : Да
Удаление блоков с тишиной в начале и конце        : Нет
При вычислениях CRC использовались нулевые сэмплы : Да
Интерфейс                                         : Встроенный Win32-интерфейс для Win NT/2000
Выходной формат          : Monkey's Audio (без потерь)
Выбранный битрейт        : Fast Lossless Compression
Качество                 : Высокий
Добавление ID3-тега      : Нет
Утилита сжатия           : C:\Program Files\Monkey's Audio x64\MAC.exe
TOC извлечённого CD
     Трек |   Старт  | Длительность | Начальный сектор | Конечный сектор
    ---------------------------------------------------------------------
       1  |  0:00.00 |    3:50.74   |           0      |      17323
       2  |  3:50.74 |    3:50.57   |       17324      |      34630
       3  |  7:41.56 |    5:35.74   |       34631      |      59829
       4  | 13:17.55 |    3:38.07   |       59830      |      76186
       5  | 16:55.62 |    5:49.15   |       76187      |     102376
       6  | 22:45.02 |    3:55.27   |      102377      |     120028
       7  | 26:40.29 |    3:45.53   |      120029      |     136956
       8  | 30:26.07 |    4:13.62   |      136957      |     155993
       9  | 34:39.69 |    1:15.28   |      155994      |     161646
      10  | 35:55.22 |    3:59.48   |      161647      |     179619
      11  | 39:54.70 |    4:24.44   |      179620      |     199463
      12  | 44:19.39 |    4:48.18   |      199464      |     221081
      13  | 49:07.57 |    3:56.22   |      221082      |     238803
      14  | 53:04.04 |    4:48.10   |      238804      |     260413
      15  | 57:52.14 |    5:06.45   |      260414      |     283408
      16  | 62:58.59 |    3:18.29   |      283409      |     298287
      17  | 66:17.13 |    5:23.39   |      298288      |     322551
      18  | 71:40.52 |    5:56.38   |      322552      |     349289
Характеристики диапазона извлечения и сообщения об ошибках
Выбранный диапазон
     Имя файла E:\EAC\Silent Circle - Всё Золото Мира.wav
     Пиковый уровень 79.4 %
     Скорость извлечения 7.9 X
     Качество диапазона 100.0 %
     CRC теста 9F680F9A
     CRC копии 9F680F9A
     Копирование... OK
Ошибок не произошло
AccurateRip: сводка
Трек  1  отсутствует в базе данных
Трек  2  отсутствует в базе данных
Трек  3  отсутствует в базе данных
Трек  4  отсутствует в базе данных
Трек  5  отсутствует в базе данных
Трек  6  отсутствует в базе данных
Трек  7  отсутствует в базе данных
Трек  8  отсутствует в базе данных
Трек  9  отсутствует в базе данных
Трек 10  отсутствует в базе данных
Трек 11  отсутствует в базе данных
Трек 12  отсутствует в базе данных
Трек 13  отсутствует в базе данных
Трек 14  отсутствует в базе данных
Трек 15  отсутствует в базе данных
Трек 16  отсутствует в базе данных
Трек 17  отсутствует в базе данных
Трек 18  отсутствует в базе данных
Ни одного трека нет в базе AccurateRip
Конец отчёта
---- CUETools DB Plugin V2.1.6
[CTDB TOCID: 0BU_MAI2KYL6QIqEku29x7Y5Lw0-] disk not present in database
Submit result: 0BU_MAI2KYL6QIqEku29x7Y5Lw0- has been uploaded
==== Контрольная сумма отчёта 16389F38078000765A052D6BA8E3F6A410D2F2068F5CD587BA83F67515F198B3 ====
Код:
REM GENRE Disco
REM DATE 2000
REM DISCID 16123112
REM COMMENT "ExactAudioCopy v1.3"
CATALOG 0000000000000
PERFORMER "Silent Circle"
TITLE "Всё Золото Мира"
REM COMPOSER ""
FILE "Silent Circle - Всё Золото Мира.ape" WAVE
  TRACK 01 AUDIO
    TITLE "Moonlight Affair '2001"
    PERFORMER "Silent Circle"
    REM COMPOSER ""
    INDEX 01 00:00:00
  TRACK 02 AUDIO
    TITLE "Touch In The Night '98"
    PERFORMER "Silent Circle"
    REM COMPOSER ""
    INDEX 00 03:48:74
    INDEX 01 03:50:74
  TRACK 03 AUDIO
    TITLE "Stop The Rain In The Night"
    PERFORMER "Silent Circle"
    REM COMPOSER ""
    INDEX 00 07:39:56
    INDEX 01 07:41:56
  TRACK 04 AUDIO
    TITLE "Touch In The Night (Original)"
    PERFORMER "Silent Circle"
    REM COMPOSER ""
    INDEX 00 13:15:55
    INDEX 01 13:17:55
  TRACK 05 AUDIO
    TITLE "2Night (Album Version '94)"
    PERFORMER "Silent Circle"
    REM COMPOSER ""
    INDEX 00 16:53:62
    INDEX 01 16:55:62
  TRACK 06 AUDIO
    TITLE "Take A Chance"
    PERFORMER "Silent Circle"
    REM COMPOSER ""
    INDEX 00 22:43:02
    INDEX 01 22:45:02
  TRACK 07 AUDIO
    TITLE "Like An Ocean"
    PERFORMER "Silent Circle"
    REM COMPOSER ""
    INDEX 00 26:38:29
    INDEX 01 26:40:29
  TRACK 08 AUDIO
    TITLE "For You"
    PERFORMER "Silent Circle"
    REM COMPOSER ""
    INDEX 00 30:24:07
    INDEX 01 30:26:07
  TRACK 09 AUDIO
    TITLE "Give Me Time"
    PERFORMER "Silent Circle"
    REM COMPOSER ""
    INDEX 00 34:37:69
    INDEX 01 34:39:69
  TRACK 10 AUDIO
    TITLE "Egyptian Eyes"
    PERFORMER "Silent Circle"
    REM COMPOSER ""
    INDEX 00 35:53:22
    INDEX 01 35:55:22
  TRACK 11 AUDIO
    TITLE "Love Can Last A Lifetime"
    PERFORMER "Silent Circle"
    REM COMPOSER ""
    INDEX 00 39:52:70
    INDEX 01 39:54:70
  TRACK 12 AUDIO
    TITLE "Night Train"
    PERFORMER "Silent Circle"
    REM COMPOSER ""
    INDEX 00 44:17:39
    INDEX 01 44:19:39
  TRACK 13 AUDIO
    TITLE "Save Me"
    PERFORMER "Silent Circle"
    REM COMPOSER ""
    INDEX 00 49:05:57
    INDEX 01 49:07:57
  TRACK 14 AUDIO
    TITLE "Every Move, Every Touch"
    PERFORMER "Silent Circle"
    REM COMPOSER ""
    INDEX 00 53:02:04
    INDEX 01 53:04:04
  TRACK 15 AUDIO
    TITLE "Hideaway - Manis Coming"
    PERFORMER "Silent Circle"
    REM COMPOSER ""
    INDEX 00 57:50:14
    INDEX 01 57:52:14
  TRACK 16 AUDIO
    TITLE "Anywhere Tonight"
    PERFORMER "Silent Circle"
    REM COMPOSER ""
    INDEX 00 62:56:59
    INDEX 01 62:58:59
  TRACK 17 AUDIO
    TITLE "Time For Love"
    PERFORMER "Silent Circle"
    REM COMPOSER ""
    INDEX 00 66:15:13
    INDEX 01 66:17:13
  TRACK 18 AUDIO
    TITLE "Danger Danger"
    PERFORMER "Silent Circle"
    REM COMPOSER ""
    INDEX 00 71:38:52
    INDEX 01 71:40:52
загрузка...
Правила, инструкции, FAQ!!!
Торрент  Добавлен [16 сен 2018, 18:48] Скачать торрент Магнет ссылка
Скачать торрент
[ Размер 11.03 КБ / Просмотров 1 ]

Статус
Проверен 
 
Размер  527.17 МБ
Приватный: Нет (DHT включён)
.torrent скачан  0
Как залить торрент? | Как скачать Torrent? | Ошибка в торренте? Качайте магнет  


     Отправить личное сообщение
   
Страница 1 из 1
Показать сообщения за:  Поле сортировки  
Начать новую тему Ответить на тему

   Похожие торренты   Автор   Ответы   Просмотры   Последнее сообщение 
В этой теме нет новых непрочитанных сообщений. Скачать торрент Проверен (Euro-Disco, Synht-Pop) Silent Circle - Best Of Silent Circle - 1991, FLAC (image+.cue), lossless

в форуме Зарубежная музыка, Размер: 477.91 МБ, Здоровье: 100%

Anonymous

0
12|3

62
2

08 окт 2017, 17:04

Anonymous Перейти к последнему сообщению

В этой теме нет новых непрочитанных сообщений. Скачать торрент Проверен (Euro-Disco) Silent Circle - Best Of Silent Circle Volume 2 - 1993, FLAC (image+.cue), lossless

в форуме Зарубежная музыка, Размер: 314.39 МБ, Здоровье: 100%

Anonymous

0
4|0

24
0

08 окт 2017, 17:21

Anonymous Перейти к последнему сообщению

В этой теме нет новых непрочитанных сообщений. Скачать торрент Проверен (Euro-Disco) Silent Circle - Best Of Silent Circle Volume II - 1996, FLAC (image+.cue), lossless

в форуме Зарубежная музыка, Размер: 320.7 МБ, Здоровье: 100%

Anonymous

0
4|0

43
0

07 окт 2017, 15:16

Anonymous Перейти к последнему сообщению

В этой теме нет новых непрочитанных сообщений. Скачать торрент Проверен (Euro-Disco) Silent Circle - Best Of Silent Circle - 1991, APE (image + .cue), lossless

в форуме Зарубежная музыка, Размер: 488.08 МБ, Здоровье: 100%

Anonymous

0
5|1

21
0

08 окт 2017, 17:21

Anonymous Перейти к последнему сообщению

В этой теме нет новых непрочитанных сообщений. Скачать торрент Проверен (Euro-Disco, Euro Dance) Silent Circle - Back! (Poland release) - 1995, FLAC (image+.cue), lossless

в форуме Зарубежная музыка, Размер: 383.86 МБ, Здоровье: 100%

Anonymous

0
1|0

13
0

07 окт 2017, 15:15

Anonymous Перейти к последнему сообщению



Сейчас этот форум просматривают: нет зарегистрированных пользователей и гости: 1


Вы не можете начинать темы
Вы не можете отвечать на сообщения
Вы не можете редактировать свои сообщения
Вы не можете удалять свои сообщения
Вы не можете добавлять вложения

Перейти:  
Ресурс не предоставляет электронные версии произведений, а занимается лишь коллекционированием и каталогизацией ссылок, присылаемых и публикуемых на форуме нашими читателями. Если вы являетесь правообладателем какого-либо представленного материала и не желаете чтобы ссылка на него находилась в нашем каталоге, свяжитесь с нами и мы незамедлительно удалим её. Файлы для обмена на трекере предоставлены пользователями сайта, и администрация не несёт ответственности за их содержание. Просьба не заливать файлы, защищенные авторскими правами, а также файлы нелегального содержания!
cron